  0
SECTION
  2
HEADER
  9
$ACADVER
  1
AC1015
  9
$ACADMAINTVER
 70
     6
  9
$DWGCODEPAGE
  3
ANSI_1252
  9
$INSBASE
 10
0.0
 20
0.0
 30
0.0
  9
$EXTMIN
 10
-42.00000000000004
 20
0.0
 30
0.0
  9
$EXTMAX
 10
0.0
 20
59.40000000000003
 30
0.0
  9
$LIMMIN
 10
0.0
 20
0.0
  9
$LIMMAX
 10
12.0
 20
9.0
  9
$ORTHOMODE
 70
     0
  9
$REGENMODE
 70
     1
  9
$FILLMODE
 70
     1
  9
$QTEXTMODE
 70
     0
  9
$MIRRTEXT
 70
     1
  9
$LTSCALE
 40
1.0
  9
$ATTMODE
 70
     1
  9
$TEXTSIZE
 40
0.2
  9
$TRACEWID
 40
0.05
  9
$TEXTSTYLE
  7
Standard
  9
$CLAYER
  8
0
  9
$CELTYPE
  6
ByLayer
  9
$CECOLOR
 62
   256
  9
$CELTSCALE
 40
1.0
  9
$DISPSILH
 70
     0
  9
$DIMSCALE
 40
1.0
  9
$DIMASZ
 40
0.18
  9
$DIMEXO
 40
0.0625
  9
$DIMDLI
 40
0.38
  9
$DIMRND
 40
0.0
  9
$DIMDLE
 40
0.0
  9
$DIMEXE
 40
0.18
  9
$DIMTP
 40
0.0
  9
$DIMTM
 40
0.0
  9
$DIMTXT
 40
0.18
  9
$DIMCEN
 40
0.09
  9
$DIMTSZ
 40
0.0
  9
$DIMTOL
 70
     0
  9
$DIMLIM
 70
     0
  9
$DIMTIH
 70
     1
  9
$DIMTOH
 70
     1
  9
$DIMSE1
 70
     0
  9
$DIMSE2
 70
     0
  9
$DIMTAD
 70
     0
  9
$DIMZIN
 70
     0
  9
$DIMBLK
  1

  9
$DIMASO
 70
     1
  9
$DIMSHO
 70
     1
  9
$DIMPOST
  1

  9
$DIMAPOST
  1

  9
$DIMALT
 70
     0
  9
$DIMALTD
 70
     2
  9
$DIMALTF
 40
25.4
  9
$DIMLFAC
 40
1.0
  9
$DIMTOFL
 70
     0
  9
$DIMTVP
 40
0.0
  9
$DIMTIX
 70
     0
  9
$DIMSOXD
 70
     0
  9
$DIMSAH
 70
     0
  9
$DIMBLK1
  1

  9
$DIMBLK2
  1

  9
$DIMSTYLE
  2
Standard
  9
$DIMCLRD
 70
     0
  9
$DIMCLRE
 70
     0
  9
$DIMCLRT
 70
     0
  9
$DIMTFAC
 40
1.0
  9
$DIMGAP
 40
0.09
  9
$DIMJUST
 70
     0
  9
$DIMSD1
 70
     0
  9
$DIMSD2
 70
     0
  9
$DIMTOLJ
 70
     1
  9
$DIMTZIN
 70
     0
  9
$DIMALTZ
 70
     0
  9
$DIMALTTZ
 70
     0
  9
$DIMUPT
 70
     0
  9
$DIMDEC
 70
     4
  9
$DIMTDEC
 70
     4
  9
$DIMALTU
 70
     2
  9
$DIMALTTD
 70
     2
  9
$DIMTXSTY
  7
Standard
  9
$DIMAUNIT
 70
     0
  9
$DIMADEC
 70
     0
  9
$DIMALTRND
 40
0.0
  9
$DIMAZIN
 70
     0
  9
$DIMDSEP
 70
    46
  9
$DIMATFIT
 70
     3
  9
$DIMFRAC
 70
     0
  9
$DIMLDRBLK
  1

  9
$DIMLUNIT
 70
     2
  9
$DIMLWD
 70
    -2
  9
$DIMLWE
 70
    -2
  9
$DIMTMOVE
 70
     0
  9
$LUNITS
 70
     2
  9
$LUPREC
 70
     4
  9
$SKETCHINC
 40
0.1
  9
$FILLETRAD
 40
0.5
  9
$AUNITS
 70
     0
  9
$AUPREC
 70
     0
  9
$MENU
  1
.
  9
$ELEVATION
 40
0.0
  9
$PELEVATION
 40
0.0
  9
$THICKNESS
 40
0.0
  9
$LIMCHECK
 70
     0
  9
$CHAMFERA
 40
0.5
  9
$CHAMFERB
 40
0.5
  9
$CHAMFERC
 40
1.0
  9
$CHAMFERD
 40
0.0
  9
$SKPOLY
 70
     0
  9
$TDCREATE
 40
2456997.48865243
  9
$TDUCREATE
 40
2456997.446985764
  9
$TDUPDATE
 40
2456997.488652604
  9
$TDUUPDATE
 40
2456997.446985938
  9
$TDINDWG
 40
0.0000000116
  9
$TDUSRTIMER
 40
0.0000000116
  9
$USRTIMER
 70
     1
  9
$ANGBASE
 50
0.0
  9
$ANGDIR
 70
     0
  9
$PDMODE
 70
     0
  9
$PDSIZE
 40
0.0
  9
$PLINEWID
 40
0.0
  9
$SPLFRAME
 70
     0
  9
$SPLINETYPE
 70
     6
  9
$SPLINESEGS
 70
     8
  9
$HANDSEED
  5
196
  9
$SURFTAB1
 70
     6
  9
$SURFTAB2
 70
     6
  9
$SURFTYPE
 70
     6
  9
$SURFU
 70
     6
  9
$SURFV
 70
     6
  9
$UCSBASE
  2

  9
$UCSNAME
  2

  9
$UCSORG
 10
0.0
 20
0.0
 30
0.0
  9
$UCSXDIR
 10
1.0
 20
0.0
 30
0.0
  9
$UCSYDIR
 10
0.0
 20
1.0
 30
0.0
  9
$UCSORTHOREF
  2

  9
$UCSORTHOVIEW
 70
     0
  9
$UCSORGTOP
 10
0.0
 20
0.0
 30
0.0
  9
$UCSORGBOTTOM
 10
0.0
 20
0.0
 30
0.0
  9
$UCSORGLEFT
 10
0.0
 20
0.0
 30
0.0
  9
$UCSORGRIGHT
 10
0.0
 20
0.0
 30
0.0
  9
$UCSORGFRONT
 10
0.0
 20
0.0
 30
0.0
  9
$UCSORGBACK
 10
0.0
 20
0.0
 30
0.0
  9
$PUCSBASE
  2

  9
$PUCSNAME
  2

  9
$PUCSORG
 10
0.0
 20
0.0
 30
0.0
  9
$PUCSXDIR
 10
1.0
 20
0.0
 30
0.0
  9
$PUCSYDIR
 10
0.0
 20
1.0
 30
0.0
  9
$PUCSORTHOREF
  2

  9
$PUCSORTHOVIEW
 70
     0
  9
$PUCSORGTOP
 10
0.0
 20
0.0
 30
0.0
  9
$PUCSORGBOTTOM
 10
0.0
 20
0.0
 30
0.0
  9
$PUCSORGLEFT
 10
0.0
 20
0.0
 30
0.0
  9
$PUCSORGRIGHT
 10
0.0
 20
0.0
 30
0.0
  9
$PUCSORGFRONT
 10
0.0
 20
0.0
 30
0.0
  9
$PUCSORGBACK
 10
0.0
 20
0.0
 30
0.0
  9
$USERI1
 70
     0
  9
$USERI2
 70
     0
  9
$USERI3
 70
     0
  9
$USERI4
 70
     0
  9
$USERI5
 70
     0
  9
$USERR1
 40
18.1
  9
$USERR2
 40
0.0
  9
$USERR3
 40
0.0
  9
$USERR4
 40
0.0
  9
$USERR5
 40
0.0
  9
$WORLDVIEW
 70
     1
  9
$SHADEDGE
 70
     3
  9
$SHADEDIF
 70
    70
  9
$TILEMODE
 70
     1
  9
$MAXACTVP
 70
    64
  9
$PINSBASE
 10
0.0
 20
0.0
 30
0.0
  9
$PLIMCHECK
 70
     0
  9
$PEXTMIN
 10
1.00000000000000E+20
 20
1.00000000000000E+20
 30
1.00000000000000E+20
  9
$PEXTMAX
 10
-1.00000000000000E+20
 20
-1.00000000000000E+20
 30
-1.00000000000000E+20
  9
$PLIMMIN
 10
0.0
 20
0.0
  9
$PLIMMAX
 10
12.0
 20
9.0
  9
$UNITMODE
 70
     0
  9
$VISRETAIN
 70
     1
  9
$PLINEGEN
 70
     0
  9
$PSLTSCALE
 70
     1
  9
$TREEDEPTH
 70
  3020
  9
$CMLSTYLE
  2
Standard
  9
$CMLJUST
 70
     0
  9
$CMLSCALE
 40
1.0
  9
$PROXYGRAPHICS
 70
     1
  9
$MEASUREMENT
 70
     1
  9
$CELWEIGHT
370
    -1
  9
$ENDCAPS
280
     0
  9
$JOINSTYLE
280
     0
  9
$LWDISPLAY
290
     0
  9
$INSUNITS
 70
     4
  9
$HYPERLINKBASE
  1

  9
$STYLESHEET
  1

  9
$XEDIT
290
     1
  9
$CEPSNTYPE
380
     0
  9
$PSTYLEMODE
290
     1
  9
$FINGERPRINTGUID
  2
{74242F2E-9C9E-4EFB-88D1-80A835EC0DFD}
  9
$VERSIONGUID
  2
{FAEB1C32-E019-11D5-929B-00C0DF256EC4}
  9
$EXTNAMES
290
     1
  9
$PSVPSCALE
 40
0.0
  9
$OLESTARTUP
290
     0
  0
ENDSEC
  0
SECTION
  2
CLASSES
  0
CLASS
  1
ACDBDICTIONARYWDFLT
  2
AcDbDictionaryWithDefault
  3
ObjectDBX Classes
 90
        0
280
     0
281
     0
  0
CLASS
  1
VISUALSTYLE
  2
AcDbVisualStyle
  3
ObjectDBX Classes
 90
     4095
280
     0
281
     0
  0
CLASS
  1
MATERIAL
  2
AcDbMaterial
  3
ObjectDBX Classes
 90
     1153
280
     0
281
     0
  0
CLASS
  1
DICTIONARYVAR
  2
AcDbDictionaryVar
  3
ObjectDBX Classes
 90
        0
280
     0
281
     0
  0
CLASS
  1
ACDBPLACEHOLDER
  2
AcDbPlaceHolder
  3
ObjectDBX Classes
 90
        0
280
     0
281
     0
  0
CLASS
  1
LAYOUT
  2
AcDbLayout
  3
ObjectDBX Classes
 90
        0
280
     0
281
     0
  0
ENDSEC
  0
SECTION
  2
TABLES
  0
TABLE
  2
VPORT
  5
8
330
0
100
AcDbSymbolTable
 70
     1
  0
VPORT
  5
29
330
8
100
AcDbSymbolTableRecord
100
AcDbViewportTableRecord
  2
*Active
 70
     0
 10
0.0
 20
0.0
 11
1.0
 21
1.0
 12
-21.00000000000002
 22
29.70000000000001
 13
0.0
 23
0.0
 14
0.5
 24
0.5
 15
0.5
 25
0.5
 16
0.0
 26
0.0
 36
1.0
 17
0.0
 27
0.0
 37
0.0
 40
65.34000000000003
 41
1.60267857142857
 42
50.0
 43
0.0
 44
0.0
 50
0.0
 51
0.0
 71
     0
 72
   100
 73
     1
 74
     3
 75
     0
 76
     0
 77
     0
 78
     0
281
     0
 65
     1
110
0.0
120
0.0
130
0.0
111
1.0
121
0.0
131
0.0
112
0.0
122
1.0
132
0.0
 79
     0
146
0.0
  0
ENDTAB
  0
TABLE
  2
LTYPE
  5
5
330
0
100
AcDbSymbolTable
 70
     8
  0
LTYPE
  5
14
330
5
100
AcDbSymbolTableRecord
100
AcDbLinetypeTableRecord
  2
ByBlock
 70
     0
  3

 72
    65
 73
     0
 40
0.0
  0
LTYPE
  5
15
330
5
100
AcDbSymbolTableRecord
100
AcDbLinetypeTableRecord
  2
ByLayer
 70
     0
  3

 72
    65
 73
     0
 40
0.0
  0
LTYPE
  5
16
330
5
100
AcDbSymbolTableRecord
100
AcDbLinetypeTableRecord
  2
Continuous
 70
     0
  3
Solid line
 72
    65
 73
     0
 40
0.0
  0
LTYPE
  5
3F
330
5
100
AcDbSymbolTableRecord
100
AcDbLinetypeTableRecord
  2
DASHED
 70
     0
  3
Dashed
 72
    65
 73
     2
 40
15.0
 49
7.0
 74
     0
 49
-8.0
 74
     0
  0
LTYPE
  5
40
330
5
100
AcDbSymbolTableRecord
100
AcDbLinetypeTableRecord
  2
DOTTED
 70
     0
  3
Dotted
 72
    65
 73
     2
 40
1.0
 49
0.0
 74
     0
 49
-1.0
 74
     0
  0
LTYPE
  5
41
330
5
100
AcDbSymbolTableRecord
100
AcDbLinetypeTableRecord
  2
DOT_CENTER
 70
     0
  3
Dot_Center
 72
    65
 73
     4
 40
14.0
 49
12.0
 74
     0
 49
-1.0
 74
     0
 49
0.0
 74
     0
 49
-1.0
 74
     0
  0
LTYPE
  5
42
330
5
100
AcDbSymbolTableRecord
100
AcDbLinetypeTableRecord
  2
LONG_DASHED
 70
     0
  3
Long_Dashed
 72
    65
 73
     2
 40
15.0
 49
10.0
 74
     0
 49
-5.0
 74
     0
  0
LTYPE
  5
43
330
5
100
AcDbSymbolTableRecord
100
AcDbLinetypeTableRecord
  2
DASH_CENTER
 70
     0
  3
Dash_Center
 72
    65
 73
     4
 40
14.0
 49
11.0
 74
     0
 49
-1.0
 74
     0
 49
1.0
 74
     0
 49
-1.0
 74
     0
  0
LTYPE
  5
44
330
5
100
AcDbSymbolTableRecord
100
AcDbLinetypeTableRecord
  2
PHANTOM
 70
     0
  3
Phantom
 72
    65
 73
     6
 40
13.0
 49
10.0
 74
     0
 49
-1.0
 74
     0
 49
0.0
 74
     0
 49
-1.0
 74
     0
 49
0.0
 74
     0
 49
-1.0
 74
     0
  0
LTYPE
  5
45
330
5
100
AcDbSymbolTableRecord
100
AcDbLinetypeTableRecord
  2
CENTER_DASH_DASH
 70
     0
  3
Center_Dash_Dash
 72
    65
 73
     6
 40
14.0
 49
9.0
 74
     0
 49
-1.0
 74
     0
 49
1.0
 74
     0
 49
-1.0
 74
     0
 49
1.0
 74
     0
 49
-1.0
 74
     0
  0
ENDTAB
  0
TABLE
  2
LAYER
  5
2
330
0
100
AcDbSymbolTable
 70
     2
  0
LAYER
  5
10
330
2
100
AcDbSymbolTableRecord
100
AcDbLayerTableRecord
  2
0
 70
     0
 62
     7
  6
Continuous
370
    -3
390
F
  0
LAYER
  5
46
330
2
100
AcDbSymbolTableRecord
100
AcDbLayerTableRecord
  2
1
 70
     0
 62
     7
  6
Continuous
370
    -3
390
F
  0
ENDTAB
  0
TABLE
  2
STYLE
  5
3
330
0
100
AcDbSymbolTable
 70
     3
  0
STYLE
  5
11
330
3
100
AcDbSymbolTableRecord
100
AcDbTextStyleTableRecord
  2
Standard
 70
     0
 40
0.0
 41
1.0
 50
0.0
 71
     0
 42
0.2
  3
txt
  4

  0
STYLE
  5
114
330
3
100
AcDbSymbolTableRecord
100
AcDbTextStyleTableRecord
  2
CONVERTER_11
 70
     0
 40
0.0
 41
1.2
 50
0.0
 71
     0
 42
0.2
  3
ARIAL.TTF
  4

  0
STYLE
  5
11D
330
3
100
AcDbSymbolTableRecord
100
AcDbTextStyleTableRecord
  2
CONVERTER_12
 70
     0
 40
0.0
 41
0.95
 50
0.0
 71
     0
 42
0.2
  3
simplex.shx
  4

  0
ENDTAB
  0
TABLE
  2
VIEW
  5
6
330
0
100
AcDbSymbolTable
 70
     0
  0
ENDTAB
  0
TABLE
  2
UCS
  5
7
330
0
100
AcDbSymbolTable
 70
     0
  0
ENDTAB
  0
TABLE
  2
APPID
  5
9
330
0
100
AcDbSymbolTable
 70
     1
  0
APPID
  5
12
330
9
100
AcDbSymbolTableRecord
100
AcDbRegAppTableRecord
  2
ACAD
 70
     0
  0
ENDTAB
  0
TABLE
  2
DIMSTYLE
  5
A
330
0
100
AcDbSymbolTable
 70
     5
100
AcDbDimStyleTable
  0
DIMSTYLE
105
27
330
A
100
AcDbSymbolTableRecord
100
AcDbDimStyleTableRecord
  2
Standard
 70
     0
178
     0
340
11
  0
DIMSTYLE
105
13E
102
{ACAD_REACTORS
330
13F
102
}
330
A
100
AcDbSymbolTableRecord
100
AcDbDimStyleTableRecord
  2
ME10_DIM_10
 70
     0
 41
0.6
 42
0.1
 44
0.2
 77
     1
 78
     8
140
0.6
147
0.4
172
     1
173
     1
174
     1
175
     1
176
     2
177
     2
271
     2
178
     4
271
     2
340
11D
  0
DIMSTYLE
105
14B
102
{ACAD_REACTORS
330
14C
102
}
330
A
100
AcDbSymbolTableRecord
100
AcDbDimStyleTableRecord
  2
ME10_DIM_11
 70
     0
  3
ø<>
 41
0.6
 42
0.1
 44
0.2
 77
     1
 78
     8
140
0.6
147
0.4
172
     1
173
     1
174
     1
175
     1
176
     2
177
     2
271
     2
178
     4
271
     2
340
11D
  0
DIMSTYLE
105
157
102
{ACAD_REACTORS
330
158
102
}
330
A
100
AcDbSymbolTableRecord
100
AcDbDimStyleTableRecord
  2
ME10_DIM_12
 70
     0
  3
ø<>
 41
0.6
 42
0.1
 44
0.2
 77
     1
 78
     8
140
0.6
147
0.4
172
     1
173
     1
174
     1
175
     1
176
     2
177
     2
271
     2
178
     4
271
     2
340
11D
  0
DIMSTYLE
105
163
102
{ACAD_REACTORS
330
164
102
}
330
A
100
AcDbSymbolTableRecord
100
AcDbDimStyleTableRecord
  2
ME10_DIM_13
 70
     0
 41
0.6
 42
0.1
 44
0.2
 77
     1
 78
     8
140
0.6
147
0.4
172
     1
173
     1
174
     1
175
     1
176
     2
177
     2
271
     2
178
     4
271
     2
340
11D
  0
ENDTAB
  0
TABLE
  2
BLOCK_RECORD
  5
1
330
0
100
AcDbSymbolTable
 70
     5
  0
BLOCK_RECORD
  5
1F
330
1
100
AcDbSymbolTableRecord
100
AcDbBlockTableRecord
  2
*Model_Space
340
22
  0
BLOCK_RECORD
  5
1B
330
1
100
AcDbSymbolTableRecord
100
AcDbBlockTableRecord
  2
*Paper_Space
340
1E
  0
BLOCK_RECORD
  5
23
330
1
100
AcDbSymbolTableRecord
100
AcDbBlockTableRecord
  2
*Paper_Space0
340
26
  0
BLOCK_RECORD
  5
134
330
1
100
AcDbSymbolTableRecord
100
AcDbBlockTableRecord
  2
*D1
340
0
  0
BLOCK_RECORD
  5
140
330
1
100
AcDbSymbolTableRecord
100
AcDbBlockTableRecord
  2
*D2
340
0
  0
BLOCK_RECORD
  5
14D
330
1
100
AcDbSymbolTableRecord
100
AcDbBlockTableRecord
  2
*D3
340
0
  0
BLOCK_RECORD
  5
159
330
1
100
AcDbSymbolTableRecord
100
AcDbBlockTableRecord
  2
*D4
340
0
  0
ENDTAB
  0
ENDSEC
  0
SECTION
  2
BLOCKS
  0
BLOCK
  5
20
330
1F
100
AcDbEntity
  8
0
100
AcDbBlockBegin
  2
*Model_Space
 70
     0
 10
0.0
 20
0.0
 30
0.0
  3
*Model_Space
  1

  0
ENDBLK
  5
21
330
1F
100
AcDbEntity
  8
0
100
AcDbBlockEnd
  0
BLOCK
  5
1C
330
1B
100
AcDbEntity
 67
     1
  8
0
100
AcDbBlockBegin
  2
*Paper_Space
 70
     0
 10
0.0
 20
0.0
 30
0.0
  3
*Paper_Space
  1

  0
ENDBLK
  5
1D
330
1B
100
AcDbEntity
 67
     1
  8
0
100
AcDbBlockEnd
  0
BLOCK
  5
24
330
23
100
AcDbEntity
  8
0
100
AcDbBlockBegin
  2
*Paper_Space0
 70
     0
 10
0.0
 20
0.0
 30
0.0
  3
*Paper_Space0
  1

  0
ENDBLK
  5
25
330
23
100
AcDbEntity
  8
0
100
AcDbBlockEnd
  0
BLOCK
  5
13C
330
134
100
AcDbEntity
  8
0
100
AcDbBlockBegin
  2
*D1
 70
     1
 10
0.0
 20
0.0
 30
0.0
  3
*D1
  1

  0
LINE
  5
135
330
134
100
AcDbEntity
  8
1
  6
Continuous
 62
     2
100
AcDbLine
 10
-10.0173410786439
 20
39.35331083308701
 30
0.0
 11
-10.0173410786439
 21
37.98331083308695
 31
0.0
  0
LINE
  5
136
330
134
100
AcDbEntity
  8
1
  6
Continuous
 62
     2
100
AcDbLine
 10
-10.0173410786439
 20
42.18331083308707
 30
0.0
 11
-10.0173410786439
 21
40.81331083308701
 31
0.0
  0
LINE
  5
137
330
134
100
AcDbEntity
  8
1
  6
Continuous
 62
     2
100
AcDbLine
 10
-12.65417968040889
 20
37.98331083308695
 30
0.0
 11
-9.8173410786439
 21
37.98331083308695
 31
0.0
  0
LINE
  5
138
330
134
100
AcDbEntity
  8
1
  6
Continuous
 62
     2
100
AcDbLine
 10
-12.3391796804091
 20
42.18331083308707
 30
0.0
 11
-9.8173410786439
 21
42.18331083308707
 31
0.0
  0
SOLID
  5
139
330
134
100
AcDbEntity
  8
1
 62
     2
100
AcDbTrace
 10
-9.93834958009146
 20
41.58331083308707
 30
0.0
 11
-10.09633257719634
 21
41.58331083308707
 31
0.0
 12
-10.0173410786439
 22
42.18331083308707
 32
0.0
 13
-10.0173410786439
 23
42.18331083308707
 33
0.0
  0
SOLID
  5
13A
330
134
100
AcDbEntity
  8
1
 62
     2
100
AcDbTrace
 10
-10.09633257719634
 20
38.58331083308695
 30
0.0
 11
-9.93834958009146
 21
38.58331083308695
 31
0.0
 12
-10.0173410786439
 22
37.98331083308695
 32
0.0
 13
-10.0173410786439
 23
37.98331083308695
 33
0.0
  0
MTEXT
  5
13B
330
134
100
AcDbEntity
  8
1
 62
     4
100
AcDbMText
 10
-10.5723410786439
 20
39.81331083308701
 30
0.0
 40
0.6
 41
0.0
 71
     7
 72
     1
  1
4,2
  7
CONVERTER_12
 11
0.9999999999970619
 21
2.424068405545306E-6
 31
0.0
 73
     1
 44
0.60024009603842
  0
ENDBLK
  5
13D
330
134
100
AcDbEntity
  8
0
100
AcDbBlockEnd
  0
BLOCK
  5
149
330
140
100
AcDbEntity
  8
0
100
AcDbBlockBegin
  2
*D2
 70
     1
 10
0.0
 20
0.0
 30
0.0
  3
*D2
  1

  0
LINE
  5
141
330
140
100
AcDbEntity
  8
1
  6
Continuous
 62
     2
100
AcDbLine
 10
-12.75417968040889
 20
43.668767081019
 30
0.0
 11
-11.55417968040889
 21
43.668767081019
 31
0.0
  0
LINE
  5
142
330
140
100
AcDbEntity
  8
1
  6
Continuous
 62
     2
100
AcDbLine
 10
-13.87417968040913
 20
43.668767081019
 30
0.0
 11
-12.75417968040889
 21
43.668767081019
 31
0.0
  0
LINE
  5
143
330
140
100
AcDbEntity
  8
1
  6
Continuous
 62
     2
100
AcDbLine
 10
-15.07417968040913
 20
43.668767081019
 30
0.0
 11
-13.87417968040913
 21
43.668767081019
 31
0.0
  0
LINE
  5
144
330
140
100
AcDbEntity
  8
1
  6
Continuous
 62
     2
100
AcDbLine
 10
-12.75417968040889
 20
42.13087240895126
 30
0.0
 11
-12.75417968040889
 21
43.868767081019
 31
0.0
  0
LINE
  5
145
330
140
100
AcDbEntity
  8
1
  6
Continuous
 62
     2
100
AcDbLine
 10
-13.87417968040913
 20
42.13087240895126
 30
0.0
 11
-13.87417968040913
 21
43.868767081019
 31
0.0
  0
SOLID
  5
146
330
140
100
AcDbEntity
  8
1
 62
     2
100
AcDbTrace
 10
-14.47417968040913
 20
43.58977558246656
 30
0.0
 11
-14.47417968040913
 21
43.74775857957144
 31
0.0
 12
-13.87417968040913
 22
43.668767081019
 32
0.0
 13
-13.87417968040913
 23
43.668767081019
 33
0.0
  0
SOLID
  5
147
330
140
100
AcDbEntity
  8
1
 62
     2
100
AcDbTrace
 10
-12.15417968040889
 20
43.74775857957144
 30
0.0
 11
-12.15417968040889
 21
43.58977558246656
 31
0.0
 12
-12.75417968040889
 22
43.668767081019
 32
0.0
 13
-12.75417968040889
 23
43.668767081019
 33
0.0
  0
MTEXT
  5
148
330
140
100
AcDbEntity
  8
1
 62
     4
100
AcDbMText
 10
-13.71617968040757
 20
44.06876588837735
 30
0.0
 40
0.6
 41
0.0
 71
     7
 72
     1
  1
\C4;\U+00f8\C4;A
  7
CONVERTER_12
 11
0.9999999999970619
 21
2.424068405545306E-6
 31
0.0
 73
     1
 44
0.60024009603842
  0
ENDBLK
  5
14A
330
140
100
AcDbEntity
  8
0
100
AcDbBlockEnd
  0
BLOCK
  5
155
330
14D
100
AcDbEntity
  8
0
100
AcDbBlockBegin
  2
*D3
 70
     1
 10
0.0
 20
0.0
 30
0.0
  3
*D3
  1

  0
LINE
  5
14E
330
14D
100
AcDbEntity
  8
1
  6
Continuous
 62
     2
100
AcDbLine
 10
-24.26417968040904
 20
37.1466070424595
 30
0.0
 11
-21.2375300278295
 21
37.1466070424595
 31
0.0
  0
LINE
  5
14F
330
14D
100
AcDbEntity
  8
1
  6
Continuous
 62
     2
100
AcDbLine
 10
-26.36417968040901
 20
37.1466070424595
 30
0.0
 11
-24.26417968040904
 21
37.1466070424595
 31
0.0
  0
LINE
  5
150
330
14D
100
AcDbEntity
  8
1
  6
Continuous
 62
     2
100
AcDbLine
 10
-24.26417968040904
 20
37.98331083311694
 30
0.0
 11
-24.26417968040904
 21
36.9466070424595
 31
0.0
  0
LINE
  5
151
330
14D
100
AcDbEntity
  8
1
  6
Continuous
 62
     2
100
AcDbLine
 10
-26.36417968040901
 20
37.98331083311694
 30
0.0
 11
-26.36417968040901
 21
36.9466070424595
 31
0.0
  0
SOLID
  5
152
330
14D
100
AcDbEntity
  8
1
 62
     2
100
AcDbTrace
 10
-25.76417968040901
 20
37.22559854101194
 30
0.0
 11
-25.76417968040901
 21
37.06761554390706
 31
0.0
 12
-26.36417968040901
 22
37.1466070424595
 32
0.0
 13
-26.36417968040901
 23
37.1466070424595
 33
0.0
  0
SOLID
  5
153
330
14D
100
AcDbEntity
  8
1
 62
     2
100
AcDbTrace
 10
-24.86417968040904
 20
37.06761554390706
 30
0.0
 11
-24.86417968040904
 21
37.22559854101194
 31
0.0
 12
-24.26417968040904
 22
37.1466070424595
 32
0.0
 13
-24.26417968040904
 23
37.1466070424595
 33
0.0
  0
MTEXT
  5
154
330
14D
100
AcDbEntity
  8
1
 62
     4
100
AcDbMText
 10
-22.65953002782806
 20
37.60660584981784
 30
0.0
 40
0.6
 41
0.0
 71
     7
 72
     1
  1
\C4;\U+00f8\C4;2,1
  7
CONVERTER_12
 11
0.9999999999970619
 21
2.424068405545306E-6
 31
0.0
 73
     1
 44
0.60024009603842
  0
ENDBLK
  5
156
330
14D
100
AcDbEntity
  8
0
100
AcDbBlockEnd
  0
BLOCK
  5
161
330
159
100
AcDbEntity
  8
0
100
AcDbBlockBegin
  2
*D4
 70
     1
 10
0.0
 20
0.0
 30
0.0
  3
*D4
  1

  0
LINE
  5
15A
330
159
100
AcDbEntity
  8
1
  6
Continuous
 62
     2
100
AcDbLine
 10
-29.8961418792427
 20
34.65331083311688
 30
0.0
 11
-29.8961418792427
 21
28.58331083311692
 31
0.0
  0
LINE
  5
15B
330
159
100
AcDbEntity
  8
1
  6
Continuous
 62
     2
100
AcDbLine
 10
-29.8961418792427
 20
42.18331083311685
 30
0.0
 11
-29.8961418792427
 21
36.11331083311688
 31
0.0
  0
LINE
  5
15C
330
159
100
AcDbEntity
  8
1
  6
Continuous
 62
     2
100
AcDbLine
 10
-26.16978107696875
 20
28.58331083311692
 30
0.0
 11
-30.0961418792427
 21
28.58331083311692
 31
0.0
  0
LINE
  5
15D
330
159
100
AcDbEntity
  8
1
  6
Continuous
 62
     2
100
AcDbLine
 10
-26.28917968040903
 20
42.18331083311685
 30
0.0
 11
-30.0961418792427
 21
42.18331083311685
 31
0.0
  0
SOLID
  5
15E
330
159
100
AcDbEntity
  8
1
 62
     2
100
AcDbTrace
 10
-29.81715038069026
 20
41.58331083311685
 30
0.0
 11
-29.97513337779514
 21
41.58331083311685
 31
0.0
 12
-29.8961418792427
 22
42.18331083311685
 32
0.0
 13
-29.8961418792427
 23
42.18331083311685
 33
0.0
  0
SOLID
  5
15F
330
159
100
AcDbEntity
  8
1
 62
     2
100
AcDbTrace
 10
-29.97513337779514
 20
29.18331083311692
 30
0.0
 11
-29.81715038069026
 21
29.18331083311692
 31
0.0
 12
-29.8961418792427
 22
28.58331083311692
 32
0.0
 13
-29.8961418792427
 23
28.58331083311692
 33
0.0
  0
MTEXT
  5
160
330
159
100
AcDbEntity
  8
1
 62
     4
100
AcDbMText
 10
-30.6311418792427
 20
35.11331083311688
 30
0.0
 40
0.6
 41
0.0
 71
     7
 72
     1
  1
13,6
  7
CONVERTER_12
 11
0.9999999999970619
 21
2.424068405545306E-6
 31
0.0
 73
     1
 44
0.60024009603842
  0
ENDBLK
  5
162
330
159
100
AcDbEntity
  8
0
100
AcDbBlockEnd
  0
ENDSEC
  0
SECTION
  2
ENTITIES
  0
LINE
  5
47
330
1F
100
AcDbEntity
  8
1
  6
Continuous
 62
     7
100
AcDbLine
 10
-14.21417968040901
 20
36.18331083308712
 30
0.0
 11
-12.41417968040901
 21
36.18331083308713
 31
0.0
  0
LINE
  5
48
330
1F
100
AcDbEntity
  8
1
  6
Continuous
 62
     7
100
AcDbLine
 10
-14.364179680409
 20
36.48331083308714
 30
0.0
 11
-12.26417968040902
 21
36.48331083308714
 31
0.0
  0
LINE
  5
49
102
{ACAD_REACTORS
330
165
102
}
330
1F
100
AcDbEntity
  8
1
  6
Continuous
 62
     7
100
AcDbLine
 10
-12.43917968040905
 20
38.08331083308709
 30
0.0
 11
-12.43917968040908
 21
38.38327748258855
 31
0.0
  0
LINE
  5
4A
102
{ACAD_REACTORS
330
165
102
}
330
1F
100
AcDbEntity
  8
0
  6
Continuous
 62
     7
100
AcDbLine
 10
-13.31417968040901
 20
37.66031083308697
 30
0.0
 11
-12.7541796804089
 21
37.98331083308695
 31
0.0
  0
LINE
  5
4B
102
{ACAD_REACTORS
330
165
102
}
330
1F
100
AcDbEntity
  8
1
  6
Continuous
 62
     7
100
AcDbLine
 10
-12.75417968040897
 20
38.38327748258855
 30
0.0
 11
-12.43917968040908
 21
38.38327748258855
 31
0.0
  0
LINE
  5
4C
330
1F
100
AcDbEntity
  8
0
  6
Continuous
 62
     7
100
AcDbLine
 10
-14.36417968040905
 20
37.2688135625912
 30
0.0
 11
-14.364179680409
 21
36.48331083308714
 31
0.0
  0
LINE
  5
4D
330
1F
100
AcDbEntity
  8
0
  6
Continuous
 62
     7
100
AcDbLine
 10
-12.26417968040902
 20
37.251677070551
 30
0.0
 11
-12.26417968040902
 21
36.48331083308714
 31
0.0
  0
LINE
  5
4E
102
{ACAD_REACTORS
330
165
102
}
330
1F
100
AcDbEntity
  8
1
  6
Continuous
 62
     7
100
AcDbLine
 10
-12.26417968040902
 20
38.08331083308705
 30
0.0
 11
-12.43917968040905
 21
38.08331083308709
 31
0.0
  0
LINE
  5
4F
102
{ACAD_REACTORS
330
165
102
}
330
1F
100
AcDbEntity
  8
1
  6
Continuous
 62
     7
100
AcDbLine
 10
-14.18917968040899
 20
38.08331083308705
 30
0.0
 11
-14.3641796804091
 21
38.08331083308705
 31
0.0
  0
LINE
  5
50
330
1F
100
AcDbEntity
  8
0
  6
Continuous
 62
     7
100
AcDbLine
 10
-24.26417968040904
 20
36.48331083311692
 30
0.0
 11
-24.26417968040904
 21
38.08331083311695
 31
0.0
  0
LINE
  5
51
330
1F
100
AcDbEntity
  8
0
  6
Continuous
 62
     7
100
AcDbLine
 10
-26.36417968040901
 20
36.48331083311692
 30
0.0
 11
-26.36417968040901
 21
38.08331083311695
 31
0.0
  0
LINE
  5
52
330
1F
100
AcDbEntity
  8
0
  6
Continuous
 62
     7
100
AcDbLine
 10
-12.41417968040901
 20
36.18331083308713
 30
0.0
 11
-12.414179680409
 21
33.58331083308714
 31
0.0
  0
LINE
  5
53
330
1F
100
AcDbEntity
  8
0
  6
Continuous
 62
     7
100
AcDbLine
 10
-14.21417968040901
 20
36.18331083308712
 30
0.0
 11
-14.21417968040903
 21
33.58331083308714
 31
0.0
  0
LINE
  5
54
330
1F
100
AcDbEntity
  8
0
  6
Continuous
 62
     7
100
AcDbLine
 10
-12.414179680409
 20
33.58331083308714
 30
0.0
 11
-12.54187339007775
 21
28.58331083308714
 31
0.0
  0
LINE
  5
55
330
1F
100
AcDbEntity
  8
0
  6
Continuous
 62
     7
100
AcDbLine
 10
-12.41417968040901
 20
36.18331083308713
 30
0.0
 11
-12.26417968040902
 21
36.48331083308714
 31
0.0
  0
LINE
  5
56
330
1F
100
AcDbEntity
  8
0
  6
Continuous
 62
     7
100
AcDbLine
 10
-12.26417968040902
 20
36.77147856266173
 30
0.0
 11
-12.26417968040902
 21
36.48331083308714
 31
0.0
  0
LINE
  5
57
330
1F
100
AcDbEntity
  8
0
  6
Continuous
 62
     7
100
AcDbLine
 10
-13.48917968040902
 20
33.58331083308714
 30
0.0
 11
-13.13917968040901
 21
33.58331083308714
 31
0.0
  0
LINE
  5
58
330
1F
100
AcDbEntity
  8
0
  6
Continuous
 62
     7
100
AcDbLine
 10
-13.26704790716303
 20
28.83331083308683
 30
0.0
 11
-13.13917968040901
 21
33.58331083308714
 31
0.0
  0
LINE
  5
59
330
1F
100
AcDbEntity
  8
0
  6
Continuous
 62
     7
100
AcDbLine
 10
-14.36417968040903
 20
36.83331083311694
 30
0.0
 11
-14.364179680409
 21
36.48331083308714
 31
0.0
  0
LINE
  5
5A
330
1F
100
AcDbEntity
  8
0
  6
Continuous
 62
     7
100
AcDbLine
 10
-14.21417968040901
 20
36.18331083308712
 30
0.0
 11
-14.364179680409
 21
36.48331083308714
 31
0.0
  0
LINE
  5
5B
330
1F
100
AcDbEntity
  8
0
  6
Continuous
 62
     7
100
AcDbLine
 10
-13.35453817522197
 20
28.58331083308714
 30
0.0
 11
-13.96148597073988
 21
28.58331083308714
 31
0.0
  0
LINE
  5
5C
330
1F
100
AcDbEntity
  8
0
  6
Continuous
 62
     7
100
AcDbLine
 10
-14.21417968040903
 20
33.58331083308714
 30
0.0
 11
-14.08648597074029
 21
28.58331083308714
 31
0.0
  0
LINE
  5
5D
330
1F
100
AcDbEntity
  8
0
  6
Continuous
 62
     7
100
AcDbLine
 10
-13.26704790716303
 20
28.83331083308683
 30
0.0
 11
-13.27380897815446
 21
28.58331083308714
 31
0.0
  0
LINE
  5
5E
330
1F
100
AcDbEntity
  8
0
  6
Continuous
 62
     7
100
AcDbLine
 10
-12.66687339007813
 20
28.58331083308714
 30
0.0
 11
-13.27380897815446
 21
28.58331083308714
 31
0.0
  0
LINE
  5
5F
330
1F
100
AcDbEntity
  8
0
  6
Continuous
 62
     7
100
AcDbLine
 10
-14.08648597074029
 20
28.58331083308714
 30
0.0
 11
-13.96148597073988
 21
28.58331083308714
 31
0.0
  0
LINE
  5
60
330
1F
100
AcDbEntity
  8
0
  6
Continuous
 62
     7
100
AcDbLine
 10
-12.66687339007813
 20
28.58331083308714
 30
0.0
 11
-12.54187339007775
 21
28.58331083308714
 31
0.0
  0
LINE
  5
61
330
1F
100
AcDbEntity
  8
0
  6
Continuous
 62
     7
100
AcDbLine
 10
-13.35453817522197
 20
28.58331083308714
 30
0.0
 11
-13.36129924621339
 21
28.83331083308673
 31
0.0
  0
LINE
  5
62
330
1F
100
AcDbEntity
  8
0
  6
Continuous
 62
     7
100
AcDbLine
 10
-13.36129924621339
 20
28.83331083308673
 30
0.0
 11
-13.48917968040902
 21
33.58331083308714
 31
0.0
  0
LINE
  5
63
330
1F
100
AcDbEntity
  8
0
  6
Continuous
 62
     7
100
AcDbLine
 10
-25.31417968040904
 20
38.08331083311683
 30
0.0
 11
-24.26417968040904
 21
38.08331083311695
 31
0.0
  0
LINE
  5
64
330
1F
100
AcDbEntity
  8
0
  6
Continuous
 62
     7
100
AcDbLine
 10
-24.43917968040914
 20
38.08331083311695
 30
0.0
 11
-24.43917968040901
 21
42.18331083311685
 31
0.0
  0
LINE
  5
65
330
1F
100
AcDbEntity
  8
0
  6
Continuous
 62
     7
100
AcDbLine
 10
-26.21417968040903
 20
33.58331083311692
 30
0.0
 11
-26.21417968040903
 21
36.18331083311702
 31
0.0
  0
LINE
  5
66
330
1F
100
AcDbEntity
  8
0
  6
Continuous
 62
     7
100
AcDbLine
 10
-26.06978107696875
 20
28.58331083311692
 30
0.0
 11
-26.19747478663825
 21
33.58331083311692
 31
0.0
  0
LINE
  5
67
330
1F
100
AcDbEntity
  8
0
  6
Continuous
 62
     7
100
AcDbLine
 10
-26.21417968040903
 20
33.58331083311692
 30
0.0
 11
-26.19747478663825
 21
33.58331083311692
 31
0.0
  0
LINE
  5
68
330
1F
100
AcDbEntity
  8
0
  6
Continuous
 62
     7
100
AcDbLine
 10
-26.36417968040901
 20
36.48331083311692
 30
0.0
 11
-26.21417968040903
 21
36.18331083311702
 31
0.0
  0
LINE
  5
69
330
1F
100
AcDbEntity
  8
0
  6
Continuous
 62
     7
100
AcDbLine
 10
-26.36417968040901
 20
36.48331083311692
 30
0.0
 11
-25.31417968040904
 21
36.48331083311692
 31
0.0
  0
LINE
  5
6A
330
1F
100
AcDbEntity
  8
0
  6
Continuous
 62
     7
100
AcDbLine
 10
-26.03917968040905
 20
38.08331083311683
 30
0.0
 11
-25.31417968040904
 21
38.08331083311683
 31
0.0
  0
LINE
  5
6B
330
1F
100
AcDbEntity
  8
0
  6
Continuous
 62
     7
100
AcDbLine
 10
-26.21417968040903
 20
36.18331083311702
 30
0.0
 11
-25.31417968040904
 21
36.18331083311702
 31
0.0
  0
LINE
  5
6C
330
1F
100
AcDbEntity
  8
0
  6
Continuous
 62
     7
100
AcDbLine
 10
-24.43088457417977
 20
33.58331083311692
 30
0.0
 11
-24.5585782838485
 21
28.58331083311692
 31
0.0
  0
LINE
  5
6D
330
1F
100
AcDbEntity
  8
0
  6
Continuous
 62
     7
100
AcDbLine
 10
-24.5585782838485
 20
28.58331083311692
 30
0.0
 11
-26.06978107696875
 21
28.58331083311692
 31
0.0
  0
LINE
  5
6E
330
1F
100
AcDbEntity
  8
0
  6
Continuous
 62
     7
100
AcDbLine
 10
-24.43088457417977
 20
33.58331083311692
 30
0.0
 11
-24.41417968040902
 21
33.58331083311692
 31
0.0
  0
LINE
  5
6F
330
1F
100
AcDbEntity
  8
0
  6
Continuous
 62
     7
100
AcDbLine
 10
-24.41417968040902
 20
33.58331083311692
 30
0.0
 11
-24.41417968040902
 21
36.18331083311702
 31
0.0
  0
LINE
  5
70
330
1F
100
AcDbEntity
  8
0
  6
Continuous
 62
     7
100
AcDbLine
 10
-24.43917968040901
 20
42.18331083311685
 30
0.0
 11
-26.18917968040903
 21
42.18331083311685
 31
0.0
  0
LINE
  5
71
330
1F
100
AcDbEntity
  8
0
  6
Continuous
 62
     7
100
AcDbLine
 10
-26.36417968040901
 20
38.08331083311695
 30
0.0
 11
-26.03917968040905
 21
38.08331083311683
 31
0.0
  0
LINE
  5
72
330
1F
100
AcDbEntity
  8
0
  6
Continuous
 62
     7
100
AcDbLine
 10
-26.18917968040903
 20
38.08331083311695
 30
0.0
 11
-26.18917968040903
 21
42.18331083311685
 31
0.0
  0
LINE
  5
73
330
1F
100
AcDbEntity
  8
0
  6
Continuous
 62
     7
100
AcDbLine
 10
-24.26417968040904
 20
36.48331083311692
 30
0.0
 11
-24.41417968040902
 21
36.18331083311702
 31
0.0
  0
LINE
  5
74
330
1F
100
AcDbEntity
  8
0
  6
Continuous
 62
     7
100
AcDbLine
 10
-25.31417968040904
 20
36.48331083311692
 30
0.0
 11
-24.26417968040904
 21
36.48331083311692
 31
0.0
  0
LINE
  5
75
330
1F
100
AcDbEntity
  8
0
  6
Continuous
 62
     7
100
AcDbLine
 10
-25.31417968040904
 20
36.18331083311702
 30
0.0
 11
-24.41417968040902
 21
36.18331083311702
 31
0.0
  0
LINE
  5
76
102
{ACAD_REACTORS
330
166
102
}
330
1F
100
AcDbEntity
  8
0
  6
Continuous
 62
     7
100
AcDbLine
 10
-12.4391796804091
 20
42.18331083308707
 30
0.0
 11
-12.43917968040905
 21
38.98331083308707
 31
0.0
  0
LINE
  5
77
102
{ACAD_REACTORS
330
166
102
}
330
1F
100
AcDbEntity
  8
0
  6
Continuous
 62
     7
100
AcDbLine
 10
-12.75417968040889
 20
42.03087240895126
 30
0.0
 11
-12.60174125627307
 21
42.18331083308707
 31
0.0
  0
LINE
  5
78
102
{ACAD_REACTORS
330
166
102
}
330
1F
100
AcDbEntity
  8
0
  6
Continuous
 62
     7
100
AcDbLine
 10
-12.75417968040897
 20
38.98331083308707
 30
0.0
 11
-12.75417968040889
 21
42.03087240895126
 31
0.0
  0
LINE
  5
79
102
{ACAD_REACTORS
330
166
102
}
330
1F
100
AcDbEntity
  8
0
  6
Continuous
 62
     7
100
AcDbLine
 10
-12.4391796804091
 20
42.18331083308707
 30
0.0
 11
-12.60174125627307
 21
42.18331083308707
 31
0.0
  0
LINE
  5
7A
330
1F
100
AcDbEntity
  8
0
  6
Continuous
 62
     7
100
AcDbLine
 10
-12.60174125627307
 20
42.18331083308707
 30
0.0
 11
-14.02661810454473
 21
42.18331083308687
 31
0.0
  0
LINE
  5
7B
102
{ACAD_REACTORS
330
165
102
}
330
1F
100
AcDbEntity
  8
0
  6
Continuous
 62
     7
100
AcDbLine
 10
-13.31417968040901
 20
37.66031083308697
 30
0.0
 11
-13.87417968040912
 21
37.98331083308695
 31
0.0
  0
LINE
  5
7C
330
1F
100
AcDbEntity
  8
0
  6
Continuous
 62
     7
100
AcDbLine
 10
-12.75417968040889
 20
42.03087240895126
 30
0.0
 11
-13.87417968040912
 21
42.03087240895126
 31
0.0
  0
LINE
  5
7D
330
1F
100
AcDbEntity
  8
0
  6
Continuous
 62
     7
100
AcDbLine
 10
-12.7541796804089
 20
37.98331083308695
 30
0.0
 11
-13.87417968040912
 21
37.98331083308695
 31
0.0
  0
LINE
  5
7E
102
{ACAD_REACTORS
330
165
102
}
330
1F
100
AcDbEntity
  8
0
  6
Continuous
 62
     7
100
AcDbLine
 10
-14.18917968040899
 20
42.18331083308707
 30
0.0
 11
-14.18917968040899
 21
38.08331083308705
 31
0.0
  0
LINE
  5
7F
102
{ACAD_REACTORS
330
165
102
}
330
1F
100
AcDbEntity
  8
0
  6
Continuous
 62
     7
100
AcDbLine
 10
-13.87417968040912
 20
42.03087240895126
 30
0.0
 11
-14.02661810454473
 21
42.18331083308687
 31
0.0
  0
LINE
  5
80
102
{ACAD_REACTORS
330
165
102
}
330
1F
100
AcDbEntity
  8
0
  6
Continuous
 62
     7
100
AcDbLine
 10
-13.87417968040912
 20
37.98331083308695
 30
0.0
 11
-13.87417968040912
 21
42.03087240895126
 31
0.0
  0
LINE
  5
81
102
{ACAD_REACTORS
330
165
102
}
330
1F
100
AcDbEntity
  8
0
  6
Continuous
 62
     7
100
AcDbLine
 10
-14.02661810454473
 20
42.18331083308687
 30
0.0
 11
-14.18917968040899
 21
42.18331083308707
 31
0.0
  0
LINE
  5
82
102
{ACAD_REACTORS
330
165
102
}
330
1F
100
AcDbEntity
  8
0
  6
Continuous
 62
     7
100
AcDbLine
 10
-14.3641796804091
 20
38.08331083308705
 30
0.0
 11
-14.36417968040905
 21
37.2688135625912
 31
0.0
  0
LINE
  5
83
102
{ACAD_REACTORS
330
166
102
}
330
1F
100
AcDbEntity
  8
0
  6
Continuous
 62
     7
100
AcDbLine
 10
-12.43917968040905
 20
38.98331083308707
 30
0.0
 11
-12.75417968040897
 21
38.98331083308707
 31
0.0
  0
LINE
  5
84
102
{ACAD_REACTORS
330
165
102
}
330
1F
100
AcDbEntity
  8
1
  6
Continuous
 62
     7
100
AcDbLine
 10
-12.75417968040897
 20
38.38327748258855
 30
0.0
 11
-12.7541796804089
 21
37.98331083308695
 31
0.0
  0
LINE
  5
85
330
1F
100
AcDbEntity
  8
0
  6
Continuous
 62
     7
100
AcDbLine
 10
-14.21417968040901
 20
36.18331083308712
 30
0.0
 11
-14.364179680409
 21
36.48331083308714
 31
0.0
  0
LINE
  5
86
330
1F
100
AcDbEntity
  8
0
  6
Continuous
 62
     7
100
AcDbLine
 10
-12.41417968040901
 20
36.18331083308713
 30
0.0
 11
-12.26417968040902
 21
36.48331083308714
 31
0.0
  0
LINE
  5
87
102
{ACAD_REACTORS
330
165
102
}
330
1F
100
AcDbEntity
  8
0
  6
Continuous
 62
     7
100
AcDbLine
 10
-12.26417968040902
 20
38.08331083308705
 30
0.0
 11
-12.26417968040902
 21
37.251677070551
 31
0.0
  0
LINE
  5
88
330
1F
100
AcDbEntity
  8
0
  6
Continuous
 62
     7
100
AcDbLine
 10
-3.86108844211809
 20
51.96734149724642
 30
0.0
 11
-3.86108844211809
 21
52.02262438323567
 31
0.0
  0
LINE
  5
89
330
1F
100
AcDbEntity
  8
0
  6
Continuous
 62
     7
100
AcDbLine
 10
-3.73734475541044
 20
52.02921334060023
 30
0.0
 11
-3.91530543084194
 21
52.11819367831598
 31
0.0
  0
LINE
  5
8A
330
1F
100
AcDbEntity
  8
0
  6
Continuous
 62
     7
100
AcDbLine
 10
-3.73734475541044
 20
52.08449622658949
 30
0.0
 11
-3.73734475541044
 21
52.02921334060023
 31
0.0
  0
LINE
  5
8B
330
1F
100
AcDbEntity
  8
0
  6
Continuous
 62
     7
100
AcDbLine
 10
-3.94947678976646
 20
52.17905909078229
 30
0.0
 11
-4.05585282546766
 21
52.23224710863269
 31
0.0
  0
LINE
  5
8C
330
1F
100
AcDbEntity
  8
0
  6
Continuous
 62
     7
100
AcDbLine
 10
-3.82573310305869
 20
52.69249073084046
 30
0.0
 11
-3.86108844211809
 21
52.71016840037024
 31
0.0
  0
LINE
  5
8D
330
1F
100
AcDbEntity
  8
0
  6
Continuous
 62
     7
100
AcDbLine
 10
-3.86108844211809
 20
52.69866524738481
 30
0.0
 11
-3.86108844211809
 21
52.75394813337403
 31
0.0
  0
LINE
  5
8E
330
1F
100
AcDbEntity
  8
0
  6
Continuous
 62
     7
100
AcDbLine
 10
-3.82573310305886
 20
52.24093093413592
 30
0.0
 11
-4.06862311227345
 21
52.36237593874319
 31
0.0
  0
LINE
  5
8F
330
1F
100
AcDbEntity
  8
0
  6
Continuous
 62
     7
100
AcDbLine
 10
-3.73734475541044
 20
52.81581997672788
 30
0.0
 11
-3.73734475541075
 21
52.76053709073858
 31
0.0
  0
LINE
  5
90
330
1F
100
AcDbEntity
  8
0
  6
Continuous
 62
     7
100
AcDbLine
 10
-3.86108844211809
 20
52.75394813337403
 30
0.0
 11
-5.62885539508445
 21
53.63783160985722
 31
0.0
  0
LINE
  5
91
330
1F
100
AcDbEntity
  8
0
  6
Continuous
 62
     7
100
AcDbLine
 10
-5.50511170837679
 20
53.69970345321103
 30
0.0
 11
-3.73734475541044
 21
52.81581997672788
 31
0.0
  0
LINE
  5
92
330
1F
100
AcDbEntity
  8
0
  6
Continuous
 62
     7
100
AcDbLine
 10
-6.7284139942512
 20
53.33908871493378
 30
0.0
 11
-4.00605288668298
 21
51.9779081611497
 31
0.0
  0
LINE
  5
93
330
1F
100
AcDbEntity
  8
0
  6
Continuous
 62
     7
100
AcDbLine
 10
-9.07597906543988
 20
54.56597786499373
 30
0.0
 11
-7.59105482494814
 21
53.82351574474788
 31
0.0
  0
LINE
  5
94
330
1F
100
AcDbEntity
  8
0
  6
Continuous
 62
     7
100
AcDbLine
 10
-6.67736644413491
 20
53.31356493987562
 30
0.0
 11
-6.7352396824211
 21
53.30554996037319
 31
0.0
  0
LINE
  5
95
330
1F
100
AcDbEntity
  8
0
  6
Continuous
 62
     7
100
AcDbLine
 10
-7.4337064560409
 20
53.60788239667238
 30
0.0
 11
-6.86802103109163
 21
53.32503968419778
 31
0.0
  0
LINE
  5
96
330
1F
100
AcDbEntity
  8
0
  6
Continuous
 62
     7
100
AcDbLine
 10
-6.95295184087839
 20
54.56939162699732
 30
0.0
 11
-6.38726641592921
 21
54.28654891452271
 31
0.0
  0
LINE
  5
97
330
1F
100
AcDbEntity
  8
0
  6
Continuous
 62
     7
100
AcDbLine
 10
-6.26369386829744
 20
54.14091009155058
 30
0.0
 11
-6.29200582766719
 21
54.19201766988099
 31
0.0
  0
LINE
  5
98
330
1F
100
AcDbEntity
  8
0
  6
Continuous
 62
     7
100
AcDbLine
 10
-5.50511170837679
 20
53.57595976650336
 30
0.0
 11
-5.50511170837679
 21
53.69970345321103
 31
0.0
  0
LINE
  5
99
330
1F
100
AcDbEntity
  8
0
  6
Continuous
 62
     7
100
AcDbLine
 10
-8.70479178117491
 20
55.30835243352368
 30
0.0
 11
-7.21986754068316
 21
54.56589031327783
 31
0.0
  0
LINE
  5
9A
330
1F
100
AcDbEntity
  8
0
  6
Continuous
 62
     7
100
AcDbLine
 10
-6.31474141841374
 20
54.16643386660871
 30
0.0
 11
-3.59238031084549
 21
52.80525331282456
 31
0.0
  0
LINE
  5
9B
330
1F
100
AcDbEntity
  8
1
  6
Continuous
 62
     7
100
AcDbLine
 10
-37.80000000000001
 20
3.99999999999999
 30
0.0
 11
-1.0
 21
3.99999999999999
 31
0.0
  0
LINE
  5
9C
330
1F
100
AcDbEntity
  8
1
  6
Continuous
 62
     7
100
AcDbLine
 10
-37.80000000000001
 20
0.99999999999998
 30
0.0
 11
-1.0
 21
0.99999999999998
 31
0.0
  0
LINE
  5
9D
330
1F
100
AcDbEntity
  8
1
  6
Continuous
 62
     7
100
AcDbLine
 10
-32.79999999999998
 20
6.99999999999999
 30
0.0
 11
-32.79999999999998
 21
7.99999999999999
 31
0.0
  0
LINE
  5
9E
330
1F
100
AcDbEntity
  8
1
  6
Continuous
 62
     7
100
AcDbLine
 10
-36.40000000000001
 20
6.99999999999999
 30
0.0
 11
-36.40000000000001
 21
7.99999999999999
 31
0.0
  0
LINE
  5
9F
330
1F
100
AcDbEntity
  8
1
  6
Continuous
 62
     7
100
AcDbLine
 10
-37.80000000000001
 20
7.99999999999999
 30
0.0
 11
-1.0
 21
7.99999999999999
 31
0.0
  0
LINE
  5
A0
330
1F
100
AcDbEntity
  8
1
  6
Continuous
 62
     7
100
AcDbLine
 10
-32.79999999999998
 20
5.99999999999999
 30
0.0
 11
-32.79999999999998
 21
6.99999999999999
 31
0.0
  0
LINE
  5
A1
330
1F
100
AcDbEntity
  8
1
  6
Continuous
 62
     7
100
AcDbLine
 10
-36.40000000000001
 20
5.99999999999999
 30
0.0
 11
-36.40000000000001
 21
6.99999999999999
 31
0.0
  0
LINE
  5
A2
330
1F
100
AcDbEntity
  8
1
  6
Continuous
 62
     7
100
AcDbLine
 10
-37.80000000000001
 20
6.99999999999999
 30
0.0
 11
-1.0
 21
6.99999999999999
 31
0.0
  0
LINE
  5
A3
330
1F
100
AcDbEntity
  8
1
  6
Continuous
 62
     7
100
AcDbLine
 10
-32.79999999999998
 20
4.99999999999999
 30
0.0
 11
-32.79999999999998
 21
5.99999999999999
 31
0.0
  0
LINE
  5
A4
330
1F
100
AcDbEntity
  8
1
  6
Continuous
 62
     7
100
AcDbLine
 10
-36.40000000000001
 20
4.99999999999999
 30
0.0
 11
-36.40000000000001
 21
5.99999999999999
 31
0.0
  0
LINE
  5
A5
330
1F
100
AcDbEntity
  8
1
  6
Continuous
 62
     7
100
AcDbLine
 10
-37.80000000000001
 20
5.99999999999999
 30
0.0
 11
-1.0
 21
5.99999999999999
 31
0.0
  0
LINE
  5
A6
330
1F
100
AcDbEntity
  8
1
  6
Continuous
 62
     7
100
AcDbLine
 10
-32.79999999999998
 20
3.99999999999999
 30
0.0
 11
-32.79999999999998
 21
4.99999999999999
 31
0.0
  0
LINE
  5
A7
330
1F
100
AcDbEntity
  8
1
  6
Continuous
 62
     7
100
AcDbLine
 10
-36.40000000000001
 20
3.99999999999999
 30
0.0
 11
-36.40000000000001
 21
4.99999999999999
 31
0.0
  0
LINE
  5
A8
330
1F
100
AcDbEntity
  8
1
  6
Continuous
 62
     7
100
AcDbLine
 10
-37.80000000000001
 20
4.99999999999999
 30
0.0
 11
-1.0
 21
4.99999999999999
 31
0.0
  0
LINE
  5
A9
102
{ACAD_REACTORS
330
167
102
}
330
1F
100
AcDbEntity
  8
1
  6
Continuous
 62
     7
100
AcDbLine
 10
-2.83142503201884
 20
2.11160041607606
 30
0.0
 11
-3.09809169868549
 21
1.95775426222995
 31
0.0
  0
LINE
  5
AA
102
{ACAD_REACTORS
330
167
102
}
330
1F
100
AcDbEntity
  8
1
  6
Continuous
 62
     7
100
AcDbLine
 10
-3.06473986225147
 20
2.13092730652958
 30
0.0
 11
-2.89805469248411
 21
2.22709182754924
 31
0.0
  0
LINE
  5
AB
102
{ACAD_REACTORS
330
167
102
}
330
1F
100
AcDbEntity
  8
1
  6
Continuous
 62
     7
100
AcDbLine
 10
-3.06473986225147
 20
2.43333333333333
 30
0.0
 11
-3.06473986225147
 21
2.13092730652958
 31
0.0
  0
LINE
  5
AC
102
{ACAD_REACTORS
330
167
102
}
330
1F
100
AcDbEntity
  8
1
  6
Continuous
 62
     7
100
AcDbLine
 10
-2.86473986225147
 20
2.43333333333333
 30
0.0
 11
-3.06473986225147
 21
2.43333333333333
 31
0.0
  0
LINE
  5
AD
102
{ACAD_REACTORS
330
167
102
}
330
1F
100
AcDbEntity
  8
1
  6
Continuous
 62
     7
100
AcDbLine
 10
-3.06473986225147
 20
2.56666666666666
 30
0.0
 11
-2.86473986225147
 21
2.56666666666666
 31
0.0
  0
LINE
  5
AE
102
{ACAD_REACTORS
330
167
102
}
330
1F
100
AcDbEntity
  8
1
  6
Continuous
 62
     7
100
AcDbLine
 10
-3.06473986225147
 20
2.86907269347039
 30
0.0
 11
-3.06473986225147
 21
2.56666666666666
 31
0.0
  0
LINE
  5
AF
102
{ACAD_REACTORS
330
167
102
}
330
1F
100
AcDbEntity
  8
1
  6
Continuous
 62
     7
100
AcDbLine
 10
-2.89805469248411
 20
2.77290817245075
 30
0.0
 11
-3.06473986225147
 21
2.86907269347039
 31
0.0
  0
LINE
  5
B0
102
{ACAD_REACTORS
330
167
102
}
330
1F
100
AcDbEntity
  8
1
  6
Continuous
 62
     7
100
AcDbLine
 10
-3.09809169868549
 20
3.04224573777005
 30
0.0
 11
-2.83142503201884
 21
2.88839958392389
 31
0.0
  0
LINE
  5
B1
102
{ACAD_REACTORS
330
168
102
}
330
1F
100
AcDbEntity
  8
1
  6
Continuous
 62
     7
100
AcDbLine
 10
-4.53140652891814
 20
2.16934612181264
 30
0.0
 11
-4.53140652891814
 21
2.83065387818733
 31
0.0
  0
LINE
  5
B2
102
{ACAD_REACTORS
330
168
102
}
330
1F
100
AcDbEntity
  8
1
  6
Continuous
 62
     7
100
AcDbLine
 10
-4.39807319558481
 20
2.20785038345266
 30
0.0
 11
-4.39807319558481
 21
2.16934612181264
 31
0.0
  0
LINE
  5
B3
102
{ACAD_REACTORS
330
168
102
}
330
1F
100
AcDbEntity
  8
1
  6
Continuous
 62
     7
100
AcDbLine
 10
-4.39807319558481
 20
2.83065387818733
 30
0.0
 11
-4.39807319558481
 21
2.20785038345266
 31
0.0
  0
LINE
  5
B4
102
{ACAD_REACTORS
330
169
102
}
330
1F
100
AcDbEntity
  8
1
  6
Continuous
 62
     7
100
AcDbLine
 10
-3.76472135915078
 20
1.68852349299916
 30
0.0
 11
-4.1980361893834
 21
1.93851281813338
 31
0.0
  0
LINE
  5
B5
102
{ACAD_REACTORS
330
169
102
}
330
1F
100
AcDbEntity
  8
1
  6
Continuous
 62
     7
100
AcDbLine
 10
-4.13140652891813
 20
2.05400422960654
 30
0.0
 11
-3.6980916986855
 21
1.80401490447232
 31
0.0
  0
LINE
  5
B6
102
{ACAD_REACTORS
330
169
102
}
330
1F
100
AcDbEntity
  8
1
  6
Continuous
 62
     7
100
AcDbLine
 10
-4.13140652891813
 20
2.98450003203347
 30
0.0
 11
-4.13140652891813
 21
2.05400422960654
 31
0.0
  0
LINE
  5
B7
102
{ACAD_REACTORS
330
169
102
}
330
1F
100
AcDbEntity
  8
1
  6
Continuous
 62
     7
100
AcDbLine
 10
-4.26473986225146
 20
2.05400422960651
 30
0.0
 11
-4.26473986225146
 21
2.98450003203347
 31
0.0
  0
LINE
  5
B8
102
{ACAD_REACTORS
330
16A
102
}
330
1F
100
AcDbEntity
  8
1
  6
Continuous
 62
     7
100
AcDbLine
 10
-3.43029326564282
 20
3.17274008365445
 30
0.0
 11
-3.66473986225147
 21
2.76666666666664
 31
0.0
  0
LINE
  5
B9
102
{ACAD_REACTORS
330
16A
102
}
330
1F
100
AcDbEntity
  8
1
  6
Continuous
 62
     7
100
AcDbLine
 10
-3.33140652891814
 20
1.86165381412035
 30
0.0
 11
-3.33140652891814
 21
3.14624346240691
 31
0.0
  0
LINE
  5
BA
102
{ACAD_REACTORS
330
16A
102
}
330
1F
100
AcDbEntity
  8
1
  6
Continuous
 62
     7
100
AcDbLine
 10
-3.46473986225146
 20
2.49999999999999
 30
0.0
 11
-3.46473986225146
 21
1.86165381412035
 31
0.0
  0
LINE
  5
BB
102
{ACAD_REACTORS
330
16A
102
}
330
1F
100
AcDbEntity
  8
1
  6
Continuous
 62
     7
100
AcDbLine
 10
-3.86473986225147
 20
2.16951701452658
 30
0.0
 11
-3.86473986225147
 21
2.49999999999999
 31
0.0
  0
LINE
  5
BC
102
{ACAD_REACTORS
330
16A
102
}
330
1F
100
AcDbEntity
  8
1
  6
Continuous
 62
     7
100
AcDbLine
 10
-3.99807319558481
 20
2.49999999999999
 30
0.0
 11
-3.99807319558481
 21
2.16951701452658
 31
0.0
  0
LINE
  5
BD
102
{ACAD_REACTORS
330
16A
102
}
330
1F
100
AcDbEntity
  8
1
  6
Continuous
 62
     7
100
AcDbLine
 10
-3.89918645886012
 20
3.17274008365445
 30
0.0
 11
-3.66473986225147
 21
2.76666666666664
 31
0.0
  0
LINE
  5
BE
102
{ACAD_REACTORS
330
16A
102
}
330
1F
100
AcDbEntity
  8
1
  6
Continuous
 62
     7
100
AcDbLine
 10
-3.99807319558481
 20
2.49999999999999
 30
0.0
 11
-3.99807319558481
 21
3.14624346240691
 31
0.0
  0
LINE
  5
BF
330
1F
100
AcDbEntity
  8
1
  6
Continuous
 62
     7
100
AcDbLine
 10
-3.66473986225147
 20
1.49999999999999
 30
0.0
 11
-5.34802691727978
 21
2.4711271471317
 31
0.0
  0
LINE
  5
C0
330
1F
100
AcDbEntity
  8
1
  6
Continuous
 62
     7
100
AcDbLine
 10
-1.98145280722318
 20
2.4711271471317
 30
0.0
 11
-3.66473986225147
 21
1.49999999999999
 31
0.0
  0
LINE
  5
C1
330
1F
100
AcDbEntity
  8
1
  6
Continuous
 62
     7
100
AcDbLine
 10
-3.66473986225147
 20
3.49999999999999
 30
0.0
 11
-1.98145280722318
 21
2.52887285286827
 31
0.0
  0
LINE
  5
C2
330
1F
100
AcDbEntity
  8
1
  6
Continuous
 62
     7
100
AcDbLine
 10
-5.34802691727978
 20
2.52887285286827
 30
0.0
 11
-3.66473986225147
 21
3.49999999999999
 31
0.0
  0
LINE
  5
C3
102
{ACAD_REACTORS
330
16A
102
}
330
1F
100
AcDbEntity
  8
1
  6
Continuous
 62
     7
100
AcDbLine
 10
-3.86473986225147
 20
2.84641016151377
 30
0.0
 11
-3.86473986225147
 21
2.49999999999999
 31
0.0
  0
LINE
  5
C4
102
{ACAD_REACTORS
330
16A
102
}
330
1F
100
AcDbEntity
  8
1
  6
Continuous
 62
     7
100
AcDbLine
 10
-3.69360737571097
 20
2.55
 30
0.0
 11
-3.86473986225147
 21
2.84641016151377
 31
0.0
  0
LINE
  5
C5
102
{ACAD_REACTORS
330
16A
102
}
330
1F
100
AcDbEntity
  8
1
  6
Continuous
 62
     7
100
AcDbLine
 10
-3.46473986225146
 20
2.84641016151377
 30
0.0
 11
-3.63587234879199
 21
2.55
 31
0.0
  0
LINE
  5
C6
102
{ACAD_REACTORS
330
16A
102
}
330
1F
100
AcDbEntity
  8
1
  6
Continuous
 62
     7
100
AcDbLine
 10
-3.46473986225146
 20
2.49999999999999
 30
0.0
 11
-3.46473986225146
 21
2.84641016151377
 31
0.0
  0
LINE
  5
C7
102
{ACAD_REACTORS
330
167
102
}
330
1F
100
AcDbEntity
  8
1
  6
Continuous
 62
     7
100
AcDbLine
 10
-3.1980731955848
 20
2.01549996796653
 30
0.0
 11
-3.1980731955848
 21
2.98450003203347
 31
0.0
  0
LINE
  5
C8
330
1F
100
AcDbEntity
  8
1
  6
Continuous
 62
     7
100
AcDbLine
 10
-37.80000000000001
 20
58.40000000000003
 30
0.0
 11
-37.80000000000001
 21
0.99999999999998
 31
0.0
  0
LINE
  5
C9
330
1F
100
AcDbEntity
  8
1
  6
Continuous
 62
     7
100
AcDbLine
 10
-1.0
 20
58.40000000000003
 30
0.0
 11
-37.80000000000001
 21
58.40000000000003
 31
0.0
  0
LINE
  5
CA
330
1F
100
AcDbEntity
  8
1
  6
Continuous
 62
     7
100
AcDbLine
 10
-1.0
 20
0.99999999999998
 30
0.0
 11
-1.0
 21
58.40000000000003
 31
0.0
  0
LINE
  5
CB
330
1F
100
AcDbEntity
  8
1
  6
Continuous
 62
     7
100
AcDbLine
 10
0.0
 20
59.40000000000003
 30
0.0
 11
-42.00000000000004
 21
59.40000000000003
 31
0.0
  0
LINE
  5
CC
330
1F
100
AcDbEntity
  8
1
  6
Continuous
 62
     7
100
AcDbLine
 10
-42.00000000000004
 20
59.40000000000003
 30
0.0
 11
-42.00000000000004
 21
0.0
 31
0.0
  0
LINE
  5
CD
330
1F
100
AcDbEntity
  8
1
  6
Continuous
 62
     7
100
AcDbLine
 10
-42.00000000000004
 20
0.0
 30
0.0
 11
0.0
 21
0.0
 31
0.0
  0
LINE
  5
CE
330
1F
100
AcDbEntity
  8
1
  6
Continuous
 62
     7
100
AcDbLine
 10
0.0
 20
0.0
 30
0.0
 11
0.0
 21
59.40000000000003
 31
0.0
  0
LINE
  5
CF
330
1F
100
AcDbEntity
  8
1
  6
Continuous
 62
     7
100
AcDbLine
 10
-42.00000000000004
 20
29.69999999999995
 30
0.0
 11
-39.00000000000004
 21
29.69999999999995
 31
0.0
  0
LINE
  5
D0
330
1F
100
AcDbEntity
  8
1
  6
Continuous
 62
     7
100
AcDbLine
 10
-37.80000000000001
 20
2.49999999999999
 30
0.0
 11
-31.80000000000001
 21
2.49999999999999
 31
0.0
  0
LINE
  5
D1
330
1F
100
AcDbEntity
  8
1
  6
Continuous
 62
     7
100
AcDbLine
 10
-31.80000000000001
 20
3.99999999999999
 30
0.0
 11
-31.80000000000001
 21
0.99999999999999
 31
0.0
  0
LINE
  5
D2
330
1F
100
AcDbEntity
  8
1
  6
Continuous
 62
     7
100
AcDbLine
 10
-6.32947972450293
 20
3.99999999999999
 30
0.0
 11
-6.32947972450293
 21
0.99999999999999
 31
0.0
  0
LINE
  5
D3
330
1F
100
AcDbEntity
  8
1
  6
Continuous
 62
     7
100
AcDbLine
 10
-9.8
 20
3.99999999999999
 30
0.0
 11
-9.8
 21
0.99999999999999
 31
0.0
  0
LINE
  5
D4
330
1F
100
AcDbEntity
  8
1
  6
Continuous
 62
     7
100
AcDbLine
 10
-37.80000000000001
 20
3.99999999999999
 30
0.0
 11
-37.80000000000001
 21
0.99999999999998
 31
0.0
  0
LINE
  5
D5
330
1F
100
AcDbEntity
  8
1
  6
Continuous
 62
     7
100
AcDbLine
 10
-28.80000000000017
 20
19.47575856997961
 30
0.0
 11
-28.80000000000026
 21
13.23575856997963
 31
0.0
  0
LINE
  5
D6
330
1F
100
AcDbEntity
  8
1
  6
Continuous
 62
     7
100
AcDbLine
 10
-9.99999999999974
 20
19.47575856997961
 30
0.0
 11
-9.99999999999974
 21
13.23575856997963
 31
0.0
  0
LINE
  5
D7
330
1F
100
AcDbEntity
  8
1
  6
Continuous
 62
     7
100
AcDbLine
 10
-13.59999999999985
 20
19.47575856997961
 30
0.0
 11
-13.59999999999985
 21
13.23575856997963
 31
0.0
  0
LINE
  5
D8
330
1F
100
AcDbEntity
  8
1
  6
Continuous
 62
     7
100
AcDbLine
 10
-17.19999999999993
 20
18.27575856997961
 30
0.0
 11
-17.19999999999993
 21
13.23575856997963
 31
0.0
  0
LINE
  5
D9
330
1F
100
AcDbEntity
  8
1
  6
Continuous
 62
     7
100
AcDbLine
 10
-20.80000000000001
 20
19.47575856997961
 30
0.0
 11
-20.80000000000001
 21
13.23575856997963
 31
0.0
  0
LINE
  5
DA
330
1F
100
AcDbEntity
  8
1
  6
Continuous
 62
     7
100
AcDbLine
 10
-23.60000000000011
 20
19.47575856997961
 30
0.0
 11
-23.60000000000011
 21
13.23575856997963
 31
0.0
  0
LINE
  5
DB
330
1F
100
AcDbEntity
  8
1
  6
Continuous
 62
     7
100
AcDbLine
 10
-28.80000000000017
 20
19.47575856997961
 30
0.0
 11
-9.99999999999974
 21
19.47575856997961
 31
0.0
  0
LINE
  5
DC
330
1F
100
AcDbEntity
  8
1
  6
Continuous
 62
     7
100
AcDbLine
 10
-28.80000000000026
 20
14.51575856997958
 30
0.0
 11
-13.59999999999985
 21
14.51575856997962
 31
0.0
  0
LINE
  5
DD
330
1F
100
AcDbEntity
  8
1
  6
Continuous
 62
     7
100
AcDbLine
 10
-28.80000000000023
 20
17.07575856997962
 30
0.0
 11
-9.99999999999977
 21
17.07575856997962
 31
0.0
  0
LINE
  5
DE
330
1F
100
AcDbEntity
  8
1
  6
Continuous
 62
     7
100
AcDbLine
 10
-13.59999999999985
 20
15.7957585699796
 30
0.0
 11
-28.80000000000023
 21
15.7957585699796
 31
0.0
  0
LINE
  5
DF
330
1F
100
AcDbEntity
  8
1
  6
Continuous
 62
     7
100
AcDbLine
 10
-9.99999999999974
 20
13.23575856997963
 30
0.0
 11
-28.80000000000026
 21
13.23575856997963
 31
0.0
  0
ARC
  5
E0
330
1F
100
AcDbEntity
  8
0
  6
Continuous
 62
     7
100
AcDbCircle
 10
-7.99971530611355
 20
54.25414236154262
 30
0.0
 40
0.0840598574744307
100
AcDbArc
 50
63.2758911395325
 51
116.4062139670066
  0
ARC
  5
E1
102
{ACAD_REACTORS
330
167
102
}
330
1F
100
AcDbEntity
  8
1
  6
Continuous
 62
     7
100
AcDbCircle
 10
-2.86473986225147
 20
2.16934612181264
 30
0.0
 40
0.0666666666666659
100
AcDbArc
 50
299.9816393688382
 51
119.9816393688414
  0
ARC
  5
E2
102
{ACAD_REACTORS
330
167
102
}
330
1F
100
AcDbEntity
  8
1
  6
Continuous
 62
     7
100
AcDbCircle
 10
-2.86473986225147
 20
2.49999999999999
 30
0.0
 40
0.0666666666666629
100
AcDbArc
 50
270.0
 51
90.0
  0
ARC
  5
E3
102
{ACAD_REACTORS
330
167
102
}
330
1F
100
AcDbEntity
  8
1
  6
Continuous
 62
     7
100
AcDbCircle
 10
-2.86473986225147
 20
2.83065387818733
 30
0.0
 40
0.0666666666666723
100
AcDbArc
 50
240.0183606311521
 51
60.01836063115563
  0
ARC
  5
E4
102
{ACAD_REACTORS
330
168
102
}
330
1F
100
AcDbEntity
  8
1
  6
Continuous
 62
     7
100
AcDbCircle
 10
-4.46473986225146
 20
2.16934612181264
 30
0.0
 40
0.0666666666666771
100
AcDbArc
 50
180.0
 51
0.0
  0
ARC
  5
E5
102
{ACAD_REACTORS
330
168
102
}
330
1F
100
AcDbEntity
  8
1
  6
Continuous
 62
     7
100
AcDbCircle
 10
-4.46473986225146
 20
2.83065387818733
 30
0.0
 40
0.0666666666666487
100
AcDbArc
 50
0.0
 51
180.0
  0
ARC
  5
E6
102
{ACAD_REACTORS
330
169
102
}
330
1F
100
AcDbEntity
  8
1
  6
Continuous
 62
     7
100
AcDbCircle
 10
-3.73140652891814
 20
1.74626919873574
 30
0.0
 40
0.066666666666673
100
AcDbArc
 50
240.0183606311512
 51
60.01836063115137
  0
ARC
  5
E7
102
{ACAD_REACTORS
330
169
102
}
330
1F
100
AcDbEntity
  8
1
  6
Continuous
 62
     7
100
AcDbCircle
 10
-4.19807319558481
 20
2.98450003203347
 30
0.0
 40
0.0666666666666771
100
AcDbArc
 50
0.0
 51
180.0
  0
ARC
  5
E8
102
{ACAD_REACTORS
330
16A
102
}
330
1F
100
AcDbEntity
  8
1
  6
Continuous
 62
     7
100
AcDbCircle
 10
-3.3843997714132
 20
3.14624346240691
 30
0.0
 40
0.052993242495063
100
AcDbArc
 50
0.0
 51
149.9999999999784
  0
ARC
  5
E9
102
{ACAD_REACTORS
330
16A
102
}
330
1F
100
AcDbEntity
  8
1
  6
Continuous
 62
     7
100
AcDbCircle
 10
-3.39807319558479
 20
1.86165381412035
 30
0.0
 40
0.0666666666666771
100
AcDbArc
 50
180.0
 51
0.0
  0
ARC
  5
EA
102
{ACAD_REACTORS
330
16A
102
}
330
1F
100
AcDbEntity
  8
1
  6
Continuous
 62
     7
100
AcDbCircle
 10
-3.93140652891815
 20
2.16951701452658
 30
0.0
 40
0.0666666666666629
100
AcDbArc
 50
180.0
 51
0.0
  0
ARC
  5
EB
102
{ACAD_REACTORS
330
16A
102
}
330
1F
100
AcDbEntity
  8
1
  6
Continuous
 62
     7
100
AcDbCircle
 10
-3.94507995308975
 20
3.14624346240691
 30
0.0
 40
0.0529932424950674
100
AcDbArc
 50
30.0000000000139
 51
180.0
  0
CIRCLE
  5
EC
330
1F
100
AcDbEntity
  8
0
  6
Continuous
 62
     7
100
AcDbCircle
 10
-25.31417968040904
 20
38.68331083311685
 30
0.0
 40
0.3000000000000078
  0
SPLINE
  5
ED
102
{ACAD_REACTORS
330
165
102
}
330
1F
100
AcDbEntity
  8
1
  6
Continuous
 62
     2
100
AcDbSpline
210
0.0
220
0.0
230
1.0
 70
     8
 71
     3
 72
    11
 73
     7
 74
     5
 42
0.000000001
 43
0.0000000001
 44
0.00000001
 40
0.0
 40
0.0
 40
0.0
 40
0.0
 40
0.3861001828979191
 40
0.7738689871644393
 40
1.442827320122155
 40
2.119716649253611
 40
2.119716649253611
 40
2.119716649253611
 40
2.119716649253611
 10
-12.26417968040902
 20
37.251677070551
 30
0.0
 10
-12.39284592645244
 20
37.24493604292611
 30
0.0
 10
-12.65073447773313
 20
37.23142483454751
 30
0.0
 10
-13.12585762013174
 20
37.16462549979629
 30
0.0
 10
-13.70791955022964
 20
37.08501673504664
 30
0.0
 10
-14.14456858970617
 20
37.20730773268729
 30
0.0
 10
-14.36417968040905
 20
37.2688135625912
 30
0.0
 11
-12.26417968040902
 21
37.251677070551
 31
0.0
 11
-12.64941834288321
 21
37.22589875843862
 31
0.0
 11
-13.03417968040895
 21
37.17769749851862
 31
0.0
 11
-13.70149656180324
 21
37.130863388268
 31
0.0
 11
-14.36417968040905
 21
37.2688135625912
 31
0.0
  0
SPLINE
  5
EE
330
1F
100
AcDbEntity
  8
0
  6
Continuous
 62
     7
100
AcDbSpline
210
0.0
220
0.0
230
1.0
 70
     8
 71
     3
 72
    33
 73
    29
 74
    27
 42
0.000000001
 43
0.0000000001
 44
0.00000001
 40
0.0
 40
0.0
 40
0.0
 40
0.0
 40
0.00022566502652
 40
0.0018053213961786
 40
0.0034471742310214
 40
0.0071476295071979
 40
0.0155301815020079
 40
0.0280285398435184
 40
0.0494735348951653
 40
0.0758685249860126
 40
0.1067136279731625
 40
0.1676798297400834
 40
0.2271055182016558
 40
0.2529839785672922
 40
0.2838994084669808
 40
0.3195012762241972
 40
0.3594900618212656
 40
0.4023507123853381
 40
0.4402349578716193
 40
0.4726179354887851
 40
0.4823577251011825
 40
0.497263330561304
 40
0.5170226786619256
 40
0.5413325339765486
 40
0.5698997366515294
 40
0.5900459235575746
 40
0.6048912475193604
 40
0.6134817414985494
 40
0.6134817414985494
 40
0.6134817414985494
 40
0.6134817414985494
 10
-12.43917968040906
 20
38.38330969648681
 30
0.0
 10
-12.43920628311623
 20
38.38338005685444
 30
0.0
 10
-12.43941906363916
 20
38.38394295578264
 30
0.0
 10
-12.4398312124422
 20
38.38501560907105
 30
0.0
 10
-12.4406117690604
 20
38.38718697985688
 30
0.0
 10
-12.44216200197155
 20
38.39149123608253
 30
0.0
 10
-12.44484785603293
 20
38.39923261097545
 30
0.0
 10
-12.44935253804466
 20
38.41260286431478
 30
0.0
 10
-12.45553912115268
 20
38.43174169465589
 30
0.0
 10
-12.46302450867664
 20
38.45688281518558
 30
0.0
 10
-12.4731223374467
 20
38.49497519230898
 30
0.0
 10
-12.48359501794176
 20
38.54432994516505
 30
0.0
 10
-12.49036906254444
 20
38.59265922248777
 30
0.0
 10
-12.49371601580207
 20
38.63125987092763
 30
0.0
 10
-12.49524062191535
 20
38.66202946551346
 30
0.0
 10
-12.49546118003347
 20
38.69754325783995
 30
0.0
 10
-12.49379028445849
 20
38.7370088568547
 30
0.0
 10
-12.4899789613652
 20
38.77709237865937
 30
0.0
 10
-12.48453691395343
 20
38.81442072232687
 30
0.0
 10
-12.47955517790259
 20
38.84062708166526
 30
0.0
 10
-12.47559010776766
 20
38.85921862529096
 30
0.0
 10
-12.47227012513245
 20
38.87364402353902
 30
0.0
 10
-12.46748205834672
 20
38.89271178838803
 30
0.0
 10
-12.46106191693067
 20
38.91605943924387
 30
0.0
 10
-12.45404233180305
 20
38.93936940598853
 30
0.0
 10
-12.44749982392776
 20
38.95952097270205
 30
0.0
 10
-12.4428067210372
 20
38.9732703183015
 30
0.0
 10
-12.44015257473721
 20
38.98061764351687
 30
0.0
 10
-12.43917968040905
 20
38.98331083308707
 30
0.0
 11
-12.43917968040906
 21
38.38330969648681
 31
0.0
 11
-12.43925953553931
 21
38.38352076033615
 31
0.0
 11
-12.43981852145104
 21
38.38499820728163
 31
0.0
 11
-12.44037971468762
 21
38.38654117294455
 31
0.0
 11
-12.44162896817036
 21
38.39002438050937
 31
0.0
 11
-12.44438859668897
 21
38.39793965875785
 31
0.0
 11
-12.44838241791793
 21
38.40978273096217
 31
0.0
 11
-12.45496043973309
 21
38.43019394081975
 31
0.0
 11
-12.46248303019324
 21
38.45549426440036
 31
0.0
 11
-12.47038158070901
 21
38.4853109260775
 31
0.0
 11
-12.48299362735504
 21
38.54495833664051
 31
0.0
 11
-12.49119769244296
 21
38.60381499064935
 31
0.0
 11
-12.49342595791223
 21
38.62959734012365
 31
0.0
 11
-12.49495596250318
 21
38.66047488694908
 31
0.0
 11
-12.49518085119536
 21
38.69607604459353
 31
0.0
 11
-12.4934937689683
 21
38.73602922652484
 31
0.0
 11
-12.48944563512984
 21
38.77869827858357
 31
0.0
 11
-12.48398304432029
 21
38.81618662580629
 31
0.0
 11
-12.47796449740213
 21
38.84800539930561
 31
0.0
 11
-12.4759291232216
 21
38.85753014365218
 31
0.0
 11
-12.47259187167229
 21
38.8720573536129
 31
0.0
 11
-12.4677877360996
 21
38.89122378583947
 31
0.0
 11
-12.46135170984889
 21
38.9146661969835
 31
0.0
 11
-12.45311878626555
 21
38.94202134369665
 31
0.0
 11
-12.44689910930046
 21
38.96118340185327
 31
0.0
 11
-12.44208082958677
 21
38.97522504802235
 31
0.0
 11
-12.43917968040905
 21
38.98331083308707
 31
0.0
  0
SPLINE
  5
EF
330
1F
100
AcDbEntity
  8
0
  6
Continuous
 62
     7
100
AcDbSpline
210
0.0
220
0.0
230
1.0
 70
     8
 71
     3
 72
    32
 73
    28
 74
    26
 42
0.000000001
 43
0.0000000001
 44
0.00000001
 40
0.0
 40
0.0
 40
0.0
 40
0.0
 40
0.021272893679346
 40
0.0350416177966689
 40
0.0416249314426237
 40
0.0705641988540463
 40
0.1048784765182773
 40
0.1433633829120235
 40
0.2005878080325733
 40
0.2591176054057466
 40
0.3025655361011473
 40
0.3423842784429577
 40
0.3783569406187458
 40
0.4189048379736899
 40
0.4563077308202862
 40
0.4901839867612348
 40
0.5129005073045865
 40
0.5340908777218332
 40
0.5528067849124035
 40
0.5680875314785911
 40
0.5789641667467549
 40
0.5844620706798253
 40
0.6043986994423153
 40
0.619942899212453
 40
0.629298715142177
 40
0.6302534746101512
 40
0.6312082333990745
 40
0.6312082333990745
 40
0.6312082333990745
 40
0.6312082333990745
 10
-12.75417968040897
 20
38.98331083308707
 30
0.0
 10
-12.7575049504472
 20
38.97704776788427
 30
0.0
 10
-12.76298246558085
 20
38.96673097369714
 30
0.0
 10
-12.7692702838247
 20
38.95436156072655
 30
0.0
 10
-12.77650674642025
 20
38.93961046583003
 30
0.0
 10
-12.78635350768412
 20
38.9185113224639
 30
0.0
 10
-12.79948297088216
 20
38.88723137097568
 30
0.0
 10
-12.81436508481787
 20
38.84650673823932
 30
0.0
 10
-12.82868904022716
 20
38.79705983900444
 30
0.0
 10
-12.83829092518058
 20
38.74474118647877
 30
0.0
 10
-12.84166076275631
 20
38.69752714054789
 30
0.0
 10
-12.8410273349884
 20
38.65774072713703
 30
0.0
 10
-12.83740688406103
 20
38.61909763959385
 30
0.0
 10
-12.83103042159314
 20
38.5816221469051
 30
0.0
 10
-12.82212926672677
 20
38.5453967981568
 30
0.0
 10
-12.81279168905137
 20
38.51547035779945
 30
0.0
 10
-12.80394192224406
 20
38.49109482975238
 30
0.0
 10
-12.79622846992881
 20
38.47169523935753
 30
0.0
 10
-12.78902737407308
 20
38.45476606859958
 30
0.0
 10
-12.78290738498509
 20
38.44111683260887
 30
0.0
 10
-12.77844544637749
 20
38.43155443660613
 30
0.0
 10
-12.77319703243769
 20
38.42064782406922
 30
0.0
 10
-12.76720307395035
 20
38.40837264575767
 30
0.0
 10
-12.76039730398677
 20
38.39506660607589
 30
0.0
 10
-12.75643168796538
 20
38.38741408727303
 30
0.0
 10
-12.75463554129291
 20
38.38411638308392
 30
0.0
 10
-12.75433163818044
 20
38.3835571137484
 30
0.0
 10
-12.75417968040897
 20
38.38327748258855
 30
0.0
 11
-12.75417968040897
 21
38.98331083308707
 31
0.0
 11
-12.76408761347434
 21
38.96448614435151
 31
0.0
 11
-12.77031613620342
 21
38.95220676020379
 31
0.0
 11
-12.7732175825786
 21
38.94629730768532
 31
0.0
 11
-12.78543749990166
 21
38.92006460205763
 31
0.0
 11
-12.7987087075694
 21
38.8884205705766
 31
0.0
 11
-12.8118861460006
 21
38.85226198694674
 31
0.0
 11
-12.82764682867407
 21
38.79725075368047
 31
0.0
 11
-12.83797283022228
 21
38.73963902785521
 31
0.0
 11
-12.84108780997748
 21
38.69630290403511
 31
0.0
 11
-12.84046702853316
 21
38.656489000563
 31
0.0
 11
-12.83712900924957
 21
38.62067154558201
 31
0.0
 11
-12.83035608225132
 21
38.5806933080428
 31
0.0
 11
-12.82146107472721
 21
38.54436349571571
 31
0.0
 11
-12.81139038215508
 21
38.51201876061679
 31
0.0
 11
-12.80365783498623
 21
38.4906587974404
 31
0.0
 11
-12.79584141545347
 21
38.47096272199294
 31
0.0
 11
-12.78851837080816
 21
38.45373895353129
 31
0.0
 11
-12.78226594830162
 21
38.43979591131233
 31
0.0
 11
-12.77766139518517
 21
38.4299420145929
 31
0.0
 11
-12.77528195871015
 21
38.42498568262992
 31
0.0
 11
-12.76649876187335
 21
38.40708807165199
 31
0.0
 11
-12.75944253082054
 21
38.39323773397287
 31
0.0
 11
-12.75509169558506
 21
38.38495512718252
 31
0.0
 11
-12.75463568799701
 21
38.38411630488553
 31
0.0
 11
-12.75417968040897
 21
38.38327748258855
 31
0.0
  0
SPLINE
  5
F0
330
1F
100
AcDbEntity
  8
0
  6
Continuous
 62
     7
100
AcDbSpline
210
0.0
220
0.0
230
1.0
 70
     8
 71
     3
 72
     9
 73
     5
 74
     3
 42
0.000000001
 43
0.0000000001
 44
0.00000001
 40
0.0
 40
0.0
 40
0.0
 40
0.0
 40
0.0770948814041537
 40
0.1478057936333829
 40
0.1478057936333829
 40
0.1478057936333829
 40
0.1478057936333829
 10
-3.861088442118093
 20
51.96734149724642
 30
0.0
 10
-3.886849632645726
 20
51.96229653305329
 30
0.0
 10
-3.936238815773482
 20
51.95262438070876
 30
0.0
 10
-3.983461403924009
 20
51.96972645015624
 30
0.0
 10
-4.006052886682984
 20
51.9779081611497
 30
0.0
 11
-3.861088442118093
 21
51.96734149724642
 31
0.0
 11
-3.93778256602218
 21
51.95949086812992
 31
0.0
 11
-4.006052886682984
 21
51.9779081611497
 31
0.0
  0
SPLINE
  5
F1
330
1F
100
AcDbEntity
  8
0
  6
Continuous
 62
     7
100
AcDbSpline
210
0.0
220
0.0
230
1.0
 70
     8
 71
     3
 72
    11
 73
     7
 74
     5
 42
0.000000001
 43
0.0000000001
 44
0.00000001
 40
0.0
 40
0.0
 40
0.0
 40
0.0
 40
0.0468790409194161
 40
0.0898229145150702
 40
0.1371369942924007
 40
0.1796788999769908
 40
0.1796788999769908
 40
0.1796788999769908
 40
0.1796788999769908
 10
-3.861088442118093
 20
52.02262438323567
 30
0.0
 10
-3.868819391682825
 20
52.03620434186301
 30
0.0
 10
-3.883632319008129
 20
52.06222432387776
 30
0.0
 10
-3.906169653590676
 20
52.10199475127853
 30
0.0
 10
-3.927929295861861
 20
52.14054418987497
 30
0.0
 10
-3.942553183436847
 20
52.16668353411283
 30
0.0
 10
-3.949476789766455
 20
52.17905909078229
 30
0.0
 11
-3.861088442118093
 21
52.02262438323567
 31
0.0
 11
-3.884267320585487
 21
52.06337219384859
 31
0.0
 11
-3.905441466499885
 21
52.10073302662747
 31
0.0
 11
-3.928683713805684
 21
52.14194491918925
 31
0.0
 11
-3.949476789766455
 21
52.17905909078229
 31
0.0
  0
SPLINE
  5
F2
330
1F
100
AcDbEntity
  8
0
  6
Continuous
 62
     7
100
AcDbSpline
210
0.0
220
0.0
230
1.0
 70
     8
 71
     3
 72
    11
 73
     7
 74
     5
 42
0.000000001
 43
0.0000000001
 44
0.00000001
 40
0.0
 40
0.0
 40
0.0
 40
0.0
 40
0.1683417935746905
 40
0.388918909563623
 40
0.6455794480781167
 40
0.890829480516472
 40
0.890829480516472
 40
0.890829480516472
 40
0.890829480516472
 10
-3.592380310845489
 20
52.80525331282456
 30
0.0
 10
-3.551194206980526
 20
52.76386383755138
 30
0.0
 10
-3.45604224177068
 20
52.66824200347957
 30
0.0
 10
-3.474503090623156
 20
52.43436603413492
 30
0.0
 10
-3.556457878035779
 20
52.20584146705401
 30
0.0
 10
-3.677969950386239
 20
52.08719023542782
 30
0.0
 10
-3.737344755410438
 20
52.02921334060023
 30
0.0
 11
-3.592380310845489
 21
52.80525331282456
 31
0.0
 11
-3.488732876820472
 21
52.67260275532441
 31
0.0
 11
-3.48212050470092
 21
52.45212476269991
 31
0.0
 11
-3.574639191921212
 21
52.21271940541224
 31
0.0
 11
-3.737344755410438
 21
52.02921334060023
 31
0.0
  0
SPLINE
  5
F3
330
1F
100
AcDbEntity
  8
0
  6
Continuous
 62
     7
100
AcDbSpline
210
0.0
220
0.0
230
1.0
 70
     8
 71
     3
 72
     9
 73
     5
 74
     3
 42
0.000000001
 43
0.0000000001
 44
0.00000001
 40
0.0
 40
0.0
 40
0.0
 40
0.0
 40
0.0321049330568467
 40
0.0626572562844573
 40
0.0626572562844573
 40
0.0626572562844573
 40
0.0626572562844573
 10
-3.949476789766455
 20
52.17905909078229
 30
0.0
 10
-3.960305212739868
 20
52.17871773772123
 30
0.0
 10
-3.981438388823292
 20
52.17805155914141
 30
0.0
 10
-4.001033775351101
 20
52.18595407560513
 30
0.0
 10
-4.010588685174942
 20
52.18980743328624
 30
0.0
 11
-3.949476789766455
 21
52.17905909078229
 31
0.0
 11
-3.981558322014139
 21
52.18028469448612
 31
0.0
 11
-4.010588685174942
 21
52.18980743328624
 31
0.0
  0
SPLINE
  5
F4
330
1F
100
AcDbEntity
  8
0
  6
Continuous
 62
     7
100
AcDbSpline
210
0.0
220
0.0
230
1.0
 70
     8
 71
     3
 72
     9
 73
     5
 74
     3
 42
0.000000001
 43
0.0000000001
 44
0.00000001
 40
0.0
 40
0.0
 40
0.0
 40
0.0
 40
0.0618652256645892
 40
0.133634954908228
 40
0.133634954908228
 40
0.133634954908228
 40
0.133634954908228
 10
-4.010588685174942
 20
52.18980743328624
 30
0.0
 10
-4.027562634824018
 20
52.20265315832434
 30
0.0
 10
-4.064228016343487
 20
52.23040119684219
 30
0.0
 10
-4.074028476596575
 20
52.27560756009967
 30
0.0
 10
-4.079291883633109
 20
52.29988600636807
 30
0.0
 11
-4.010588685174942
 21
52.18980743328624
 31
0.0
 11
-4.055752967008758
 21
52.2320861997017
 31
0.0
 11
-4.079291883633109
 21
52.29988600636807
 31
0.0
  0
SPLINE
  5
F5
330
1F
100
AcDbEntity
  8
0
  6
Continuous
 62
     7
100
AcDbSpline
210
0.0
220
0.0
230
1.0
 70
     8
 71
     3
 72
    11
 73
     7
 74
     5
 42
0.000000001
 43
0.0000000001
 44
0.00000001
 40
0.0
 40
0.0
 40
0.0
 40
0.0
 40
0.1237432630316174
 40
0.256800654038899
 40
0.3901271270434053
 40
0.5146099717071694
 40
0.5146099717071694
 40
0.5146099717071694
 40
0.5146099717071694
 10
-4.082059311238756
 20
52.2501593807499
 30
0.0
 10
-4.078656068073957
 20
52.29147466328755
 30
0.0
 10
-4.071593405355263
 20
52.37721501834796
 30
0.0
 10
-4.023222274306402
 20
52.49938009399229
 30
0.0
 10
-3.955675121532421
 20
52.61233312460629
 30
0.0
 10
-3.891887975661828
 20
52.67055358836205
 30
0.0
 10
-3.861088442118093
 20
52.69866524738481
 30
0.0
 11
-4.082059311238756
 21
52.2501593807499
 31
0.0
 11
-4.066096375725517
 21
52.37286871233216
 31
0.0
 11
-4.020010620422373
 21
52.49769007710408
 31
0.0
 11
-3.949002740037041
 21
52.61053435016436
 31
0.0
 11
-3.861088442118093
 21
52.69866524738481
 31
0.0
  0
SPLINE
  5
F6
330
1F
100
AcDbEntity
  8
0
  6
Continuous
 62
     7
100
AcDbSpline
210
0.0
220
0.0
230
1.0
 70
     8
 71
     3
 72
     9
 73
     5
 74
     3
 42
0.000000001
 43
0.0000000001
 44
0.00000001
 40
0.0
 40
0.0
 40
0.0
 40
0.0
 40
0.0770948814041502
 40
0.1478057936334496
 40
0.1478057936334496
 40
0.1478057936334496
 40
0.1478057936334496
 10
-3.737344755410438
 20
52.81581997672788
 30
0.0
 10
-3.711583564882805
 20
52.820864940921
 30
0.0
 10
-3.662194381755025
 20
52.83053709326553
 30
0.0
 10
-3.614971793604485
 20
52.81343502381805
 30
0.0
 10
-3.592380310845489
 20
52.80525331282456
 30
0.0
 11
-3.737344755410438
 21
52.81581997672788
 31
0.0
 11
-3.660650631506355
 21
52.82367060584438
 31
0.0
 11
-3.592380310845489
 21
52.80525331282456
 31
0.0
  0
SPLINE
  5
F7
330
1F
100
AcDbEntity
  8
0
  6
Continuous
 62
     7
100
AcDbSpline
210
0.0
220
0.0
230
1.0
 70
     8
 71
     3
 72
     9
 73
     5
 74
     3
 42
0.000000001
 43
0.0000000001
 44
0.00000001
 40
0.0
 40
0.0
 40
0.0
 40
0.0
 40
0.0321049330570511
 40
0.0626572562846792
 40
0.0626572562846792
 40
0.0626572562846792
 40
0.0626572562846792
 10
-3.825733103058686
 20
52.69249073084046
 30
0.0
 10
-3.814904680085207
 20
52.69283208390145
 30
0.0
 10
-3.793771504001713
 20
52.6934982624811
 30
0.0
 10
-3.77417611747384
 20
52.68559574601733
 30
0.0
 10
-3.764621207649999
 20
52.68174238833624
 30
0.0
 11
-3.825733103058686
 21
52.69249073084046
 31
0.0
 11
-3.793651570810806
 21
52.6912651271364
 31
0.0
 11
-3.764621207649999
 21
52.68174238833624
 31
0.0
  0
SPLINE
  5
F8
330
1F
100
AcDbEntity
  8
0
  6
Continuous
 62
     7
100
AcDbSpline
210
0.0
220
0.0
230
1.0
 70
     8
 71
     3
 72
    11
 73
     7
 74
     5
 42
0.000000001
 43
0.0000000001
 44
0.00000001
 40
0.0
 40
0.0
 40
0.0
 40
0.0
 40
0.0937368691977147
 40
0.2146815677590183
 40
0.3570659199162859
 40
0.4980856837958441
 40
0.4980856837958441
 40
0.4980856837958441
 40
0.4980856837958441
 10
-3.764621207649999
 20
52.68174238833624
 30
0.0
 10
-3.741235077713223
 20
52.65925692672089
 30
0.0
 10
-3.687674830452766
 20
52.60775942064903
 30
0.0
 10
-3.691666503798626
 20
52.4786279590901
 30
0.0
 10
-3.731718171259272
 20
52.3491264746479
 30
0.0
 10
-3.794495546398823
 20
52.27688015683946
 30
0.0
 10
-3.825733103058856
 20
52.24093093413592
 30
0.0
 11
-3.764621207649999
 21
52.68174238833624
 31
0.0
 11
-3.70513149588377
 21
52.6093022357984
 31
0.0
 11
-3.696308074173818
 21
52.48867980931875
 31
0.0
 11
-3.740613476105378
 21
52.35336412105347
 31
0.0
 11
-3.825733103058856
 21
52.24093093413592
 31
0.0
  0
SPLINE
  5
F9
330
1F
100
AcDbEntity
  8
0
  6
Continuous
 62
     7
100
AcDbSpline
210
0.0
220
0.0
230
1.0
 70
     8
 71
     3
 72
    11
 73
     7
 74
     5
 42
0.000000001
 43
0.0000000001
 44
0.00000001
 40
0.0
 40
0.0
 40
0.0
 40
0.0
 40
0.0290847010423727
 40
0.0557370149899906
 40
0.0851158981526791
 40
0.1115495332824098
 40
0.1115495332824098
 40
0.1115495332824098
 40
0.1115495332824098
 10
-3.73734475541075
 20
52.76053709073858
 30
0.0
 10
-3.745076235453812
 20
52.75468767485238
 30
0.0
 10
-3.759892594111528
 20
52.74347802483243
 30
0.0
 10
-3.782430764248795
 20
52.72624427229057
 30
0.0
 10
-3.804193895105549
 20
52.70945167588972
 30
0.0
 10
-3.818810477658481
 20
52.69794192505599
 30
0.0
 10
-3.825733103058686
 20
52.69249073084046
 30
0.0
 11
-3.73734475541075
 21
52.76053709073858
 31
0.0
 11
-3.760523525119564
 21
52.74296824136547
 31
0.0
 11
-3.781697560639334
 21
52.72678164007428
 31
0.0
 11
-3.8049399241459
 21
52.70881190664251
 31
0.0
 11
-3.825733103058686
 21
52.69249073084046
 31
0.0
  0
SPLINE
  5
FA
330
1F
100
AcDbEntity
  8
0
  6
Continuous
 62
     7
100
AcDbSpline
210
0.0
220
0.0
230
1.0
 70
     8
 71
     3
 72
    11
 73
     7
 74
     5
 42
0.000000001
 43
0.0000000001
 44
0.00000001
 40
0.0
 40
0.0
 40
0.0
 40
0.0
 40
0.0425421096887354
 40
0.0898564306387476
 40
0.1328000550119966
 40
0.1796788999766546
 40
0.1796788999766546
 40
0.1796788999766546
 40
0.1796788999766546
 10
-3.825733103058856
 20
52.24093093413592
 30
0.0
 10
-3.818809463466614
 20
52.22855531815535
 30
0.0
 10
-3.804185503310364
 20
52.20241584448669
 30
0.0
 10
-3.782425828182101
 20
52.16386634943031
 30
0.0
 10
-3.759888526629743
 20
52.1240959814737
 30
0.0
 10
-3.745075672680336
 20
52.09807612844075
 30
0.0
 10
-3.737344755410438
 20
52.08449622658949
 30
0.0
 11
-3.825733103058856
 21
52.24093093413592
 31
0.0
 11
-3.804939927122398
 21
52.20381658471531
 31
0.0
 11
-3.781697560639505
 21
52.16260448248298
 31
0.0
 11
-3.760523537118673
 21
52.12524386680302
 31
0.0
 11
-3.737344755410438
 21
52.08449622658949
 31
0.0
  0
SPLINE
  5
FB
330
1F
100
AcDbEntity
  8
0
  6
Continuous
 62
     7
100
AcDbSpline
210
0.0
220
0.0
230
1.0
 70
     8
 71
     3
 72
    13
 73
     9
 74
     7
 42
0.000000001
 43
0.0000000001
 44
0.00000001
 40
0.0
 40
0.0
 40
0.0
 40
0.0
 40
0.1143164312093576
 40
0.2275593773070008
 40
0.3670531854228007
 40
0.5342302383468281
 40
0.7127437918628097
 40
0.8808147379944716
 40
0.8808147379944716
 40
0.8808147379944716
 40
0.8808147379944716
 10
-3.73734475541075
 20
52.76053709073858
 30
0.0
 10
-3.697346535102781
 20
52.76312160001435
 30
0.0
 10
-3.617725698865897
 20
52.76826633947985
 30
0.0
 10
-3.528213782507833
 20
52.66514278352153
 30
0.0
 10
-3.507964192092009
 20
52.52319879990867
 30
0.0
 10
-3.538679687699195
 20
52.36259042642858
 30
0.0
 10
-3.613021367135198
 20
52.20441115634516
 30
0.0
 10
-3.696744483304325
 20
52.12365682300728
 30
0.0
 10
-3.737344755410438
 20
52.08449622658949
 30
0.0
 11
-3.73734475541075
 21
52.76053709073858
 31
0.0
 11
-3.623438820624175
 21
52.75085791564821
 31
0.0
 11
-3.544542486927857
 21
52.66962162543918
 31
0.0
 11
-3.516375837134509
 21
52.53300111780202
 31
0.0
 11
-3.544542486927857
 21
52.36821396037151
 31
0.0
 11
-3.623438820624135
 21
52.20808133646618
 31
0.0
 11
-3.737344755410438
 21
52.08449622658949
 31
0.0
  0
SPLINE
  5
FC
330
1F
100
AcDbEntity
  8
0
  6
Continuous
 62
     7
100
AcDbSpline
210
0.0
220
0.0
230
1.0
 70
     8
 71
     3
 72
    11
 73
     7
 74
     5
 42
0.000000001
 43
0.0000000001
 44
0.00000001
 40
0.0
 40
0.0
 40
0.0
 40
0.0
 40
0.1683417935747398
 40
0.3889189095636802
 40
0.6455794480781456
 40
0.8908294805164803
 40
0.8908294805164803
 40
0.8908294805164803
 40
0.8908294805164803
 10
-4.006052886682984
 20
51.9779081611497
 30
0.0
 10
-4.047238990547954
 20
52.0192976364229
 30
0.0
 10
-4.142390955757797
 20
52.11491947049474
 30
0.0
 10
-4.123930106905371
 20
52.34879543983938
 30
0.0
 10
-4.041975319492766
 20
52.5773200069203
 30
0.0
 10
-3.920463247142297
 20
52.69597123854646
 30
0.0
 10
-3.861088442118093
 20
52.75394813337403
 30
0.0
 11
-4.006052886682984
 21
51.9779081611497
 31
0.0
 11
-4.109700320708018
 21
52.11055871864991
 31
0.0
 11
-4.116312692827596
 21
52.33103671127441
 31
0.0
 11
-4.023794005607328
 21
52.57044206856205
 31
0.0
 11
-3.861088442118093
 21
52.75394813337403
 31
0.0
  0
SPLINE
  5
FD
330
1F
100
AcDbEntity
  8
0
  6
Continuous
 62
     7
100
AcDbSpline
210
0.0
220
0.0
230
1.0
 70
     8
 71
     3
 72
    11
 73
     7
 74
     5
 42
0.000000001
 43
0.0000000001
 44
0.00000001
 40
0.0
 40
0.0
 40
0.0
 40
0.0
 40
0.0879145601461846
 40
0.1703305906980966
 40
0.2615621223649883
 40
0.3694954728141205
 40
0.3694954728141205
 40
0.3694954728141205
 40
0.3694954728141205
 10
-3.861088442118093
 20
52.02262438323567
 30
0.0
 10
-3.890949639270211
 20
52.01929179091478
 30
0.0
 10
-3.948804393986043
 20
52.01283505298513
 30
0.0
 10
-4.028024675679577
 20
52.06179860261011
 30
0.0
 10
-4.074838185103854
 20
52.14711217427373
 30
0.0
 10
-4.079521364754974
 20
52.21394220547663
 30
0.0
 10
-4.082059311238756
 20
52.2501593807499
 30
0.0
 11
-3.861088442118093
 21
52.02262438323567
 31
0.0
 11
-3.949002740037041
 21
52.02284098253718
 31
0.0
 11
-4.020010620422373
 21
52.06467737521211
 31
0.0
 11
-4.066096375725517
 21
52.14341298468085
 31
0.0
 11
-4.082059311238756
 21
52.2501593807499
 31
0.0
  0
SPLINE
  5
FE
330
1F
100
AcDbEntity
  8
0
  6
Continuous
 62
     7
100
AcDbSpline
210
0.0
220
0.0
230
1.0
 70
     8
 71
     3
 72
    23
 73
    19
 74
    17
 42
0.000000001
 43
0.0000000001
 44
0.00000001
 40
0.0
 40
0.0
 40
0.0
 40
0.0
 40
0.0216553904227024
 40
0.036472110075232
 40
0.0524222211701003
 40
0.0745528847349159
 40
0.1100810620772068
 40
0.1353710951597282
 40
0.172918842447642
 40
0.2029538632073862
 40
0.2472782325742254
 40
0.277771172440875
 40
0.2999581903494315
 40
0.3363484782574558
 40
0.3552395436148549
 40
0.3673499456632249
 40
0.3802959910308454
 40
0.3907884284209174
 40
0.3907884284209174
 40
0.3907884284209174
 40
0.3907884284209174
 10
-8.037099441568689
 20
54.32943171042342
 30
0.0
 10
-8.043343166846215
 20
54.3257333172489
 30
0.0
 10
-8.05385887155909
 20
54.31950445631438
 30
0.0
 10
-8.066064665361942
 20
54.30680880497569
 30
0.0
 10
-8.076204854818087
 20
54.29230749532724
 30
0.0
 10
-8.08593426745803
 20
54.26953413531287
 30
0.0
 10
-8.08913444012697
 20
54.24150913928358
 30
0.0
 10
-8.084461568428647
 20
54.20888804612544
 30
0.0
 10
-8.073404959165149
 20
54.17963571949898
 30
0.0
 10
-8.054113976498444
 20
54.14759313428284
 30
0.0
 10
-8.031377165742477
 20
54.12078587849636
 30
0.0
 10
-8.007338908296582
 20
54.09907815115395
 30
0.0
 10
-7.983535318322835
 20
54.08129962847752
 30
0.0
 10
-7.961162410728786
 20
54.06814345880632
 30
0.0
 10
-7.940051863932085
 20
54.06011282393094
 30
0.0
 10
-7.925681165906449
 20
54.05725639227717
 30
0.0
 10
-7.913573630166867
 20
54.05702430390598
 30
0.0
 10
-7.906225027706823
 20
54.05984212834426
 30
0.0
 10
-7.902935362918687
 20
54.06110355312342
 30
0.0
 11
-8.037099441568689
 21
54.32943171042342
 31
0.0
 11
-8.055117189054346
 21
54.31741851214163
 31
0.0
 11
-8.065507219797059
 21
54.3068552496065
 31
0.0
 11
-8.07462246135454
 21
54.29376638147676
 31
0.0
 11
-8.0833684014187
 21
54.27343721846367
 31
0.0
 11
-8.08774278629732
 21
54.23817936509677
 31
0.0
 11
-8.084315657916807
 21
54.21312261914417
 31
0.0
 11
-8.071398002898398
 21
54.17786688249243
 31
0.0
 11
-8.056037831962403
 21
54.15205665964918
 31
0.0
 11
-8.027564887852318
 21
54.11808694875052
 31
0.0
 11
-8.004937544550803
 21
54.09764623663136
 31
0.0
 11
-7.987149929901464
 21
54.08438484465709
 31
0.0
 11
-7.955522918059832
 21
54.06638525810539
 31
0.0
 11
-7.937769583501917
 21
54.05992836802962
 31
0.0
 11
-7.925874868454447
 21
54.05765294176311
 31
0.0
 11
-7.912931473781019
 21
54.05791463173016
 31
0.0
 11
-7.902935362918687
 21
54.06110355312342
 31
0.0
  0
SPLINE
  5
FF
330
1F
100
AcDbEntity
  8
0
  6
Continuous
 62
     7
100
AcDbSpline
210
0.0
220
0.0
230
1.0
 70
     8
 71
     3
 72
    19
 73
    15
 74
    13
 42
0.000000001
 43
0.0000000001
 44
0.00000001
 40
0.0
 40
0.0
 40
0.0
 40
0.0
 40
0.0128607421995363
 40
0.0293061052434056
 40
0.0443979261907483
 40
0.0703628755926425
 40
0.1082982193940964
 40
0.1319416214938858
 40
0.1614220396615666
 40
0.2033202290730065
 40
0.2287768459228577
 40
0.2566105120602528
 40
0.2836050556767575
 40
0.304102836178925
 40
0.304102836178925
 40
0.304102836178925
 40
0.304102836178925
 10
-7.902935362918687
 20
54.06110355312342
 30
0.0
 10
-7.89932293554077
 20
54.06350487282242
 30
0.0
 10
-7.891091204775581
 20
54.06897682102043
 30
0.0
 10
-7.883809294161821
 20
54.08244459443786
 30
0.0
 10
-7.878180823750824
 20
54.100732423768
 30
0.0
 10
-7.875077583619897
 20
54.12707330194973
 30
0.0
 10
-7.875924131624209
 20
54.15631128454641
 30
0.0
 10
-7.879698842472076
 20
54.18645330838884
 30
0.0
 10
-7.886092154429062
 20
54.21750985837323
 30
0.0
 10
-7.89606286257111
 20
54.24834023053175
 30
0.0
 10
-7.909826616141852
 20
54.27701983662051
 30
0.0
 10
-7.924727972563333
 20
54.29932891769114
 30
0.0
 10
-7.942290340514173
 20
54.31773058733024
 30
0.0
 10
-7.955997834236345
 20
54.325758343876
 30
0.0
 10
-7.961914019372007
 20
54.32922313377696
 30
0.0
 11
-7.902935362918687
 21
54.06110355312342
 31
0.0
 11
-7.892757688149779
 21
54.0689657331891
 31
0.0
 11
-7.884154418981855
 21
54.08298120754157
 31
0.0
 11
-7.879570192891358
 21
54.0973599382251
 31
0.0
 11
-7.876064357062451
 21
54.12308711559928
 31
0.0
 11
-7.876805118451768
 21
54.16101522525321
 31
0.0
 11
-7.879728680752199
 21
54.18447717786296
 31
0.0
 11
-7.885691140037211
 21
54.21334834163482
 31
0.0
 11
-7.898840761783835
 21
54.25312956415252
 31
0.0
 11
-7.909981637998879
 21
54.27601886765046
 31
0.0
 11
-7.925555535412902
 21
54.29908760731593
 31
0.0
 11
-7.944656243691782
 21
54.31816293720487
 31
0.0
 11
-7.961914019372007
 21
54.32922313377696
 31
0.0
  0
SPLINE
  5
100
330
1F
100
AcDbEntity
  8
0
  6
Continuous
 62
     7
100
AcDbSpline
210
0.0
220
0.0
230
1.0
 70
     8
 71
     3
 72
    17
 73
    13
 74
    11
 42
0.000000001
 43
0.0000000001
 44
0.00000001
 40
0.0
 40
0.0
 40
0.0
 40
0.0
 40
0.0146944001780089
 40
0.0299983938185313
 40
0.0652816199805942
 40
0.088855543170544
 40
0.1200716191902212
 40
0.1560884926475675
 40
0.1893389642707702
 40
0.2130118522529845
 40
0.2283818792807766
 40
0.2509387052259852
 40
0.2509387052259852
 40
0.2509387052259852
 40
0.2509387052259852
 10
-7.875700111701652
 20
54.13377483703633
 30
0.0
 10
-7.879870610857268
 20
54.13634515101995
 30
0.0
 10
-7.888384614750866
 20
54.14159241815916
 30
0.0
 10
-7.906297826685613
 20
54.15395803162009
 30
0.0
 10
-7.925707814818783
 20
54.16935038562632
 30
0.0
 10
-7.947307491235749
 20
54.19025035565227
 30
0.0
 10
-7.966725817576428
 20
54.21359185118979
 30
0.0
 10
-7.983559403177411
 20
54.24283598814074
 30
0.0
 10
-7.992248120010753
 20
54.27300368649398
 30
0.0
 10
-7.992713441226845
 20
54.29727869503441
 30
0.0
 10
-7.989327299176109
 20
54.31767172552788
 30
0.0
 10
-7.984134627240413
 20
54.32926589793909
 30
0.0
 10
-7.981046302233854
 20
54.33616147756601
 30
0.0
 11
-7.875700111701652
 21
54.13377483703633
 31
0.0
 11
-7.888143824404052
 21
54.14159015771712
 31
0.0
 11
-7.900756873847901
 21
54.15025751992951
 31
0.0
 11
-7.928308693906676
 21
54.17229846497739
 31
0.0
 11
-7.945211589013458
 21
54.18873081148249
 31
0.0
 11
-7.965027921911681
 21
54.21285043848423
 31
0.0
 11
-7.982636275486091
 21
54.24426955957233
 31
0.0
 11
-7.991452767132471
 21
54.27632986991446
 31
0.0
 11
-7.991885486612053
 21
54.29999880569363
 31
0.0
 11
-7.989211965183327
 21
54.31513452858211
 31
0.0
 11
-7.981046302233854
 21
54.33616147756601
 31
0.0
  0
SPLINE
  5
101
330
1F
100
AcDbEntity
  8
0
  6
Continuous
 62
     7
100
AcDbSpline
210
0.0
220
0.0
230
1.0
 70
     8
 71
     3
 72
     9
 73
     5
 74
     3
 42
0.000000001
 43
0.0000000001
 44
0.00000001
 40
0.0
 40
0.0
 40
0.0
 40
0.0
 40
0.013216364274375
 40
0.0264588045662683
 40
0.0264588045662683
 40
0.0264588045662683
 40
0.0264588045662683
 10
-7.566497080733133
 20
53.81373089852451
 30
0.0
 10
-7.570689067466203
 20
53.81510140235479
 30
0.0
 10
-7.579081304766469
 20
53.8178451327359
 30
0.0
 10
-7.587061032722209
 20
53.821624293112
 30
0.0
 10
-7.591054824948135
 20
53.82351574474788
 30
0.0
 11
-7.566497080733133
 21
53.81373089852451
 31
0.0
 11
-7.578970113477525
 21
53.81810076693505
 31
0.0
 11
-7.591054824948135
 21
53.82351574474788
 31
0.0
  0
SPLINE
  5
102
330
1F
100
AcDbEntity
  8
0
  6
Continuous
 62
     7
100
AcDbSpline
210
0.0
220
0.0
230
1.0
 70
     8
 71
     3
 72
     9
 73
     5
 74
     3
 42
0.000000001
 43
0.0000000001
 44
0.00000001
 40
0.0
 40
0.0
 40
0.0
 40
0.0
 40
0.013246437920087
 40
0.0264668051541327
 40
0.0264668051541327
 40
0.0264668051541327
 40
0.0264668051541327
 10
-7.219867540683159
 20
54.56589031327783
 30
0.0
 10
-7.215956934760693
 20
54.56382950160422
 30
0.0
 10
-7.208143429534875
 20
54.55971191694023
 30
0.0
 10
-7.200911135835411
 20
54.55464250998754
 30
0.0
 10
-7.197298556387939
 20
54.55211029487737
 30
0.0
 11
-7.219867540683159
 21
54.56589031327783
 31
0.0
 11
-7.208281317038994
 21
54.5594694449252
 31
0.0
 11
-7.197298556387939
 21
54.55211029487737
 31
0.0
  0
SPLINE
  5
103
330
1F
100
AcDbEntity
  8
0
  6
Continuous
 62
     7
100
AcDbSpline
210
0.0
220
0.0
230
1.0
 70
     8
 71
     3
 72
    11
 73
     7
 74
     5
 42
0.000000001
 43
0.0000000001
 44
0.00000001
 40
0.0
 40
0.0
 40
0.0
 40
0.0
 40
0.2843621590428351
 40
0.5810305331578138
 40
0.8357141829342549
 40
1.030322714025842
 40
1.030322714025842
 40
1.030322714025842
 40
1.030322714025842
 10
-7.573399043347441
 20
53.898602064391
 30
0.0
 10
-7.560266152355235
 20
53.99390507299156
 30
0.0
 10
-7.533432011183063
 20
54.18863547261419
 30
0.0
 10
-7.378043399815914
 20
54.42246761938361
 30
0.0
 10
-7.174027907760006
 20
54.60083001572305
 30
0.0
 10
-7.01976849125191
 20
54.57889337394029
 30
0.0
 10
-6.952951840878389
 20
54.56939162699732
 30
0.0
 11
-7.573399043347441
 21
53.898602064391
 31
0.0
 11
-7.514551207264435
 21
54.1768084034824
 31
0.0
 11
-7.356260034074102
 21
54.42771880450703
 31
0.0
 11
-7.147514298823096
 21
54.57362625727236
 31
0.0
 11
-6.952951840878389
 21
54.56939162699732
 31
0.0
  0
SPLINE
  5
104
330
1F
100
AcDbEntity
  8
0
  6
Continuous
 62
     7
100
AcDbSpline
210
0.0
220
0.0
230
1.0
 70
     8
 71
     3
 72
     9
 73
     5
 74
     3
 42
0.000000001
 43
0.0000000001
 44
0.00000001
 40
0.0
 40
0.0
 40
0.0
 40
0.0
 40
0.0698881778923627
 40
0.1357661426831493
 40
0.1357661426831493
 40
0.1357661426831493
 40
0.1357661426831493
 10
-6.7352396824211
 20
53.30554996037319
 30
0.0
 10
-6.758807362007039
 20
53.30371740728535
 30
0.0
 10
-6.804590396255842
 20
53.30015747332419
 30
0.0
 10
-6.847297981533644
 20
53.31691055664244
 30
0.0
 10
-6.868021031091634
 20
53.32503968419778
 30
0.0
 11
-6.7352396824211
 21
53.30554996037319
 31
0.0
 11
-6.805127767269362
 21
53.30543499572448
 31
0.0
 11
-6.868021031091634
 21
53.32503968419778
 31
0.0
  0
SPLINE
  5
105
330
1F
100
AcDbEntity
  8
0
  6
Continuous
 62
     7
100
AcDbSpline
210
0.0
220
0.0
230
1.0
 70
     8
 71
     3
 72
     9
 73
     5
 74
     3
 42
0.000000001
 43
0.0000000001
 44
0.00000001
 40
0.0
 40
0.0
 40
0.0
 40
0.0
 40
0.0658779647908114
 40
0.1357661426832076
 40
0.1357661426832076
 40
0.1357661426832076
 40
0.1357661426832076
 10
-6.387266415929209
 20
54.28654891452271
 30
0.0
 10
-6.368329284150137
 20
54.27484795140953
 30
0.0
 10
-6.32930226632884
 20
54.25073373317821
 30
0.0
 10
-6.304680392948478
 20
54.21197134540246
 30
0.0
 10
-6.292005827667187
 20
54.19201766988099
 30
0.0
 11
-6.387266415929209
 21
54.28654891452271
 31
0.0
 11
-6.333846706857181
 21
54.24799711654887
 31
0.0
 11
-6.292005827667187
 21
54.19201766988099
 31
0.0
  0
SPLINE
  5
106
330
1F
100
AcDbEntity
  8
0
  6
Continuous
 62
     7
100
AcDbSpline
210
0.0
220
0.0
230
1.0
 70
     8
 71
     3
 72
     9
 73
     5
 74
     3
 42
0.000000001
 43
0.0000000001
 44
0.00000001
 40
0.0
 40
0.0
 40
0.0
 40
0.0
 40
0.1293645571531133
 40
0.2884454229364067
 40
0.2884454229364067
 40
0.2884454229364067
 40
0.2884454229364067
 10
-6.728413994251203
 20
53.33908871493378
 30
0.0
 10
-6.762660601824502
 20
53.36806836708395
 30
0.0
 10
-6.839020583716977
 20
53.43268459338342
 30
0.0
 10
-6.845204244471108
 20
53.53359153880196
 30
0.0
 10
-6.848614592631255
 20
53.58924284762189
 30
0.0
 11
-6.728413994251203
 21
53.33908871493378
 31
0.0
 11
-6.817038388959074
 21
53.43332727402048
 31
0.0
 11
-6.848614592631255
 21
53.58924284762189
 31
0.0
  0
SPLINE
  5
107
330
1F
100
AcDbEntity
  8
0
  6
Continuous
 62
     7
100
AcDbSpline
210
0.0
220
0.0
230
1.0
 70
     8
 71
     3
 72
     9
 73
     5
 74
     3
 42
0.000000001
 43
0.0000000001
 44
0.00000001
 40
0.0
 40
0.0
 40
0.0
 40
0.0
 40
0.1503425938923725
 40
0.3352203572738927
 40
0.3352203572738927
 40
0.3352203572738927
 40
0.3352203572738927
 10
-6.868021031091634
 20
53.32503968419778
 30
0.0
 10
-6.907821142713329
 20
53.3587187394988
 30
0.0
 10
-6.996563827069131
 20
53.43381327111061
 30
0.0
 10
-7.003750240797189
 20
53.55108350637567
 30
0.0
 10
-7.007713618398232
 20
53.61575935191638
 30
0.0
 11
-6.868021031091634
 21
53.32503968419778
 31
0.0
 11
-6.971016949265683
 21
53.434560171785
 31
0.0
 11
-7.007713618398232
 21
53.61575935191638
 31
0.0
  0
SPLINE
  5
108
330
1F
100
AcDbEntity
  8
0
  6
Continuous
 62
     7
100
AcDbSpline
210
0.0
220
0.0
230
1.0
 70
     8
 71
     3
 72
    11
 73
     7
 74
     5
 42
0.000000001
 43
0.0000000001
 44
0.00000001
 40
0.0
 40
0.0
 40
0.0
 40
0.0
 40
0.2843621590428539
 40
0.5810305331578287
 40
0.8357141829342505
 40
1.030322714025809
 40
1.030322714025809
 40
1.030322714025809
 40
1.030322714025809
 10
-7.007713618398232
 20
53.61575935191638
 30
0.0
 10
-6.994580727406018
 20
53.71106236051694
 30
0.0
 10
-6.967746586233829
 20
53.9057927601396
 30
0.0
 10
-6.812357974866675
 20
54.13962490690899
 30
0.0
 10
-6.608342482810801
 20
54.31798730324845
 30
0.0
 10
-6.454083066302723
 20
54.29605066146568
 30
0.0
 10
-6.387266415929209
 20
54.28654891452271
 30
0.0
 11
-7.007713618398232
 21
53.61575935191638
 31
0.0
 11
-6.948865782315202
 21
53.89396569100779
 31
0.0
 11
-6.790574609124865
 21
54.14487609203242
 31
0.0
 11
-6.581828873873888
 21
54.29078354479775
 31
0.0
 11
-6.387266415929209
 21
54.28654891452271
 31
0.0
  0
SPLINE
  5
109
330
1F
100
AcDbEntity
  8
0
  6
Continuous
 62
     7
100
AcDbSpline
210
0.0
220
0.0
230
1.0
 70
     8
 71
     3
 72
    11
 73
     7
 74
     5
 42
0.000000001
 43
0.0000000001
 44
0.00000001
 40
0.0
 40
0.0
 40
0.0
 40
0.0
 40
0.2446837188775014
 40
0.4999565057532457
 40
0.719102900622111
 40
0.8865567523252512
 40
0.8865567523252512
 40
0.8865567523252512
 40
0.8865567523252512
 10
-6.848614592631255
 20
53.58924284762189
 30
0.0
 10
-6.837314198027401
 20
53.6712477622107
 30
0.0
 10
-6.814224353803111
 20
53.83880647781943
 30
0.0
 10
-6.680517875271343
 20
54.0400108836708
 30
0.0
 10
-6.504969660998407
 20
54.19348550115608
 30
0.0
 10
-6.372234815029955
 20
54.17460978836601
 30
0.0
 10
-6.314741418413736
 20
54.16643386660871
 30
0.0
 11
-6.848614592631255
 21
53.58924284762189
 31
0.0
 11
-6.797978082513297
 21
53.82862969753775
 31
0.0
 11
-6.661774049768145
 21
54.04452934493102
 31
0.0
 11
-6.482155626412664
 21
54.17007761824071
 31
0.0
 11
-6.314741418413736
 21
54.16643386660871
 31
0.0
  0
SPLINE
  5
10A
330
1F
100
AcDbEntity
  8
0
  6
Continuous
 62
     7
100
AcDbSpline
210
0.0
220
0.0
230
1.0
 70
     8
 71
     3
 72
     9
 73
     5
 74
     3
 42
0.000000001
 43
0.0000000001
 44
0.00000001
 40
0.0
 40
0.0
 40
0.0
 40
0.0
 40
0.1503425938923582
 40
0.3352203572738869
 40
0.3352203572738869
 40
0.3352203572738869
 40
0.3352203572738869
 10
-7.433706456040899
 20
53.60788239667238
 30
0.0
 10
-7.473506567662587
 20
53.64156145197342
 30
0.0
 10
-7.562249252018371
 20
53.71665598358524
 30
0.0
 10
-7.569435665746409
 20
53.83392621885029
 30
0.0
 10
-7.573399043347441
 20
53.898602064391
 30
0.0
 11
-7.433706456040899
 21
53.60788239667238
 31
0.0
 11
-7.53670237421492
 21
53.71740288425961
 31
0.0
 11
-7.573399043347441
 21
53.898602064391
 31
0.0
  0
SPLINE
  5
10B
330
1F
100
AcDbEntity
  8
0
  6
Continuous
 62
     7
100
AcDbSpline
210
0.0
220
0.0
230
1.0
 70
     8
 71
     3
 72
     9
 73
     5
 74
     3
 42
0.000000001
 43
0.0000000001
 44
0.00000001
 40
0.0
 40
0.0
 40
0.0
 40
0.0
 40
0.0726981647567293
 40
0.138954739366588
 40
0.138954739366588
 40
0.138954739366588
 40
0.138954739366588
 10
-5.628855395084448
 20
53.63783160985722
 30
0.0
 10
-5.608755960237259
 20
53.6516152426762
 30
0.0
 10
-5.570338038201035
 20
53.67796116000272
 30
0.0
 10
-5.526171335295668
 20
53.69268352514617
 30
0.0
 10
-5.505111708376792
 20
53.69970345321103
 30
0.0
 11
-5.628855395084448
 21
53.63783160985722
 31
0.0
 11
-5.566983551730642
 21
53.67600094695764
 31
0.0
 11
-5.505111708376792
 21
53.69970345321103
 31
0.0
  0
SPLINE
  5
10C
330
1F
100
AcDbEntity
  8
0
  6
Continuous
 62
     7
100
AcDbSpline
210
0.0
220
0.0
230
1.0
 70
     8
 71
     3
 72
     9
 73
     5
 74
     3
 42
0.000000001
 43
0.0000000001
 44
0.00000001
 40
0.0
 40
0.0
 40
0.0
 40
0.0
 40
0.1427428306377987
 40
0.2588212978560593
 40
0.2588212978560593
 40
0.2588212978560593
 40
0.2588212978560593
 10
-9.183834737499868
 20
54.79044049216253
 30
0.0
 10
-9.18077464131896
 20
54.74050472326576
 30
0.0
 10
-9.175226057448322
 20
54.64996119474997
 30
0.0
 10
-9.106708453782549
 20
54.59198122848165
 30
0.0
 10
-9.075979065439885
 20
54.56597786499373
 30
0.0
 11
-9.183834737499868
 21
54.79044049216253
 31
0.0
 11
-9.155501495285904
 21
54.6505378693634
 31
0.0
 11
-9.075979065439885
 21
54.56597786499373
 31
0.0
  0
SPLINE
  5
10D
330
1F
100
AcDbEntity
  8
0
  6
Continuous
 62
     7
100
AcDbSpline
210
0.0
220
0.0
230
1.0
 70
     8
 71
     3
 72
    11
 73
     7
 74
     5
 42
0.000000001
 43
0.0000000001
 44
0.00000001
 40
0.0
 40
0.0
 40
0.0
 40
0.0
 40
0.1502558880904823
 40
0.3468953548512398
 40
0.5759509364755209
 40
0.795504976581648
 40
0.795504976581648
 40
0.795504976581648
 40
0.795504976581648
 10
-8.704791781174908
 20
55.30835243352368
 30
0.0
 10
-8.756380450411509
 20
55.31568866599674
 30
0.0
 10
-8.875483068371537
 20
55.33262579042476
 30
0.0
 10
-9.033002006715298
 20
55.19491343288046
 30
0.0
 10
-9.152976467784692
 20
55.01437326294388
 30
0.0
 10
-9.173694923941976
 20
54.86402328054392
 30
0.0
 10
-9.183834737499868
 20
54.79044049216253
 30
0.0
 11
-8.704791781174908
 21
55.30835243352368
 31
0.0
 11
-8.855012097541533
 21
55.31162196201512
 31
0.0
 11
-9.016183223363218
 21
55.19896783569401
 31
0.0
 11
-9.138398733826454
 21
55.00524166560056
 31
0.0
 11
-9.183834737499868
 21
54.79044049216253
 31
0.0
  0
ARC
  5
10E
102
{ACAD_REACTORS
330
167
102
}
330
1F
100
AcDbEntity
  8
1
  6
Continuous
 62
     7
100
AcDbCircle
 10
-3.13140652891813
 20
2.01549996796653
 30
0.0
 40
0.0666666666666633
100
AcDbArc
 50
180.0
 51
299.9816393688479
  0
ARC
  5
10F
102
{ACAD_REACTORS
330
167
102
}
330
1F
100
AcDbEntity
  8
1
  6
Continuous
 62
     7
100
AcDbCircle
 10
-3.13140652891813
 20
2.98450003203347
 30
0.0
 40
0.0666666666666731
100
AcDbArc
 50
60.01836063115253
 51
180.0
  0
ARC
  5
110
330
1F
100
AcDbEntity
  8
1
  6
Continuous
 62
     7
100
AcDbCircle
 10
-1.99811022233949
 20
2.49999999999999
 30
0.0
 40
0.0333333333333331
100
AcDbArc
 50
299.9816393688373
 51
60.0183606311498
  0
ARC
  5
111
330
1F
100
AcDbEntity
  8
1
  6
Continuous
 62
     7
100
AcDbCircle
 10
-5.33136950216344
 20
2.49999999999999
 30
0.0
 40
0.0333333333333343
100
AcDbArc
 50
119.9816393688929
 51
240.0183606311201
  0
ARC
  5
112
102
{ACAD_REACTORS
330
169
102
}
330
1F
100
AcDbEntity
  8
1
  6
Continuous
 62
     7
100
AcDbCircle
 10
-4.13140652891813
 20
2.05400422960654
 30
0.0
 40
0.1333333333333258
100
AcDbArc
 50
180.0000000000124
 51
240.0183606311564
  0
ARC
  5
113
102
{ACAD_REACTORS
330
16A
102
}
330
1F
100
AcDbEntity
  8
1
  6
Continuous
 62
     7
100
AcDbCircle
 10
-3.66473986225147
 20
2.56666666666666
 30
0.0
 40
0.0333333333333441
100
AcDbArc
 50
209.999999999961
 51
330.000000000015
  0
MTEXT
  5
115
330
1F
100
AcDbEntity
  8
1
 62
     7
100
AcDbMText
 10
-8.06473986225147
 20
3.2521278841512
 30
0.0
 40
0.6
 41
0.0
 71
     5
 72
     1
  1
Scale
  7
CONVERTER_11
 73
     1
 44
1.32052821128451
  0
MTEXT
  5
116
330
1F
100
AcDbEntity
  8
1
 62
     7
100
AcDbMText
 10
-37.40000000000001
 20
1.74999999999999
 30
0.0
 40
0.6
 41
0.0
 71
     4
 72
     1
  1
Sign.
  7
CONVERTER_11
 73
     1
 44
1.32052821128451
  0
MTEXT
  5
117
330
1F
100
AcDbEntity
  8
1
 62
     7
100
AcDbMText
 10
-37.40000000000001
 20
3.2521278841512
 30
0.0
 40
0.6
 41
0.0
 71
     4
 72
     1
  1
Date
  7
CONVERTER_11
 73
     1
 44
1.32052821128451
  0
MTEXT
  5
118
330
1F
100
AcDbEntity
  8
1
 62
     7
100
AcDbMText
 10
-38.80000000000003
 20
30.29999999999996
 30
0.0
 40
0.8
 41
0.0
 71
     5
 72
     1
  1
Diritti riservati      All rights reserved
  7
CONVERTER_11
 11
0.0
 21
1.0
 31
0.0
 73
     1
 44
1.32052821128451
  0
MTEXT
  5
119
330
1F
100
AcDbEntity
  8
1
 62
     7
100
AcDbMText
 10
-8.06473986225147
 20
2.01212788415119
 30
0.0
 40
0.9
 41
0.0
 71
     5
 72
     1
  1
5:1
  7
CONVERTER_11
 73
     1
 44
1.32052821128451
  0
MTEXT
  5
11A
330
1F
100
AcDbEntity
  8
1
 62
     7
100
AcDbMText
 10
-35.28000000000002
 20
1.74999999999999
 30
0.0
 40
0.6
 41
0.0
 71
     4
 72
     1
  1
T.Tedeschi
  7
CONVERTER_11
 73
     1
 44
1.32052821128451
  0
MTEXT
  5
11B
330
1F
100
AcDbEntity
  8
1
 62
     7
100
AcDbMText
 10
-35.28000000000002
 20
3.25212788415119
 30
0.0
 40
0.6
 41
0.0
 71
     4
 72
     1
  1
18/02/10
  7
CONVERTER_11
 73
     1
 44
1.32052821128451
  0
MTEXT
  5
11C
330
1F
100
AcDbEntity
  8
1
 62
     7
100
AcDbMText
 10
-30.54473986225148
 20
2.49999999999999
 30
0.0
 40
0.9
 41
0.0
 71
     4
 72
     1
  1
CIVFD\Pfemale crimp contact 5A for D-SUB
  7
CONVERTER_11
 73
     1
 44
0.90036014405762
  0
MTEXT
  5
11E
330
1F
100
AcDbEntity
  8
1
 62
     4
100
AcDbMText
 10
-22.20000000000004
 20
17.67575856997961
 30
0.0
 40
0.4
 41
0.0
 71
     5
 72
     1
  1
mm
  7
CONVERTER_12
 73
     1
 44
1.32052821128451
  0
TEXT
  5
11F
330
1F
100
AcDbEntity
  8
1
 62
     4
100
AcDbText
 10
-18.37668857346008
 20
17.73979529597576
 30
0.0
 40
0.3
  1
2
 41
0.95
  7
CONVERTER_12
100
AcDbText
  0
MTEXT
  5
120
330
1F
100
AcDbEntity
  8
1
 62
     4
100
AcDbMText
 10
-11.79999999999976
 20
18.27575856997961
 30
0.0
 40
0.4
 41
0.0
 71
     5
 72
     1
  1
STRIPPING\P LENGTH\P   mm
  7
CONVERTER_12
 73
     1
 44
1.02040816326531
  0
MTEXT
  5
121
330
1F
100
AcDbEntity
  8
1
 62
     4
100
AcDbMText
 10
-15.39999999999986
 20
17.67575856997961
 30
0.0
 40
0.4
 41
0.0
 71
     5
 72
     1
  1
AWG
  7
CONVERTER_12
 73
     1
 44
1.32052821128451
  0
MTEXT
  5
122
330
1F
100
AcDbEntity
  8
1
 62
     4
100
AcDbMText
 10
-26.2000000000001
 20
17.67575856997961
 30
0.0
 40
0.4
 41
0.0
 71
     5
 72
     1
  1
GOLD PLATED
  7
CONVERTER_12
 73
     1
 44
1.32052821128451
  0
MTEXT
  5
123
330
1F
100
AcDbEntity
  8
1
 62
     4
100
AcDbMText
 10
-17.19999999999993
 20
18.87575856997962
 30
0.0
 40
0.4
 41
0.0
 71
     5
 72
     1
  1
WIRE GAUGE
  7
CONVERTER_12
 73
     1
 44
1.32052821128451
  0
MTEXT
  5
124
330
1F
100
AcDbEntity
  8
1
 62
     4
100
AcDbMText
 10
-15.39999999999986
 20
13.8757585699796
 30
0.0
 40
0.4
 41
0.0
 71
     5
 72
     1
  1
22-18
  7
CONVERTER_12
 73
     1
 44
1.32052821128451
  0
MTEXT
  5
125
330
1F
100
AcDbEntity
  8
1
 62
     4
100
AcDbMText
 10
-15.39999999999986
 20
15.15575856997962
 30
0.0
 40
0.4
 41
0.0
 71
     5
 72
     1
  1
24-20
  7
CONVERTER_12
 73
     1
 44
1.32052821128451
  0
MTEXT
  5
126
330
1F
100
AcDbEntity
  8
1
 62
     4
100
AcDbMText
 10
-15.39999999999986
 20
16.43575856997962
 30
0.0
 40
0.4
 41
0.0
 71
     5
 72
     1
  1
28-26
  7
CONVERTER_12
 73
     1
 44
1.32052821128451
  0
MTEXT
  5
127
330
1F
100
AcDbEntity
  8
1
 62
     4
100
AcDbMText
 10
-18.99999999999994
 20
17.67575856997961
 30
0.0
 40
0.4
 41
0.0
 71
     5
 72
     1
  1
mm
  7
CONVERTER_12
 73
     1
 44
1.32052821128451
  0
MTEXT
  5
128
330
1F
100
AcDbEntity
  8
1
 62
     4
100
AcDbMText
 10
-18.99999999999994
 20
16.43575856997962
 30
0.0
 40
0.4
 41
0.0
 71
     5
 72
     1
  1
0,08-0,13
  7
CONVERTER_12
 73
     1
 44
1.32052821128451
  0
MTEXT
  5
129
330
1F
100
AcDbEntity
  8
1
 62
     4
100
AcDbMText
 10
-18.99999999999994
 20
15.15575856997962
 30
0.0
 40
0.4
 41
0.0
 71
     5
 72
     1
  1
0,20-0,52
  7
CONVERTER_12
 73
     1
 44
1.32052821128451
  0
MTEXT
  5
12A
330
1F
100
AcDbEntity
  8
1
 62
     4
100
AcDbMText
 10
-18.99999999999994
 20
13.8757585699796
 30
0.0
 40
0.4
 41
0.0
 71
     5
 72
     1
  1
0,32-0,82
  7
CONVERTER_12
 73
     1
 44
1.32052821128451
  0
MTEXT
  5
12B
330
1F
100
AcDbEntity
  8
1
 62
     4
100
AcDbMText
 10
-22.20000000000004
 20
18.87575856997962
 30
0.0
 40
0.4
 41
0.0
 71
     5
 72
     1
  1
\U+00f8A
  7
CONVERTER_12
 73
     1
 44
1.32052821128451
  0
MTEXT
  5
12C
330
1F
100
AcDbEntity
  8
1
 62
     4
100
AcDbMText
 10
-22.20000000000004
 20
16.43575856997962
 30
0.0
 40
0.4
 41
0.0
 71
     5
 72
     1
  1
0,63
  7
CONVERTER_12
 73
     1
 44
1.32052821128451
  0
MTEXT
  5
12D
330
1F
100
AcDbEntity
  8
1
 62
     4
100
AcDbMText
 10
-22.20000000000004
 20
15.1557585699796
 30
0.0
 40
0.4
 41
0.0
 71
     5
 72
     1
  1
1,14
  7
CONVERTER_12
 73
     1
 44
1.32052821128451
  0
MTEXT
  5
12E
330
1F
100
AcDbEntity
  8
1
 62
     4
100
AcDbMText
 10
-22.20000000000004
 20
13.8757585699796
 30
0.0
 40
0.4
 41
0.0
 71
     5
 72
     1
  1
1,35
  7
CONVERTER_12
 73
     1
 44
1.32052821128451
  0
MTEXT
  5
12F
330
1F
100
AcDbEntity
  8
1
 62
     4
100
AcDbMText
 10
-26.2000000000001
 20
13.8757585699796
 30
0.0
 40
0.4
 41
0.0
 71
     5
 72
     1
  1
CIVFD 0.8
  7
CONVERTER_12
 73
     1
 44
1.32052821128451
  0
MTEXT
  5
130
330
1F
100
AcDbEntity
  8
1
 62
     4
100
AcDbMText
 10
-26.2000000000001
 20
15.1557585699796
 30
0.0
 40
0.4
 41
0.0
 71
     5
 72
     1
  1
CIVFD 0.5
  7
CONVERTER_12
 73
     1
 44
1.32052821128451
  0
MTEXT
  5
131
330
1F
100
AcDbEntity
  8
1
 62
     4
100
AcDbMText
 10
-26.2000000000001
 20
16.43575856997962
 30
0.0
 40
0.4
 41
0.0
 71
     5
 72
     1
  1
CIVFD 0.1
  7
CONVERTER_12
 73
     1
 44
1.32052821128451
  0
MTEXT
  5
132
330
1F
100
AcDbEntity
  8
1
 62
     4
100
AcDbMText
 10
-26.2000000000001
 20
18.87575856997962
 30
0.0
 40
0.4
 41
0.0
 71
     5
 72
     1
  1
PART NUMBERS
  7
CONVERTER_12
 73
     1
 44
1.32052821128451
  0
MTEXT
  5
133
330
1F
100
AcDbEntity
  8
1
 62
     4
100
AcDbMText
 10
-11.79999999999976
 20
15.15575856997959
 30
0.0
 40
0.4
 41
0.0
 71
     5
 72
     1
  1
4,0
  7
CONVERTER_12
 73
     1
 44
1.32052821128451
  0
DIMENSION
  5
13F
330
1F
100
AcDbEntity
  8
1
100
AcDbDimension
  2
*D1
 10
-10.0173410786439
 20
42.18331083308707
 30
0.0
 11
-10.0173410786439
 21
40.08331083308701
 31
0.0
 70
    32
  1
<>
 71
     5
 42
-1.0
 53
0.00013888888889
  3
ME10_DIM_10
100
AcDbAlignedDimension
 13
-12.7541796804089
 23
37.98331083308695
 33
0.0
 14
-12.4391796804091
 24
42.18331083308707
 34
0.0
 50
90.0
100
AcDbRotatedDimension
  0
DIMENSION
  5
14C
330
1F
100
AcDbEntity
  8
1
100
AcDbDimension
  2
*D2
 10
-13.87417968040913
 20
43.668767081019
 30
0.0
 11
-13.31417968040901
 21
44.368767081019
 31
0.0
 70
    32
  1
øA
 71
     5
 42
-1.0
 53
0.00013888888889
  3
ME10_DIM_11
100
AcDbAlignedDimension
 13
-12.75417968040889
 23
42.03087240895126
 33
0.0
 14
-13.87417968040912
 24
42.03087240895126
 34
0.0
100
AcDbRotatedDimension
  0
DIMENSION
  5
158
330
1F
100
AcDbEntity
  8
1
100
AcDbDimension
  2
*D3
 10
-26.36417968040901
 20
37.1466070424595
 30
0.0
 11
-22.0325300278295
 21
37.8766070424595
 31
0.0
 70
    32
  1
<>
 71
     5
 42
-1.0
 53
0.00013888888889
  3
ME10_DIM_12
100
AcDbAlignedDimension
 13
-24.26417968040904
 23
38.08331083311695
 33
0.0
 14
-26.36417968040901
 24
38.08331083311695
 34
0.0
100
AcDbRotatedDimension
  0
DIMENSION
  5
164
330
1F
100
AcDbEntity
  8
1
100
AcDbDimension
  2
*D4
 10
-29.8961418792427
 20
42.18331083311685
 30
0.0
 11
-29.8961418792427
 21
35.38331083311688
 31
0.0
 70
    32
  1
<>
 71
     5
 42
-1.0
 53
0.00013888888889
  3
ME10_DIM_13
100
AcDbAlignedDimension
 13
-26.06978107696875
 23
28.58331083311692
 33
0.0
 14
-26.18917968040903
 24
42.18331083311685
 34
0.0
 50
90.0
100
AcDbRotatedDimension
  0
HATCH
  5
165
330
1F
100
AcDbEntity
  8
1
  6
Continuous
 62
     3
100
AcDbHatch
 10
0.0
 20
0.0
 30
0.0
210
0.0
220
0.0
230
1.0
  2
_USER
 70
     0
 71
     1
 91
        1
 92
        1
 93
       14
 72
     1
 10
-12.75417968040897
 20
38.38327748258855
 11
-12.7541796804089
 21
37.98331083308695
 72
     1
 10
-12.7541796804089
 20
37.98331083308695
 11
-13.31417968040901
 21
37.66031083308697
 72
     1
 10
-13.31417968040901
 20
37.66031083308697
 11
-13.87417968040912
 21
37.98331083308695
 72
     1
 10
-13.87417968040912
 20
37.98331083308695
 11
-13.87417968040912
 21
42.03087240895126
 72
     1
 10
-13.87417968040912
 20
42.03087240895126
 11
-14.02661810454473
 21
42.18331083308687
 72
     1
 10
-14.02661810454473
 20
42.18331083308687
 11
-14.18917968040899
 21
42.18331083308707
 72
     1
 10
-14.18917968040899
 20
42.18331083308707
 11
-14.18917968040899
 21
38.08331083308705
 72
     1
 10
-14.18917968040899
 20
38.08331083308705
 11
-14.3641796804091
 21
38.08331083308705
 72
     1
 10
-14.3641796804091
 20
38.08331083308705
 11
-14.36417968040905
 21
37.2688135625912
 72
     4
 94
        3
 73
     0
 74
     0
 95
       11
 96
        7
 40
0.0
 40
0.0
 40
0.0
 40
0.0
 40
0.6768893291314555
 40
1.345847662089172
 40
1.733616466355692
 40
2.119716649253611
 40
2.119716649253611
 40
2.119716649253611
 40
2.119716649253611
 10
-14.36417968040905
 20
37.2688135625912
 10
-14.14456858970617
 20
37.20730773268729
 10
-13.70791955022964
 20
37.08501673504664
 10
-13.12585762013174
 20
37.16462549979629
 10
-12.65073447773313
 20
37.23142483454751
 10
-12.39284592645244
 20
37.24493604292611
 10
-12.26417968040902
 20
37.251677070551
 72
     1
 10
-12.26417968040902
 20
37.251677070551
 11
-12.26417968040902
 21
38.08331083308705
 72
     1
 10
-12.26417968040902
 20
38.08331083308705
 11
-12.43917968040905
 21
38.08331083308709
 72
     1
 10
-12.43917968040905
 20
38.08331083308709
 11
-12.43917968040908
 21
38.38327748258855
 72
     1
 10
-12.43917968040908
 20
38.38327748258855
 11
-12.75417968040897
 21
38.38327748258855
 97
       14
330
49
330
4E
330
87
330
ED
330
82
330
4F
330
7E
330
81
330
7F
330
80
330
7B
330
4A
330
84
330
4B
 75
     1
 76
     0
 52
44.99999999999989
 41
0.25
 77
     0
 78
     1
 53
44.99999999999989
 43
0.0
 44
0.0
 45
-0.1767766952966365
 46
0.1767766952966372
 79
     0
 98
        1
 10
0.0
 20
0.0
  0
HATCH
  5
166
330
1F
100
AcDbEntity
  8
1
  6
Continuous
 62
     3
100
AcDbHatch
 10
0.0
 20
0.0
 30
0.0
210
0.0
220
0.0
230
1.0
  2
_USER
 70
     0
 71
     1
 91
        1
 92
        1
 93
        5
 72
     1
 10
-12.75417968040897
 20
38.98331083308707
 11
-12.75417968040889
 21
42.03087240895126
 72
     1
 10
-12.75417968040889
 20
42.03087240895126
 11
-12.60174125627307
 21
42.18331083308707
 72
     1
 10
-12.60174125627307
 20
42.18331083308707
 11
-12.4391796804091
 21
42.18331083308707
 72
     1
 10
-12.4391796804091
 20
42.18331083308707
 11
-12.43917968040905
 21
38.98331083308707
 72
     1
 10
-12.43917968040905
 20
38.98331083308707
 11
-12.75417968040897
 21
38.98331083308707
 97
        5
330
76
330
79
330
77
330
78
330
83
 75
     1
 76
     0
 52
44.99999999999989
 41
0.25
 77
     0
 78
     1
 53
44.99999999999989
 43
0.0
 44
0.0
 45
-0.1767766952966365
 46
0.1767766952966372
 79
     0
 98
        1
 10
0.0
 20
0.0
  0
HATCH
  5
167
330
1F
100
AcDbEntity
  8
1
  6
Continuous
 62
     7
100
AcDbHatch
 10
0.0
 20
0.0
 30
0.0
210
0.0
220
0.0
230
1.0
  2
SOLID
 70
     1
 71
     1
 91
        1
 92
        1
 93
       14
 72
     1
 10
-2.898054692484109
 20
2.772908172450748
 11
-3.064739862251471
 21
2.869072693470393
 72
     1
 10
-3.064739862251471
 20
2.869072693470393
 11
-3.064739862251471
 21
2.566666666666656
 72
     1
 10
-3.064739862251471
 20
2.566666666666656
 11
-2.864739862251469
 21
2.566666666666656
 72
     2
 10
-2.864739862251469
 20
2.499999999999993
 40
0.0666666666666629
 50
270.0
 51
450.0
 73
     0
 72
     1
 10
-2.864739862251469
 20
2.43333333333333
 11
-3.064739862251471
 21
2.43333333333333
 72
     1
 10
-3.064739862251471
 20
2.43333333333333
 11
-3.064739862251471
 21
2.130927306529578
 72
     1
 10
-3.064739862251471
 20
2.130927306529578
 11
-2.898054692484109
 21
2.227091827549238
 72
     2
 10
-2.864739862251469
 20
2.169346121812644
 40
0.0666666666666659
 50
240.0183606311586
 51
420.0183606311617
 73
     0
 72
     1
 10
-2.831425032018842
 20
2.111600416076065
 11
-3.098091698685494
 21
1.957754262229948
 72
     2
 10
-3.131406528918134
 20
2.015499967966527
 40
0.0666666666666633
 50
60.01836063115213
 51
180.0
 73
     0
 72
     1
 10
-3.198073195584797
 20
2.015499967966527
 11
-3.198073195584797
 21
2.984500032033473
 72
     2
 10
-3.131406528918134
 20
2.984500032033473
 40
0.0666666666666731
 50
180.0
 51
299.9816393688475
 73
     0
 72
     1
 10
-3.098091698685494
 20
3.042245737770053
 11
-2.831425032018842
 21
2.888399583923892
 72
     2
 10
-2.864739862251469
 20
2.830653878187327
 40
0.0666666666666723
 50
299.9816393688444
 51
479.9816393688478
 73
     0
 97
       14
330
B0
330
10F
330
C7
330
10E
330
A9
330
E1
330
AA
330
AB
330
AC
330
E2
330
AD
330
AE
330
AF
330
E3
 75
     0
 76
     1
 98
        1
 10
0.0
 20
0.0
  0
HATCH
  5
168
330
1F
100
AcDbEntity
  8
1
  6
Continuous
 62
     7
100
AcDbHatch
 10
0.0
 20
0.0
 30
0.0
210
0.0
220
0.0
230
1.0
  2
SOLID
 70
     1
 71
     1
 91
        1
 92
        1
 93
        5
 72
     1
 10
-4.398073195584814
 20
2.830653878187327
 11
-4.398073195584814
 21
2.207850383452659
 72
     1
 10
-4.398073195584814
 20
2.207850383452659
 11
-4.398073195584814
 21
2.169346121812644
 72
     2
 10
-4.464739862251463
 20
2.169346121812644
 40
0.0666666666666771
 50
0.0
 51
180.0
 73
     0
 72
     1
 10
-4.53140652891814
 20
2.169346121812644
 11
-4.53140652891814
 21
2.830653878187327
 72
     2
 10
-4.464739862251463
 20
2.830653878187327
 40
0.0666666666666487
 50
180.0
 51
360.0
 73
     0
 97
        5
330
B3
330
B2
330
E4
330
B1
330
E5
 75
     0
 76
     1
 98
        1
 10
0.0
 20
0.0
  0
HATCH
  5
169
330
1F
100
AcDbEntity
  8
1
  6
Continuous
 62
     7
100
AcDbHatch
 10
0.0
 20
0.0
 30
0.0
210
0.0
220
0.0
230
1.0
  2
SOLID
 70
     1
 71
     1
 91
        1
 92
        1
 93
        7
 72
     1
 10
-4.131406528918134
 20
2.984500032033473
 11
-4.131406528918134
 21
2.054004229606541
 72
     1
 10
-4.131406528918134
 20
2.054004229606541
 11
-3.698091698685502
 21
1.804014904472318
 72
     2
 10
-3.731406528918143
 20
1.746269198735739
 40
0.066666666666673
 50
299.9816393688486
 51
479.9816393688488
 73
     0
 72
     1
 10
-3.764721359150784
 20
1.68852349299916
 11
-4.198036189383402
 21
1.938512818133383
 72
     2
 10
-4.131406528918134
 20
2.054004229606541
 40
0.1333333333333258
 50
119.9816393688436
 51
179.9999999999876
 73
     0
 72
     1
 10
-4.26473986225146
 20
2.054004229606512
 11
-4.26473986225146
 21
2.984500032033473
 72
     2
 10
-4.198073195584811
 20
2.984500032033473
 40
0.0666666666666771
 50
180.0
 51
360.0
 73
     0
 97
        7
330
B6
330
B5
330
E6
330
B4
330
112
330
B7
330
E7
 75
     0
 76
     1
 98
        1
 10
0.0
 20
0.0
  0
HATCH
  5
16A
330
1F
100
AcDbEntity
  8
1
  6
Continuous
 62
     7
100
AcDbHatch
 10
0.0
 20
0.0
 30
0.0
210
0.0
220
0.0
230
1.0
  2
SOLID
 70
     1
 71
     1
 91
        1
 92
        1
 93
       16
 72
     2
 10
-3.945079953089746
 20
3.146243462406908
 40
0.0529932424950674
 50
30.0000000000139
 51
180.0
 73
     1
 72
     1
 10
-3.998073195584809
 20
3.146243462406908
 11
-3.998073195584809
 21
2.499999999999993
 72
     1
 10
-3.998073195584809
 20
2.499999999999993
 11
-3.998073195584809
 21
2.169517014526583
 72
     2
 10
-3.931406528918146
 20
2.169517014526583
 40
0.0666666666666629
 50
180.0
 51
360.0
 73
     1
 72
     1
 10
-3.864739862251469
 20
2.169517014526583
 11
-3.864739862251469
 21
2.499999999999993
 72
     1
 10
-3.864739862251469
 20
2.499999999999993
 11
-3.864739862251469
 21
2.846410161513767
 72
     1
 10
-3.864739862251469
 20
2.846410161513767
 11
-3.693607375710968
 21
2.550000000000004
 72
     2
 10
-3.664739862251466
 20
2.566666666666656
 40
0.0333333333333441
 50
209.999999999961
 51
330.000000000015
 73
     1
 72
     1
 10
-3.635872348791992
 20
2.550000000000004
 11
-3.464739862251463
 21
2.846410161513767
 72
     1
 10
-3.464739862251463
 20
2.846410161513767
 11
-3.464739862251463
 21
2.499999999999993
 72
     1
 10
-3.464739862251463
 20
2.499999999999993
 11
-3.464739862251463
 21
1.861653814120352
 72
     2
 10
-3.398073195584786
 20
1.861653814120352
 40
0.0666666666666771
 50
180.0
 51
360.0
 73
     1
 72
     1
 10
-3.331406528918137
 20
1.861653814120352
 11
-3.331406528918137
 21
3.146243462406908
 72
     2
 10
-3.3843997714132
 20
3.146243462406908
 40
0.052993242495063
 50
0.0
 51
149.9999999999784
 73
     1
 72
     1
 10
-3.430293265642817
 20
3.172740083654453
 11
-3.664739862251466
 21
2.766666666666644
 72
     1
 10
-3.664739862251466
 20
2.766666666666644
 11
-3.899186458860115
 21
3.172740083654453
 97
       16
330
B8
330
E8
330
B9
330
E9
330
BA
330
C6
330
C5
330
113
330
C4
330
C3
330
BB
330
EA
330
BC
330
BE
330
EB
330
BD
 75
     0
 76
     1
 98
        1
 10
0.0
 20
0.0
  0
ENDSEC
  0
SECTION
  2
OBJECTS
  0
DICTIONARY
  5
C
330
0
100
AcDbDictionary
281
     1
  3
ACAD_GROUP
350
D
  3
ACAD_LAYOUT
350
1A
  3
ACAD_MATERIAL
350
3B
  3
ACAD_MLEADERSTYLE
350
16D
  3
ACAD_MLINESTYLE
350
17
  3
ACAD_PLOTSETTINGS
350
19
  3
ACAD_PLOTSTYLENAME
350
E
  3
ACAD_VISUALSTYLE
350
2A
  3
AcDbVariableDictionary
350
16B
  0
DICTIONARY
  5
D
102
{ACAD_REACTORS
330
C
102
}
330
C
100
AcDbDictionary
281
     1
  0
DICTIONARY
  5
1A
102
{ACAD_REACTORS
330
C
102
}
330
C
100
AcDbDictionary
281
     1
  3
Layout1
350
1E
  3
Layout2
350
26
  3
Model
350
22
  0
DICTIONARY
  5
3B
102
{ACAD_REACTORS
330
C
102
}
330
C
100
AcDbDictionary
281
     1
  3
ByBlock
350
3D
  3
ByLayer
350
3C
  3
Global
350
3E
  0
DICTIONARY
  5
16D
102
{ACAD_REACTORS
330
C
102
}
330
C
100
AcDbDictionary
281
     1
  0
DICTIONARY
  5
17
102
{ACAD_REACTORS
330
C
102
}
330
C
100
AcDbDictionary
281
     1
  3
Standard
350
18
  0
DICTIONARY
  5
19
102
{ACAD_REACTORS
330
C
102
}
330
C
100
AcDbDictionary
281
     1
  0
ACDBDICTIONARYWDFLT
  5
E
102
{ACAD_REACTORS
330
C
102
}
330
C
100
AcDbDictionary
281
     1
  3
Normal
350
F
100
AcDbDictionaryWithDefault
340
F
  0
DICTIONARY
  5
2A
102
{ACAD_REACTORS
330
C
102
}
330
C
100
AcDbDictionary
281
     1
  3
2dWireframe
350
2F
  3
3D Hidden
350
31
  3
3dWireframe
350
30
  3
Basic
350
32
  3
Brighten
350
36
  3
ColorChange
350
3A
  3
Conceptual
350
34
  3
Dim
350
35
  3
Facepattern
350
39
  3
Flat
350
2B
  3
FlatWithEdges
350
2C
  3
Gouraud
350
2D
  3
GouraudWithEdges
350
2E
  3
Linepattern
350
38
  3
Realistic
350
33
  3
Thicken
350
37
  0
DICTIONARY
  5
16B
102
{ACAD_REACTORS
330
C
102
}
330
C
100
AcDbDictionary
281
     1
  3
DIMASSOC
350
16E
  3
HIDETEXT
350
16F
  0
LAYOUT
  5
1E
102
{ACAD_REACTORS
330
1A
102
}
330
1A
100
AcDbPlotSettings
  1

  2
none_device
  4

  6

 40
0.0
 41
0.0
 42
0.0
 43
0.0
 44
0.0
 45
0.0
 46
0.0
 47
0.0
 48
0.0
 49
0.0
140
0.0
141
0.0
142
1.0
143
1.0
 70
   688
 72
     0
 73
     0
 74
     5
  7

 75
    16
147
1.0
148
0.0
149
0.0
100
AcDbLayout
  1
Layout1
 70
     1
 71
     1
 10
0.0
 20
0.0
 11
12.0
 21
9.0
 12
0.0
 22
0.0
 32
0.0
 14
1.00000000000000E+20
 24
1.00000000000000E+20
 34
1.00000000000000E+20
 15
-1.00000000000000E+20
 25
-1.00000000000000E+20
 35
-1.00000000000000E+20
146
0.0
 13
0.0
 23
0.0
 33
0.0
 16
1.0
 26
0.0
 36
0.0
 17
0.0
 27
1.0
 37
0.0
 76
     0
330
1B
  0
LAYOUT
  5
26
102
{ACAD_REACTORS
330
1A
102
}
330
1A
100
AcDbPlotSettings
  1

  2
none_device
  4

  6

 40
0.0
 41
0.0
 42
0.0
 43
0.0
 44
0.0
 45
0.0
 46
0.0
 47
0.0
 48
0.0
 49
0.0
140
0.0
141
0.0
142
1.0
143
1.0
 70
   688
 72
     0
 73
     0
 74
     5
  7

 75
    16
147
1.0
148
0.0
149
0.0
100
AcDbLayout
  1
Layout2
 70
     1
 71
     2
 10
0.0
 20
0.0
 11
0.0
 21
0.0
 12
0.0
 22
0.0
 32
0.0
 14
0.0
 24
0.0
 34
0.0
 15
0.0
 25
0.0
 35
0.0
146
0.0
 13
0.0
 23
0.0
 33
0.0
 16
1.0
 26
0.0
 36
0.0
 17
0.0
 27
1.0
 37
0.0
 76
     0
330
23
  0
LAYOUT
  5
22
102
{ACAD_REACTORS
330
1A
102
}
330
1A
100
AcDbPlotSettings
  1

  2
none_device
  4

  6

 40
0.0
 41
0.0
 42
0.0
 43
0.0
 44
0.0
 45
0.0
 46
0.0
 47
0.0
 48
0.0
 49
0.0
140
0.0
141
0.0
142
1.0
143
1.0
 70
  1712
 72
     0
 73
     0
 74
     0
  7

 75
     0
147
1.0
148
0.0
149
0.0
100
AcDbLayout
  1
Model
 70
     1
 71
     0
 10
0.0
 20
0.0
 11
12.0
 21
9.0
 12
0.0
 22
0.0
 32
0.0
 14
-42.00000000000004
 24
0.0
 34
0.0
 15
0.0
 25
59.40000000000003
 35
0.0
146
0.0
 13
0.0
 23
0.0
 33
0.0
 16
1.0
 26
0.0
 36
0.0
 17
0.0
 27
1.0
 37
0.0
 76
     0
330
1F
331
29
  0
MATERIAL
  5
3D
102
{ACAD_REACTORS
330
3B
102
}
102
{ACAD_XDICTIONARY
360
192
102
}
330
3B
100
AcDbMaterial
  1
ByBlock
  0
MATERIAL
  5
3C
102
{ACAD_REACTORS
330
3B
102
}
102
{ACAD_XDICTIONARY
360
190
102
}
330
3B
100
AcDbMaterial
  1
ByLayer
  0
MATERIAL
  5
3E
102
{ACAD_REACTORS
330
3B
102
}
102
{ACAD_XDICTIONARY
360
194
102
}
330
3B
100
AcDbMaterial
  1
Global
  0
MLINESTYLE
  5
18
102
{ACAD_REACTORS
330
17
102
}
330
17
100
AcDbMlineStyle
  2
Standard
 70
     0
  3

 62
   256
 51
90.0
 52
90.0
 71
     2
 49
0.5
 62
   256
  6
BYLAYER
 49
-0.5
 62
   256
  6
BYLAYER
  0
ACDBPLACEHOLDER
  5
F
102
{ACAD_REACTORS
330
E
102
}
330
E
  0
VISUALSTYLE
  5
2F
102
{ACAD_REACTORS
330
2A
102
}
102
{ACAD_XDICTIONARY
360
178
102
}
330
2A
100
AcDbVisualStyle
  2
2dWireframe
 70
     4
 71
     0
 72
     2
 73
     0
 90
        0
 40
-0.6
 41
-30.0
 62
     5
 63
     7
 74
     1
 91
        4
 64
     7
 65
   257
 75
     1
175
     1
 42
1.0
 92
        0
 66
   257
 43
1.0
 76
     1
 77
     6
 78
     2
 67
     7
 79
     5
170
     0
171
     0
290
     0
174
     0
 93
        1
 44
0.0
173
     0
291
     0
 45
0.0
1001
ACAD
1000
AcDbSavedByObjectVersion
1070
     0
  0
VISUALSTYLE
  5
31
102
{ACAD_REACTORS
330
2A
102
}
102
{ACAD_XDICTIONARY
360
17C
102
}
330
2A
100
AcDbVisualStyle
  2
3D Hidden
 70
     6
 71
     1
 72
     2
 73
     2
 90
        0
 40
-0.6
 41
-30.0
 62
     5
 63
     7
 74
     2
 91
        2
 64
     7
 65
   257
 75
     2
175
     1
 42
40.0
 92
        0
 66
   257
 43
1.0
 76
     1
 77
     6
 78
     2
 67
     7
 79
     3
170
     0
171
     0
290
     0
174
     0
 93
        1
 44
0.0
173
     0
291
     0
 45
0.0
1001
ACAD
1000
AcDbSavedByObjectVersion
1070
     0
  0
VISUALSTYLE
  5
30
102
{ACAD_REACTORS
330
2A
102
}
102
{ACAD_XDICTIONARY
360
17A
102
}
330
2A
100
AcDbVisualStyle
  2
3dWireframe
 70
     5
 71
     0
 72
     2
 73
     0
 90
        0
 40
-0.6
 41
-30.0
 62
     5
 63
     7
 74
     1
 91
        4
 64
     7
 65
   257
 75
     1
175
     1
 42
1.0
 92
        0
 66
   257
 43
1.0
 76
     1
 77
     6
 78
     2
 67
     7
 79
     5
170
     0
171
     0
290
     0
174
     0
 93
        1
 44
0.0
173
     0
291
     0
 45
0.0
1001
ACAD
1000
AcDbSavedByObjectVersion
1070
     0
  0
VISUALSTYLE
  5
32
102
{ACAD_REACTORS
330
2A
102
}
102
{ACAD_XDICTIONARY
360
17E
102
}
330
2A
100
AcDbVisualStyle
  2
Basic
 70
     7
 71
     1
 72
     0
 73
     1
 90
        0
 40
-0.6
 41
-30.0
 62
     5
 63
     7
 74
     0
 91
        4
 64
     7
 65
   257
 75
     1
175
     1
 42
1.0
 92
        8
 66
     7
 43
1.0
 76
     1
 77
     6
 78
     2
 67
     7
 79
     5
170
     0
171
     0
290
     0
174
     0
 93
        1
 44
0.0
173
     0
291
     1
 45
0.0
1001
ACAD
1000
AcDbSavedByObjectVersion
1070
     0
  0
VISUALSTYLE
  5
36
102
{ACAD_REACTORS
330
2A
102
}
102
{ACAD_XDICTIONARY
360
186
102
}
330
2A
100
AcDbVisualStyle
  2
Brighten
 70
    12
 71
     2
 72
     2
 73
     0
 90
        0
 40
-0.6
 41
-30.0
 62
     5
 63
     7
 74
     1
 91
        4
 64
     7
 65
   257
 75
     1
175
     1
 42
1.0
 92
        8
 66
     7
 43
1.0
 76
     1
 77
     6
 78
     2
 67
     7
 79
     5
170
     0
171
     0
290
     0
174
     0
 93
        1
 44
50.0
173
     0
291
     1
 45
0.0
1001
ACAD
1000
AcDbSavedByObjectVersion
1070
     0
  0
VISUALSTYLE
  5
3A
102
{ACAD_REACTORS
330
2A
102
}
102
{ACAD_XDICTIONARY
360
18E
102
}
330
2A
100
AcDbVisualStyle
  2
ColorChange
 70
    16
 71
     2
 72
     2
 73
     3
 90
        0
 40
-0.6
 41
-30.0
 62
     5
 63
     8
 74
     1
 91
        4
 64
     7
 65
   257
 75
     1
175
     1
 42
1.0
 92
        8
 66
     8
 43
1.0
 76
     1
 77
     6
 78
     2
 67
     7
 79
     5
170
     0
171
     0
290
     0
174
     0
 93
        1
 44
0.0
173
     0
291
     1
 45
0.0
1001
ACAD
1000
AcDbSavedByObjectVersion
1070
     0
  0
VISUALSTYLE
  5
34
102
{ACAD_REACTORS
330
2A
102
}
102
{ACAD_XDICTIONARY
360
182
102
}
330
2A
100
AcDbVisualStyle
  2
Conceptual
 70
     9
 71
     3
 72
     2
 73
     0
 90
        0
 40
-0.6
 41
-30.0
 62
     5
 63
     7
 74
     2
 91
        2
 64
     7
 65
   257
 75
     1
175
     1
 42
40.0
 92
        8
 66
     7
 43
1.0
 76
     1
 77
     6
 78
     2
 67
     7
 79
     3
170
     0
171
     0
290
     0
174
     0
 93
        1
 44
0.0
173
     0
291
     0
 45
0.0
1001
ACAD
1000
AcDbSavedByObjectVersion
1070
     0
  0
VISUALSTYLE
  5
35
102
{ACAD_REACTORS
330
2A
102
}
102
{ACAD_XDICTIONARY
360
184
102
}
330
2A
100
AcDbVisualStyle
  2
Dim
 70
    11
 71
     2
 72
     2
 73
     0
 90
        0
 40
-0.6
 41
-30.0
 62
     5
 63
     7
 74
     1
 91
        4
 64
     7
 65
   257
 75
     1
175
     1
 42
1.0
 92
        8
 66
     7
 43
1.0
 76
     1
 77
     6
 78
     2
 67
     7
 79
     5
170
     0
171
     0
290
     0
174
     0
 93
        1
 44
-50.0
173
     0
291
     1
 45
0.0
1001
ACAD
1000
AcDbSavedByObjectVersion
1070
     0
  0
VISUALSTYLE
  5
39
102
{ACAD_REACTORS
330
2A
102
}
102
{ACAD_XDICTIONARY
360
18C
102
}
330
2A
100
AcDbVisualStyle
  2
Facepattern
 70
    15
 71
     2
 72
     2
 73
     0
 90
        0
 40
-0.6
 41
-30.0
 62
     5
 63
     7
 74
     1
 91
        4
 64
     7
 65
   257
 75
     1
175
     1
 42
1.0
 92
        8
 66
     7
 43
1.0
 76
     1
 77
     6
 78
     2
 67
     7
 79
     5
170
     0
171
     0
290
     0
174
     0
 93
        1
 44
0.0
173
     0
291
     1
 45
0.0
1001
ACAD
1000
AcDbSavedByObjectVersion
1070
     0
  0
VISUALSTYLE
  5
2B
102
{ACAD_REACTORS
330
2A
102
}
102
{ACAD_XDICTIONARY
360
170
102
}
330
2A
100
AcDbVisualStyle
  2
Flat
 70
     0
 71
     2
 72
     1
 73
     1
 90
        2
 40
-0.6
 41
30.0
 62
     5
 63
     7
 74
     0
 91
        4
 64
     7
 65
   257
 75
     1
175
     1
 42
1.0
 92
        8
 66
     7
 43
1.0
 76
     1
 77
     6
 78
     2
 67
     7
 79
     5
170
     0
171
     0
290
     0
174
     0
 93
       13
 44
0.0
173
     0
291
     1
 45
0.0
1001
ACAD
1000
AcDbSavedByObjectVersion
1070
     0
  0
VISUALSTYLE
  5
2C
102
{ACAD_REACTORS
330
2A
102
}
102
{ACAD_XDICTIONARY
360
172
102
}
330
2A
100
AcDbVisualStyle
  2
FlatWithEdges
 70
     1
 71
     2
 72
     1
 73
     1
 90
        2
 40
-0.6
 41
30.0
 62
     5
 63
     7
 74
     1
 91
        4
 64
     7
 65
   257
 75
     1
175
     1
 42
1.0
 92
        0
 66
   257
 43
1.0
 76
     1
 77
     6
 78
     2
 67
     7
 79
     5
170
     0
171
     0
290
     0
174
     0
 93
       13
 44
0.0
173
     0
291
     1
 45
0.0
1001
ACAD
1000
AcDbSavedByObjectVersion
1070
     0
  0
VISUALSTYLE
  5
2D
102
{ACAD_REACTORS
330
2A
102
}
102
{ACAD_XDICTIONARY
360
174
102
}
330
2A
100
AcDbVisualStyle
  2
Gouraud
 70
     2
 71
     2
 72
     2
 73
     1
 90
        2
 40
-0.6
 41
30.0
 62
     5
 63
     7
 74
     0
 91
        4
 64
     7
 65
   257
 75
     1
175
     1
 42
1.0
 92
        0
 66
     7
 43
1.0
 76
     1
 77
     6
 78
     2
 67
     7
 79
     5
170
     0
171
     0
290
     0
174
     0
 93
       13
 44
0.0
173
     0
291
     1
 45
0.0
1001
ACAD
1000
AcDbSavedByObjectVersion
1070
     0
  0
VISUALSTYLE
  5
2E
102
{ACAD_REACTORS
330
2A
102
}
102
{ACAD_XDICTIONARY
360
176
102
}
330
2A
100
AcDbVisualStyle
  2
GouraudWithEdges
 70
     3
 71
     2
 72
     2
 73
     1
 90
        2
 40
-0.6
 41
30.0
 62
     5
 63
     7
 74
     1
 91
        4
 64
     7
 65
   257
 75
     1
175
     1
 42
1.0
 92
        0
 66
   257
 43
1.0
 76
     1
 77
     6
 78
     2
 67
     7
 79
     5
170
     0
171
     0
290
     0
174
     0
 93
       13
 44
0.0
173
     0
291
     1
 45
0.0
1001
ACAD
1000
AcDbSavedByObjectVersion
1070
     0
  0
VISUALSTYLE
  5
38
102
{ACAD_REACTORS
330
2A
102
}
102
{ACAD_XDICTIONARY
360
18A
102
}
330
2A
100
AcDbVisualStyle
  2
Linepattern
 70
    14
 71
     2
 72
     2
 73
     0
 90
        0
 40
-0.6
 41
-30.0
 62
     5
 63
     7
 74
     1
 91
        4
 64
     7
 65
   257
 75
     7
175
     7
 42
1.0
 92
        8
 66
     7
 43
1.0
 76
     1
 77
     6
 78
     2
 67
     7
 79
     5
170
     0
171
     0
290
     0
174
     0
 93
        1
 44
0.0
173
     0
291
     1
 45
0.0
1001
ACAD
1000
AcDbSavedByObjectVersion
1070
     0
  0
VISUALSTYLE
  5
33
102
{ACAD_REACTORS
330
2A
102
}
102
{ACAD_XDICTIONARY
360
180
102
}
330
2A
100
AcDbVisualStyle
  2
Realistic
 70
     8
 71
     2
 72
     2
 73
     0
 90
        0
 40
-0.6
 41
-30.0
 62
     5
 63
     7
 74
     1
 91
        0
 64
     7
 65
   257
 75
     1
175
     1
 42
1.0
 92
        8
 66
     8
 43
1.0
 76
     1
 77
     6
 78
     2
 67
     7
 79
     5
170
     0
171
     0
290
     0
174
     0
 93
       13
 44
0.0
173
     0
291
     0
 45
0.0
1001
ACAD
1000
AcDbSavedByObjectVersion
1070
     0
  0
VISUALSTYLE
  5
37
102
{ACAD_REACTORS
330
2A
102
}
102
{ACAD_XDICTIONARY
360
188
102
}
330
2A
100
AcDbVisualStyle
  2
Thicken
 70
    13
 71
     2
 72
     2
 73
     0
 90
        0
 40
-0.6
 41
-30.0
 62
     5
 63
     7
 74
     1
 91
        4
 64
     7
 65
   257
 75
     1
175
     1
 42
1.0
 92
       12
 66
     7
 43
1.0
 76
     1
 77
     6
 78
     2
 67
     7
 79
     5
170
     0
171
     0
290
     0
174
     0
 93
        1
 44
0.0
173
     0
291
     1
 45
0.0
1001
ACAD
1000
AcDbSavedByObjectVersion
1070
     0
  0
DICTIONARYVAR
  5
16E
102
{ACAD_REACTORS
330
16B
102
}
330
16B
100
DictionaryVariables
280
     0
  1
2
  0
DICTIONARYVAR
  5
16F
102
{ACAD_REACTORS
330
16B
102
}
330
16B
100
DictionaryVariables
280
     0
  1
1
  0
DICTIONARY
  5
192
330
3D
100
AcDbDictionary
280
     1
281
     1
  3
ACAD_XREC_ROUNDTRIP
360
193
  0
DICTIONARY
  5
190
330
3C
100
AcDbDictionary
280
     1
281
     1
  3
ACAD_XREC_ROUNDTRIP
360
191
  0
DICTIONARY
  5
194
330
3E
100
AcDbDictionary
280
     1
281
     1
  3
ACAD_XREC_ROUNDTRIP
360
195
  0
DICTIONARY
  5
178
330
2F
100
AcDbDictionary
280
     1
281
     1
  3
ACAD_XREC_ROUNDTRIP
360
179
  0
DICTIONARY
  5
17C
330
31
100
AcDbDictionary
280
     1
281
     1
  3
ACAD_XREC_ROUNDTRIP
360
17D
  0
DICTIONARY
  5
17A
330
30
100
AcDbDictionary
280
     1
281
     1
  3
ACAD_XREC_ROUNDTRIP
360
17B
  0
DICTIONARY
  5
17E
330
32
100
AcDbDictionary
280
     1
281
     1
  3
ACAD_XREC_ROUNDTRIP
360
17F
  0
DICTIONARY
  5
186
330
36
100
AcDbDictionary
280
     1
281
     1
  3
ACAD_XREC_ROUNDTRIP
360
187
  0
DICTIONARY
  5
18E
330
3A
100
AcDbDictionary
280
     1
281
     1
  3
ACAD_XREC_ROUNDTRIP
360
18F
  0
DICTIONARY
  5
182
330
34
100
AcDbDictionary
280
     1
281
     1
  3
ACAD_XREC_ROUNDTRIP
360
183
  0
DICTIONARY
  5
184
330
35
100
AcDbDictionary
280
     1
281
     1
  3
ACAD_XREC_ROUNDTRIP
360
185
  0
DICTIONARY
  5
18C
330
39
100
AcDbDictionary
280
     1
281
     1
  3
ACAD_XREC_ROUNDTRIP
360
18D
  0
DICTIONARY
  5
170
330
2B
100
AcDbDictionary
280
     1
281
     1
  3
ACAD_XREC_ROUNDTRIP
360
171
  0
DICTIONARY
  5
172
330
2C
100
AcDbDictionary
280
     1
281
     1
  3
ACAD_XREC_ROUNDTRIP
360
173
  0
DICTIONARY
  5
174
330
2D
100
AcDbDictionary
280
     1
281
     1
  3
ACAD_XREC_ROUNDTRIP
360
175
  0
DICTIONARY
  5
176
330
2E
100
AcDbDictionary
280
     1
281
     1
  3
ACAD_XREC_ROUNDTRIP
360
177
  0
DICTIONARY
  5
18A
330
38
100
AcDbDictionary
280
     1
281
     1
  3
ACAD_XREC_ROUNDTRIP
360
18B
  0
DICTIONARY
  5
180
330
33
100
AcDbDictionary
280
     1
281
     1
  3
ACAD_XREC_ROUNDTRIP
360
181
  0
DICTIONARY
  5
188
330
37
100
AcDbDictionary
280
     1
281
     1
  3
ACAD_XREC_ROUNDTRIP
360
189
  0
XRECORD
  5
193
102
{ACAD_REACTORS
330
192
102
}
330
192
100
AcDbXrecord
280
     1
102
MATERIAL
148
0.0
149
0.0
149
0.0
 93
        0
 94
      127
282
     0
 72
     1
 77
     1
171
     1
175
     1
179
     1
273
     0
  0
XRECORD
  5
191
102
{ACAD_REACTORS
330
190
102
}
330
190
100
AcDbXrecord
280
     1
102
MATERIAL
148
0.0
149
0.0
149
0.0
 93
        0
 94
      127
282
     0
 72
     1
 77
     1
171
     1
175
     1
179
     1
273
     0
  0
XRECORD
  5
195
102
{ACAD_REACTORS
330
194
102
}
330
194
100
AcDbXrecord
280
     1
102
MATERIAL
148
0.0
149
0.0
149
0.0
 93
        0
 94
      127
282
     0
 72
     1
 77
     1
171
     1
175
     1
179
     1
273
     0
  0
XRECORD
  5
179
102
{ACAD_REACTORS
330
178
102
}
330
178
100
AcDbXrecord
280
     1
102
RTVSPropertyOp0
 70
     1
102
RTVSPropertyOp1
 70
     1
102
RTVSPropertyOp2
 70
     1
102
RTVSPropertyOp3
 70
     1
102
RTVSPropertyOp4
 70
     1
102
RTVSPropertyOp5
 70
     1
102
RTVSPropertyOp6
 70
     1
102
RTVSPropertyOp7
 70
     1
102
RTVSPropertyOp8
 70
     1
102
RTVSPropertyOp9
 70
     1
102
RTVSPropertyOp10
 70
     1
102
RTVSPropertyOp11
 70
     1
102
RTVSPropertyOp12
 70
     1
102
RTVSPropertyOp13
 70
     1
102
RTVSPropertyOp14
 70
     1
102
RTVSPropertyOp15
 70
     1
102
RTVSPropertyOp16
 70
     1
102
RTVSPropertyOp17
 70
     1
102
RTVSPropertyOp18
 70
     1
102
RTVSPropertyOp19
 70
     1
102
RTVSPropertyOp20
 70
     1
102
RTVSPropertyOp21
 70
     1
102
RTVSPropertyOp22
 70
     1
102
RTVSPropertyOp23
 70
     1
102
RTVSPropertyOp24
 70
     1
102
RTVSPropertyOp25
 70
     1
102
RTVSPropertyOp26
 70
     1
102
RTVSPropertyOp27
 70
     1
102
RTVSPropertyOp28
 70
     1
102
RTVSPropertyOp29
 70
     1
102
RTVSPropertyOp30
 70
     1
102
RTVSPropertyOp31
 70
     1
102
RTVSPropertyOp32
 70
     1
  0
XRECORD
  5
17D
102
{ACAD_REACTORS
330
17C
102
}
330
17C
100
AcDbXrecord
280
     1
102
RTVSPropertyOp0
 70
     1
102
RTVSPropertyOp1
 70
     1
102
RTVSPropertyOp2
 70
     1
102
RTVSPropertyOp3
 70
     1
102
RTVSPropertyOp4
 70
     1
102
RTVSPropertyOp5
 70
     1
102
RTVSPropertyOp6
 70
     1
102
RTVSPropertyOp7
 70
     1
102
RTVSPropertyOp8
 70
     1
102
RTVSPropertyOp9
 70
     1
102
RTVSPropertyOp10
 70
     1
102
RTVSPropertyOp11
 70
     1
102
RTVSPropertyOp12
 70
     1
102
RTVSPropertyOp13
 70
     1
102
RTVSPropertyOp14
 70
     1
102
RTVSPropertyOp15
 70
     1
102
RTVSPropertyOp16
 70
     1
102
RTVSPropertyOp17
 70
     1
102
RTVSPropertyOp18
 70
     1
102
RTVSPropertyOp19
 70
     1
102
RTVSPropertyOp20
 70
     1
102
RTVSPropertyOp21
 70
     1
102
RTVSPropertyOp22
 70
     1
102
RTVSPropertyOp23
 70
     1
102
RTVSPropertyOp24
 70
     1
102
RTVSPropertyOp25
 70
     1
102
RTVSPropertyOp26
 70
     1
102
RTVSPropertyOp27
 70
     1
102
RTVSPropertyOp28
 70
     1
102
RTVSPropertyOp29
 70
     1
102
RTVSPropertyOp30
 70
     1
102
RTVSPropertyOp31
 70
     1
102
RTVSPropertyOp32
 70
     1
  0
XRECORD
  5
17B
102
{ACAD_REACTORS
330
17A
102
}
330
17A
100
AcDbXrecord
280
     1
102
RTVSPropertyOp0
 70
     1
102
RTVSPropertyOp1
 70
     1
102
RTVSPropertyOp2
 70
     1
102
RTVSPropertyOp3
 70
     1
102
RTVSPropertyOp4
 70
     1
102
RTVSPropertyOp5
 70
     1
102
RTVSPropertyOp6
 70
     1
102
RTVSPropertyOp7
 70
     1
102
RTVSPropertyOp8
 70
     1
102
RTVSPropertyOp9
 70
     1
102
RTVSPropertyOp10
 70
     1
102
RTVSPropertyOp11
 70
     1
102
RTVSPropertyOp12
 70
     1
102
RTVSPropertyOp13
 70
     1
102
RTVSPropertyOp14
 70
     1
102
RTVSPropertyOp15
 70
     1
102
RTVSPropertyOp16
 70
     1
102
RTVSPropertyOp17
 70
     1
102
RTVSPropertyOp18
 70
     1
102
RTVSPropertyOp19
 70
     1
102
RTVSPropertyOp20
 70
     1
102
RTVSPropertyOp21
 70
     1
102
RTVSPropertyOp22
 70
     1
102
RTVSPropertyOp23
 70
     1
102
RTVSPropertyOp24
 70
     1
102
RTVSPropertyOp25
 70
     1
102
RTVSPropertyOp26
 70
     1
102
RTVSPropertyOp27
 70
     1
102
RTVSPropertyOp28
 70
     1
102
RTVSPropertyOp29
 70
     1
102
RTVSPropertyOp30
 70
     1
102
RTVSPropertyOp31
 70
     1
102
RTVSPropertyOp32
 70
     1
  0
XRECORD
  5
17F
102
{ACAD_REACTORS
330
17E
102
}
330
17E
100
AcDbXrecord
280
     1
102
RTVSPropertyOp0
 70
     1
102
RTVSPropertyOp1
 70
     1
102
RTVSPropertyOp2
 70
     1
102
RTVSPropertyOp3
 70
     1
102
RTVSPropertyOp4
 70
     1
102
RTVSPropertyOp5
 70
     1
102
RTVSPropertyOp6
 70
     1
102
RTVSPropertyOp7
 70
     1
102
RTVSPropertyOp8
 70
     1
102
RTVSPropertyOp9
 70
     1
102
RTVSPropertyOp10
 70
     1
102
RTVSPropertyOp11
 70
     1
102
RTVSPropertyOp12
 70
     1
102
RTVSPropertyOp13
 70
     1
102
RTVSPropertyOp14
 70
     1
102
RTVSPropertyOp15
 70
     1
102
RTVSPropertyOp16
 70
     1
102
RTVSPropertyOp17
 70
     1
102
RTVSPropertyOp18
 70
     1
102
RTVSPropertyOp19
 70
     1
102
RTVSPropertyOp20
 70
     1
102
RTVSPropertyOp21
 70
     1
102
RTVSPropertyOp22
 70
     1
102
RTVSPropertyOp23
 70
     1
102
RTVSPropertyOp24
 70
     1
102
RTVSPropertyOp25
 70
     1
102
RTVSPropertyOp26
 70
     1
102
RTVSPropertyOp27
 70
     1
102
RTVSPropertyOp28
 70
     1
102
RTVSPropertyOp29
 70
     1
102
RTVSPropertyOp30
 70
     1
102
RTVSPropertyOp31
 70
     1
102
RTVSPropertyOp32
 70
     1
  0
XRECORD
  5
187
102
{ACAD_REACTORS
330
186
102
}
330
186
100
AcDbXrecord
280
     1
102
RTVSPropertyOp0
 70
     1
102
RTVSPropertyOp1
 70
     1
102
RTVSPropertyOp2
 70
     1
102
RTVSPropertyOp3
 70
     1
102
RTVSPropertyOp4
 70
     1
102
RTVSPropertyOp5
 70
     1
102
RTVSPropertyOp6
 70
     1
102
RTVSPropertyOp7
 70
     1
102
RTVSPropertyOp8
 70
     1
102
RTVSPropertyOp9
 70
     1
102
RTVSPropertyOp10
 70
     1
102
RTVSPropertyOp11
 70
     1
102
RTVSPropertyOp12
 70
     1
102
RTVSPropertyOp13
 70
     1
102
RTVSPropertyOp14
 70
     1
102
RTVSPropertyOp15
 70
     1
102
RTVSPropertyOp16
 70
     1
102
RTVSPropertyOp17
 70
     1
102
RTVSPropertyOp18
 70
     1
102
RTVSPropertyOp19
 70
     1
102
RTVSPropertyOp20
 70
     1
102
RTVSPropertyOp21
 70
     1
102
RTVSPropertyOp22
 70
     1
102
RTVSPropertyOp23
 70
     1
102
RTVSPropertyOp24
 70
     1
102
RTVSPropertyOp25
 70
     1
102
RTVSPropertyOp26
 70
     1
102
RTVSPropertyOp27
 70
     1
102
RTVSPropertyOp28
 70
     1
102
RTVSPropertyOp29
 70
     1
102
RTVSPropertyOp30
 70
     1
102
RTVSPropertyOp31
 70
     1
102
RTVSPropertyOp32
 70
     1
  0
XRECORD
  5
18F
102
{ACAD_REACTORS
330
18E
102
}
330
18E
100
AcDbXrecord
280
     1
102
RTVSPropertyOp0
 70
     1
102
RTVSPropertyOp1
 70
     1
102
RTVSPropertyOp2
 70
     1
102
RTVSPropertyOp3
 70
     1
102
RTVSPropertyOp4
 70
     1
102
RTVSPropertyOp5
 70
     1
102
RTVSPropertyOp6
 70
     1
102
RTVSPropertyOp7
 70
     1
102
RTVSPropertyOp8
 70
     1
102
RTVSPropertyOp9
 70
     1
102
RTVSPropertyOp10
 70
     1
102
RTVSPropertyOp11
 70
     1
102
RTVSPropertyOp12
 70
     1
102
RTVSPropertyOp13
 70
     1
102
RTVSPropertyOp14
 70
     1
102
RTVSPropertyOp15
 70
     1
102
RTVSPropertyOp16
 70
     1
102
RTVSPropertyOp17
 70
     1
102
RTVSPropertyOp18
 70
     1
102
RTVSPropertyOp19
 70
     1
102
RTVSPropertyOp20
 70
     1
102
RTVSPropertyOp21
 70
     1
102
RTVSPropertyOp22
 70
     1
102
RTVSPropertyOp23
 70
     1
102
RTVSPropertyOp24
 70
     1
102
RTVSPropertyOp25
 70
     1
102
RTVSPropertyOp26
 70
     1
102
RTVSPropertyOp27
 70
     1
102
RTVSPropertyOp28
 70
     1
102
RTVSPropertyOp29
 70
     1
102
RTVSPropertyOp30
 70
     1
102
RTVSPropertyOp31
 70
     1
102
RTVSPropertyOp32
 70
     1
  0
XRECORD
  5
183
102
{ACAD_REACTORS
330
182
102
}
330
182
100
AcDbXrecord
280
     1
102
RTVSPropertyOp0
 70
     1
102
RTVSPropertyOp1
 70
     1
102
RTVSPropertyOp2
 70
     1
102
RTVSPropertyOp3
 70
     1
102
RTVSPropertyOp4
 70
     1
102
RTVSPropertyOp5
 70
     1
102
RTVSPropertyOp6
 70
     1
102
RTVSPropertyOp7
 70
     1
102
RTVSPropertyOp8
 70
     1
102
RTVSPropertyOp9
 70
     1
102
RTVSPropertyOp10
 70
     1
102
RTVSPropertyOp11
 70
     1
102
RTVSPropertyOp12
 70
     1
102
RTVSPropertyOp13
 70
     1
102
RTVSPropertyOp14
 70
     1
102
RTVSPropertyOp15
 70
     1
102
RTVSPropertyOp16
 70
     1
102
RTVSPropertyOp17
 70
     1
102
RTVSPropertyOp18
 70
     1
102
RTVSPropertyOp19
 70
     1
102
RTVSPropertyOp20
 70
     1
102
RTVSPropertyOp21
 70
     1
102
RTVSPropertyOp22
 70
     1
102
RTVSPropertyOp23
 70
     1
102
RTVSPropertyOp24
 70
     1
102
RTVSPropertyOp25
 70
     1
102
RTVSPropertyOp26
 70
     1
102
RTVSPropertyOp27
 70
     1
102
RTVSPropertyOp28
 70
     1
102
RTVSPropertyOp29
 70
     1
102
RTVSPropertyOp30
 70
     1
102
RTVSPropertyOp31
 70
     1
102
RTVSPropertyOp32
 70
     1
  0
XRECORD
  5
185
102
{ACAD_REACTORS
330
184
102
}
330
184
100
AcDbXrecord
280
     1
102
RTVSPropertyOp0
 70
     1
102
RTVSPropertyOp1
 70
     1
102
RTVSPropertyOp2
 70
     1
102
RTVSPropertyOp3
 70
     1
102
RTVSPropertyOp4
 70
     1
102
RTVSPropertyOp5
 70
     1
102
RTVSPropertyOp6
 70
     1
102
RTVSPropertyOp7
 70
     1
102
RTVSPropertyOp8
 70
     1
102
RTVSPropertyOp9
 70
     1
102
RTVSPropertyOp10
 70
     1
102
RTVSPropertyOp11
 70
     1
102
RTVSPropertyOp12
 70
     1
102
RTVSPropertyOp13
 70
     1
102
RTVSPropertyOp14
 70
     1
102
RTVSPropertyOp15
 70
     1
102
RTVSPropertyOp16
 70
     1
102
RTVSPropertyOp17
 70
     1
102
RTVSPropertyOp18
 70
     1
102
RTVSPropertyOp19
 70
     1
102
RTVSPropertyOp20
 70
     1
102
RTVSPropertyOp21
 70
     1
102
RTVSPropertyOp22
 70
     1
102
RTVSPropertyOp23
 70
     1
102
RTVSPropertyOp24
 70
     1
102
RTVSPropertyOp25
 70
     1
102
RTVSPropertyOp26
 70
     1
102
RTVSPropertyOp27
 70
     1
102
RTVSPropertyOp28
 70
     1
102
RTVSPropertyOp29
 70
     1
102
RTVSPropertyOp30
 70
     1
102
RTVSPropertyOp31
 70
     1
102
RTVSPropertyOp32
 70
     1
  0
XRECORD
  5
18D
102
{ACAD_REACTORS
330
18C
102
}
330
18C
100
AcDbXrecord
280
     1
102
RTVSPropertyOp0
 70
     1
102
RTVSPropertyOp1
 70
     1
102
RTVSPropertyOp2
 70
     1
102
RTVSPropertyOp3
 70
     1
102
RTVSPropertyOp4
 70
     1
102
RTVSPropertyOp5
 70
     1
102
RTVSPropertyOp6
 70
     1
102
RTVSPropertyOp7
 70
     1
102
RTVSPropertyOp8
 70
     1
102
RTVSPropertyOp9
 70
     1
102
RTVSPropertyOp10
 70
     1
102
RTVSPropertyOp11
 70
     1
102
RTVSPropertyOp12
 70
     1
102
RTVSPropertyOp13
 70
     1
102
RTVSPropertyOp14
 70
     1
102
RTVSPropertyOp15
 70
     1
102
RTVSPropertyOp16
 70
     1
102
RTVSPropertyOp17
 70
     1
102
RTVSPropertyOp18
 70
     1
102
RTVSPropertyOp19
 70
     1
102
RTVSPropertyOp20
 70
     1
102
RTVSPropertyOp21
 70
     1
102
RTVSPropertyOp22
 70
     1
102
RTVSPropertyOp23
 70
     1
102
RTVSPropertyOp24
 70
     1
102
RTVSPropertyOp25
 70
     1
102
RTVSPropertyOp26
 70
     1
102
RTVSPropertyOp27
 70
     1
102
RTVSPropertyOp28
 70
     1
102
RTVSPropertyOp29
 70
     1
102
RTVSPropertyOp30
 70
     1
102
RTVSPropertyOp31
 70
     1
102
RTVSPropertyOp32
 70
     1
  0
XRECORD
  5
171
102
{ACAD_REACTORS
330
170
102
}
330
170
100
AcDbXrecord
280
     1
102
RTVSPropertyOp0
 70
     1
102
RTVSPropertyOp1
 70
     1
102
RTVSPropertyOp2
 70
     1
102
RTVSPropertyOp3
 70
     1
102
RTVSPropertyOp4
 70
     1
102
RTVSPropertyOp5
 70
     1
102
RTVSPropertyOp6
 70
     1
102
RTVSPropertyOp7
 70
     1
102
RTVSPropertyOp8
 70
     1
102
RTVSPropertyOp9
 70
     1
102
RTVSPropertyOp10
 70
     1
102
RTVSPropertyOp11
 70
     1
102
RTVSPropertyOp12
 70
     1
102
RTVSPropertyOp13
 70
     1
102
RTVSPropertyOp14
 70
     1
102
RTVSPropertyOp15
 70
     1
102
RTVSPropertyOp16
 70
     1
102
RTVSPropertyOp17
 70
     1
102
RTVSPropertyOp18
 70
     1
102
RTVSPropertyOp19
 70
     1
102
RTVSPropertyOp20
 70
     1
102
RTVSPropertyOp21
 70
     1
102
RTVSPropertyOp22
 70
     1
102
RTVSPropertyOp23
 70
     1
102
RTVSPropertyOp24
 70
     1
102
RTVSPropertyOp25
 70
     1
102
RTVSPropertyOp26
 70
     1
102
RTVSPropertyOp27
 70
     1
102
RTVSPropertyOp28
 70
     1
102
RTVSPropertyOp29
 70
     1
102
RTVSPropertyOp30
 70
     1
102
RTVSPropertyOp31
 70
     1
102
RTVSPropertyOp32
 70
     1
  0
XRECORD
  5
173
102
{ACAD_REACTORS
330
172
102
}
330
172
100
AcDbXrecord
280
     1
102
RTVSPropertyOp0
 70
     1
102
RTVSPropertyOp1
 70
     1
102
RTVSPropertyOp2
 70
     1
102
RTVSPropertyOp3
 70
     1
102
RTVSPropertyOp4
 70
     1
102
RTVSPropertyOp5
 70
     1
102
RTVSPropertyOp6
 70
     1
102
RTVSPropertyOp7
 70
     1
102
RTVSPropertyOp8
 70
     1
102
RTVSPropertyOp9
 70
     1
102
RTVSPropertyOp10
 70
     1
102
RTVSPropertyOp11
 70
     1
102
RTVSPropertyOp12
 70
     1
102
RTVSPropertyOp13
 70
     1
102
RTVSPropertyOp14
 70
     1
102
RTVSPropertyOp15
 70
     1
102
RTVSPropertyOp16
 70
     1
102
RTVSPropertyOp17
 70
     1
102
RTVSPropertyOp18
 70
     1
102
RTVSPropertyOp19
 70
     1
102
RTVSPropertyOp20
 70
     1
102
RTVSPropertyOp21
 70
     1
102
RTVSPropertyOp22
 70
     1
102
RTVSPropertyOp23
 70
     1
102
RTVSPropertyOp24
 70
     1
102
RTVSPropertyOp25
 70
     1
102
RTVSPropertyOp26
 70
     1
102
RTVSPropertyOp27
 70
     1
102
RTVSPropertyOp28
 70
     1
102
RTVSPropertyOp29
 70
     1
102
RTVSPropertyOp30
 70
     1
102
RTVSPropertyOp31
 70
     1
102
RTVSPropertyOp32
 70
     1
  0
XRECORD
  5
175
102
{ACAD_REACTORS
330
174
102
}
330
174
100
AcDbXrecord
280
     1
102
RTVSPropertyOp0
 70
     1
102
RTVSPropertyOp1
 70
     1
102
RTVSPropertyOp2
 70
     1
102
RTVSPropertyOp3
 70
     1
102
RTVSPropertyOp4
 70
     1
102
RTVSPropertyOp5
 70
     1
102
RTVSPropertyOp6
 70
     1
102
RTVSPropertyOp7
 70
     1
102
RTVSPropertyOp8
 70
     1
102
RTVSPropertyOp9
 70
     1
102
RTVSPropertyOp10
 70
     1
102
RTVSPropertyOp11
 70
     1
102
RTVSPropertyOp12
 70
     1
102
RTVSPropertyOp13
 70
     1
102
RTVSPropertyOp14
 70
     1
102
RTVSPropertyOp15
 70
     1
102
RTVSPropertyOp16
 70
     1
102
RTVSPropertyOp17
 70
     1
102
RTVSPropertyOp18
 70
     1
102
RTVSPropertyOp19
 70
     1
102
RTVSPropertyOp20
 70
     1
102
RTVSPropertyOp21
 70
     1
102
RTVSPropertyOp22
 70
     1
102
RTVSPropertyOp23
 70
     1
102
RTVSPropertyOp24
 70
     1
102
RTVSPropertyOp25
 70
     1
102
RTVSPropertyOp26
 70
     1
102
RTVSPropertyOp27
 70
     1
102
RTVSPropertyOp28
 70
     1
102
RTVSPropertyOp29
 70
     1
102
RTVSPropertyOp30
 70
     1
102
RTVSPropertyOp31
 70
     1
102
RTVSPropertyOp32
 70
     1
  0
XRECORD
  5
177
102
{ACAD_REACTORS
330
176
102
}
330
176
100
AcDbXrecord
280
     1
102
RTVSPropertyOp0
 70
     1
102
RTVSPropertyOp1
 70
     1
102
RTVSPropertyOp2
 70
     1
102
RTVSPropertyOp3
 70
     1
102
RTVSPropertyOp4
 70
     1
102
RTVSPropertyOp5
 70
     1
102
RTVSPropertyOp6
 70
     1
102
RTVSPropertyOp7
 70
     1
102
RTVSPropertyOp8
 70
     1
102
RTVSPropertyOp9
 70
     1
102
RTVSPropertyOp10
 70
     1
102
RTVSPropertyOp11
 70
     1
102
RTVSPropertyOp12
 70
     1
102
RTVSPropertyOp13
 70
     1
102
RTVSPropertyOp14
 70
     1
102
RTVSPropertyOp15
 70
     1
102
RTVSPropertyOp16
 70
     1
102
RTVSPropertyOp17
 70
     1
102
RTVSPropertyOp18
 70
     1
102
RTVSPropertyOp19
 70
     1
102
RTVSPropertyOp20
 70
     1
102
RTVSPropertyOp21
 70
     1
102
RTVSPropertyOp22
 70
     1
102
RTVSPropertyOp23
 70
     1
102
RTVSPropertyOp24
 70
     1
102
RTVSPropertyOp25
 70
     1
102
RTVSPropertyOp26
 70
     1
102
RTVSPropertyOp27
 70
     1
102
RTVSPropertyOp28
 70
     1
102
RTVSPropertyOp29
 70
     1
102
RTVSPropertyOp30
 70
     1
102
RTVSPropertyOp31
 70
     1
102
RTVSPropertyOp32
 70
     1
  0
XRECORD
  5
18B
102
{ACAD_REACTORS
330
18A
102
}
330
18A
100
AcDbXrecord
280
     1
102
RTVSPropertyOp0
 70
     1
102
RTVSPropertyOp1
 70
     1
102
RTVSPropertyOp2
 70
     1
102
RTVSPropertyOp3
 70
     1
102
RTVSPropertyOp4
 70
     1
102
RTVSPropertyOp5
 70
     1
102
RTVSPropertyOp6
 70
     1
102
RTVSPropertyOp7
 70
     1
102
RTVSPropertyOp8
 70
     1
102
RTVSPropertyOp9
 70
     1
102
RTVSPropertyOp10
 70
     1
102
RTVSPropertyOp11
 70
     1
102
RTVSPropertyOp12
 70
     1
102
RTVSPropertyOp13
 70
     1
102
RTVSPropertyOp14
 70
     1
102
RTVSPropertyOp15
 70
     1
102
RTVSPropertyOp16
 70
     1
102
RTVSPropertyOp17
 70
     1
102
RTVSPropertyOp18
 70
     1
102
RTVSPropertyOp19
 70
     1
102
RTVSPropertyOp20
 70
     1
102
RTVSPropertyOp21
 70
     1
102
RTVSPropertyOp22
 70
     1
102
RTVSPropertyOp23
 70
     1
102
RTVSPropertyOp24
 70
     1
102
RTVSPropertyOp25
 70
     1
102
RTVSPropertyOp26
 70
     1
102
RTVSPropertyOp27
 70
     1
102
RTVSPropertyOp28
 70
     1
102
RTVSPropertyOp29
 70
     1
102
RTVSPropertyOp30
 70
     1
102
RTVSPropertyOp31
 70
     1
102
RTVSPropertyOp32
 70
     1
  0
XRECORD
  5
181
102
{ACAD_REACTORS
330
180
102
}
330
180
100
AcDbXrecord
280
     1
102
RTVSPropertyOp0
 70
     1
102
RTVSPropertyOp1
 70
     1
102
RTVSPropertyOp2
 70
     1
102
RTVSPropertyOp3
 70
     1
102
RTVSPropertyOp4
 70
     1
102
RTVSPropertyOp5
 70
     1
102
RTVSPropertyOp6
 70
     1
102
RTVSPropertyOp7
 70
     1
102
RTVSPropertyOp8
 70
     1
102
RTVSPropertyOp9
 70
     1
102
RTVSPropertyOp10
 70
     1
102
RTVSPropertyOp11
 70
     1
102
RTVSPropertyOp12
 70
     1
102
RTVSPropertyOp13
 70
     1
102
RTVSPropertyOp14
 70
     1
102
RTVSPropertyOp15
 70
     1
102
RTVSPropertyOp16
 70
     1
102
RTVSPropertyOp17
 70
     1
102
RTVSPropertyOp18
 70
     1
102
RTVSPropertyOp19
 70
     1
102
RTVSPropertyOp20
 70
     1
102
RTVSPropertyOp21
 70
     1
102
RTVSPropertyOp22
 70
     1
102
RTVSPropertyOp23
 70
     1
102
RTVSPropertyOp24
 70
     1
102
RTVSPropertyOp25
 70
     1
102
RTVSPropertyOp26
 70
     1
102
RTVSPropertyOp27
 70
     1
102
RTVSPropertyOp28
 70
     1
102
RTVSPropertyOp29
 70
     1
102
RTVSPropertyOp30
 70
     1
102
RTVSPropertyOp31
 70
     1
102
RTVSPropertyOp32
 70
     1
  0
XRECORD
  5
189
102
{ACAD_REACTORS
330
188
102
}
330
188
100
AcDbXrecord
280
     1
102
RTVSPropertyOp0
 70
     1
102
RTVSPropertyOp1
 70
     1
102
RTVSPropertyOp2
 70
     1
102
RTVSPropertyOp3
 70
     1
102
RTVSPropertyOp4
 70
     1
102
RTVSPropertyOp5
 70
     1
102
RTVSPropertyOp6
 70
     1
102
RTVSPropertyOp7
 70
     1
102
RTVSPropertyOp8
 70
     1
102
RTVSPropertyOp9
 70
     1
102
RTVSPropertyOp10
 70
     1
102
RTVSPropertyOp11
 70
     1
102
RTVSPropertyOp12
 70
     1
102
RTVSPropertyOp13
 70
     1
102
RTVSPropertyOp14
 70
     1
102
RTVSPropertyOp15
 70
     1
102
RTVSPropertyOp16
 70
     1
102
RTVSPropertyOp17
 70
     1
102
RTVSPropertyOp18
 70
     1
102
RTVSPropertyOp19
 70
     1
102
RTVSPropertyOp20
 70
     1
102
RTVSPropertyOp21
 70
     1
102
RTVSPropertyOp22
 70
     1
102
RTVSPropertyOp23
 70
     1
102
RTVSPropertyOp24
 70
     1
102
RTVSPropertyOp25
 70
     1
102
RTVSPropertyOp26
 70
     1
102
RTVSPropertyOp27
 70
     1
102
RTVSPropertyOp28
 70
     1
102
RTVSPropertyOp29
 70
     1
102
RTVSPropertyOp30
 70
     1
102
RTVSPropertyOp31
 70
     1
102
RTVSPropertyOp32
 70
     1
  0
ENDSEC
  0
EOF
