  0
SECTION
  2
HEADER
  9
$ACADVER
  1
AC1015
  9
$ACADMAINTVER
 70
     6
  9
$DWGCODEPAGE
  3
ANSI_1252
  9
$INSBASE
 10
0.0
 20
0.0
 30
0.0
  9
$EXTMIN
 10
-2362.348844895121
 20
283.4380667672668
 30
0.0
  9
$EXTMAX
 10
-1837.348844895121
 20
1025.938066767267
 30
0.0
  9
$LIMMIN
 10
0.0
 20
0.0
  9
$LIMMAX
 10
12.0
 20
9.0
  9
$ORTHOMODE
 70
     0
  9
$REGENMODE
 70
     1
  9
$FILLMODE
 70
     1
  9
$QTEXTMODE
 70
     0
  9
$MIRRTEXT
 70
     1
  9
$LTSCALE
 40
1.0
  9
$ATTMODE
 70
     1
  9
$TEXTSIZE
 40
0.2
  9
$TRACEWID
 40
0.05
  9
$TEXTSTYLE
  7
Standard
  9
$CLAYER
  8
0
  9
$CELTYPE
  6
ByLayer
  9
$CECOLOR
 62
   256
  9
$CELTSCALE
 40
1.0
  9
$DISPSILH
 70
     0
  9
$DIMSCALE
 40
1.0
  9
$DIMASZ
 40
0.18
  9
$DIMEXO
 40
0.0625
  9
$DIMDLI
 40
0.38
  9
$DIMRND
 40
0.0
  9
$DIMDLE
 40
0.0
  9
$DIMEXE
 40
0.18
  9
$DIMTP
 40
0.0
  9
$DIMTM
 40
0.0
  9
$DIMTXT
 40
0.18
  9
$DIMCEN
 40
0.09
  9
$DIMTSZ
 40
0.0
  9
$DIMTOL
 70
     0
  9
$DIMLIM
 70
     0
  9
$DIMTIH
 70
     1
  9
$DIMTOH
 70
     1
  9
$DIMSE1
 70
     0
  9
$DIMSE2
 70
     0
  9
$DIMTAD
 70
     0
  9
$DIMZIN
 70
     0
  9
$DIMBLK
  1

  9
$DIMASO
 70
     1
  9
$DIMSHO
 70
     1
  9
$DIMPOST
  1

  9
$DIMAPOST
  1

  9
$DIMALT
 70
     0
  9
$DIMALTD
 70
     2
  9
$DIMALTF
 40
25.4
  9
$DIMLFAC
 40
1.0
  9
$DIMTOFL
 70
     0
  9
$DIMTVP
 40
0.0
  9
$DIMTIX
 70
     0
  9
$DIMSOXD
 70
     0
  9
$DIMSAH
 70
     0
  9
$DIMBLK1
  1

  9
$DIMBLK2
  1

  9
$DIMSTYLE
  2
Standard
  9
$DIMCLRD
 70
     0
  9
$DIMCLRE
 70
     0
  9
$DIMCLRT
 70
     0
  9
$DIMTFAC
 40
1.0
  9
$DIMGAP
 40
0.09
  9
$DIMJUST
 70
     0
  9
$DIMSD1
 70
     0
  9
$DIMSD2
 70
     0
  9
$DIMTOLJ
 70
     1
  9
$DIMTZIN
 70
     0
  9
$DIMALTZ
 70
     0
  9
$DIMALTTZ
 70
     0
  9
$DIMUPT
 70
     0
  9
$DIMDEC
 70
     4
  9
$DIMTDEC
 70
     4
  9
$DIMALTU
 70
     2
  9
$DIMALTTD
 70
     2
  9
$DIMTXSTY
  7
Standard
  9
$DIMAUNIT
 70
     0
  9
$DIMADEC
 70
     0
  9
$DIMALTRND
 40
0.0
  9
$DIMAZIN
 70
     0
  9
$DIMDSEP
 70
    46
  9
$DIMATFIT
 70
     3
  9
$DIMFRAC
 70
     0
  9
$DIMLDRBLK
  1

  9
$DIMLUNIT
 70
     2
  9
$DIMLWD
 70
    -2
  9
$DIMLWE
 70
    -2
  9
$DIMTMOVE
 70
     0
  9
$LUNITS
 70
     2
  9
$LUPREC
 70
     4
  9
$SKETCHINC
 40
0.1
  9
$FILLETRAD
 40
0.5
  9
$AUNITS
 70
     0
  9
$AUPREC
 70
     0
  9
$MENU
  1
.
  9
$ELEVATION
 40
0.0
  9
$PELEVATION
 40
0.0
  9
$THICKNESS
 40
0.0
  9
$LIMCHECK
 70
     0
  9
$CHAMFERA
 40
0.5
  9
$CHAMFERB
 40
0.5
  9
$CHAMFERC
 40
1.0
  9
$CHAMFERD
 40
0.0
  9
$SKPOLY
 70
     0
  9
$TDCREATE
 40
2455001.409991586
  9
$TDUCREATE
 40
2455001.326658252
  9
$TDUPDATE
 40
2455001.409991597
  9
$TDUUPDATE
 40
2455001.326658264
  9
$TDINDWG
 40
0.0000000116
  9
$TDUSRTIMER
 40
0.0000000116
  9
$USRTIMER
 70
     1
  9
$ANGBASE
 50
0.0
  9
$ANGDIR
 70
     0
  9
$PDMODE
 70
     0
  9
$PDSIZE
 40
0.0
  9
$PLINEWID
 40
0.0
  9
$SPLFRAME
 70
     0
  9
$SPLINETYPE
 70
     6
  9
$SPLINESEGS
 70
     8
  9
$HANDSEED
  5
19C
  9
$SURFTAB1
 70
     6
  9
$SURFTAB2
 70
     6
  9
$SURFTYPE
 70
     6
  9
$SURFU
 70
     6
  9
$SURFV
 70
     6
  9
$UCSBASE
  2

  9
$UCSNAME
  2

  9
$UCSORG
 10
0.0
 20
0.0
 30
0.0
  9
$UCSXDIR
 10
1.0
 20
0.0
 30
0.0
  9
$UCSYDIR
 10
0.0
 20
1.0
 30
0.0
  9
$UCSORTHOREF
  2

  9
$UCSORTHOVIEW
 70
     0
  9
$UCSORGTOP
 10
0.0
 20
0.0
 30
0.0
  9
$UCSORGBOTTOM
 10
0.0
 20
0.0
 30
0.0
  9
$UCSORGLEFT
 10
0.0
 20
0.0
 30
0.0
  9
$UCSORGRIGHT
 10
0.0
 20
0.0
 30
0.0
  9
$UCSORGFRONT
 10
0.0
 20
0.0
 30
0.0
  9
$UCSORGBACK
 10
0.0
 20
0.0
 30
0.0
  9
$PUCSBASE
  2

  9
$PUCSNAME
  2

  9
$PUCSORG
 10
0.0
 20
0.0
 30
0.0
  9
$PUCSXDIR
 10
1.0
 20
0.0
 30
0.0
  9
$PUCSYDIR
 10
0.0
 20
1.0
 30
0.0
  9
$PUCSORTHOREF
  2

  9
$PUCSORTHOVIEW
 70
     0
  9
$PUCSORGTOP
 10
0.0
 20
0.0
 30
0.0
  9
$PUCSORGBOTTOM
 10
0.0
 20
0.0
 30
0.0
  9
$PUCSORGLEFT
 10
0.0
 20
0.0
 30
0.0
  9
$PUCSORGRIGHT
 10
0.0
 20
0.0
 30
0.0
  9
$PUCSORGFRONT
 10
0.0
 20
0.0
 30
0.0
  9
$PUCSORGBACK
 10
0.0
 20
0.0
 30
0.0
  9
$USERI1
 70
     0
  9
$USERI2
 70
     0
  9
$USERI3
 70
     0
  9
$USERI4
 70
     0
  9
$USERI5
 70
     0
  9
$USERR1
 40
16.0
  9
$USERR2
 40
0.0
  9
$USERR3
 40
0.0
  9
$USERR4
 40
0.0
  9
$USERR5
 40
0.0
  9
$WORLDVIEW
 70
     1
  9
$SHADEDGE
 70
     3
  9
$SHADEDIF
 70
    70
  9
$TILEMODE
 70
     1
  9
$MAXACTVP
 70
    64
  9
$PINSBASE
 10
0.0
 20
0.0
 30
0.0
  9
$PLIMCHECK
 70
     0
  9
$PEXTMIN
 10
1.00000000000000E+20
 20
1.00000000000000E+20
 30
1.00000000000000E+20
  9
$PEXTMAX
 10
-1.00000000000000E+20
 20
-1.00000000000000E+20
 30
-1.00000000000000E+20
  9
$PLIMMIN
 10
0.0
 20
0.0
  9
$PLIMMAX
 10
12.0
 20
9.0
  9
$UNITMODE
 70
     0
  9
$VISRETAIN
 70
     1
  9
$PLINEGEN
 70
     0
  9
$PSLTSCALE
 70
     1
  9
$TREEDEPTH
 70
  3020
  9
$CMLSTYLE
  2
Standard
  9
$CMLJUST
 70
     0
  9
$CMLSCALE
 40
1.0
  9
$PROXYGRAPHICS
 70
     1
  9
$MEASUREMENT
 70
     1
  9
$CELWEIGHT
370
    -1
  9
$ENDCAPS
280
     0
  9
$JOINSTYLE
280
     0
  9
$LWDISPLAY
290
     0
  9
$INSUNITS
 70
     1
  9
$HYPERLINKBASE
  1

  9
$STYLESHEET
  1

  9
$XEDIT
290
     1
  9
$CEPSNTYPE
380
     0
  9
$PSTYLEMODE
290
     1
  9
$FINGERPRINTGUID
  2
{35C75ACB-243D-4D65-9B09-D25FFAEDE8FC}
  9
$VERSIONGUID
  2
{FAEB1C32-E019-11D5-929B-00C0DF256EC4}
  9
$EXTNAMES
290
     1
  9
$PSVPSCALE
 40
0.0
  9
$OLESTARTUP
290
     0
  0
ENDSEC
  0
SECTION
  2
CLASSES
  0
CLASS
  1
ACDBDICTIONARYWDFLT
  2
AcDbDictionaryWithDefault
  3
ObjectDBX Classes
 90
        0
280
     0
281
     0
  0
CLASS
  1
VISUALSTYLE
  2
AcDbVisualStyle
  3
ObjectDBX Classes
 90
     4095
280
     0
281
     0
  0
CLASS
  1

  2
exOdDbCircle
  3

 90
        0
280
     0
281
     1
  0
CLASS
  1

  2
exOdDbSpline
  3

 90
        0
280
     0
281
     1
  0
CLASS
  1
ACDBPLACEHOLDER
  2
AcDbPlaceHolder
  3
ObjectDBX Classes
 90
        0
280
     0
281
     0
  0
CLASS
  1
LAYOUT
  2
AcDbLayout
  3
ObjectDBX Classes
 90
        0
280
     0
281
     0
  0
ENDSEC
  0
SECTION
  2
TABLES
  0
TABLE
  2
VPORT
  5
8
330
0
100
AcDbSymbolTable
 70
     1
  0
VPORT
  5
29
330
8
100
AcDbSymbolTableRecord
100
AcDbViewportTableRecord
  2
*Active
 70
     0
 10
0.0
 20
0.0
 11
1.0
 21
1.0
 12
-2099.848844895121
 22
654.6880667672668
 13
0.0
 23
0.0
 14
0.5
 24
0.5
 15
0.5
 25
0.5
 16
0.0
 26
0.0
 36
1.0
 17
0.0
 27
0.0
 37
0.0
 40
816.7500000000003
 41
1.60267857142857
 42
50.0
 43
0.0
 44
0.0
 50
0.0
 51
0.0
 71
     0
 72
   100
 73
     1
 74
     3
 75
     0
 76
     0
 77
     0
 78
     0
281
     0
 65
     1
110
0.0
120
0.0
130
0.0
111
1.0
121
0.0
131
0.0
112
0.0
122
1.0
132
0.0
 79
     0
146
0.0
  0
ENDTAB
  0
TABLE
  2
LTYPE
  5
5
330
0
100
AcDbSymbolTable
 70
     8
  0
LTYPE
  5
14
330
5
100
AcDbSymbolTableRecord
100
AcDbLinetypeTableRecord
  2
ByBlock
 70
     0
  3

 72
    65
 73
     0
 40
0.0
  0
LTYPE
  5
15
330
5
100
AcDbSymbolTableRecord
100
AcDbLinetypeTableRecord
  2
ByLayer
 70
     0
  3

 72
    65
 73
     0
 40
0.0
  0
LTYPE
  5
16
330
5
100
AcDbSymbolTableRecord
100
AcDbLinetypeTableRecord
  2
Continuous
 70
     0
  3
Solid line
 72
    65
 73
     0
 40
0.0
  0
LTYPE
  5
3B
330
5
100
AcDbSymbolTableRecord
100
AcDbLinetypeTableRecord
  2
DASHED
 70
     0
  3
Dashed
 72
    65
 73
     2
 40
15.0
 49
7.0
 74
     0
 49
-8.0
 74
     0
  0
LTYPE
  5
3C
330
5
100
AcDbSymbolTableRecord
100
AcDbLinetypeTableRecord
  2
DOTTED
 70
     0
  3
Dotted
 72
    65
 73
     2
 40
1.0
 49
0.0
 74
     0
 49
-1.0
 74
     0
  0
LTYPE
  5
3D
330
5
100
AcDbSymbolTableRecord
100
AcDbLinetypeTableRecord
  2
DOT_CENTER
 70
     0
  3
Dot_Center
 72
    65
 73
     4
 40
14.0
 49
12.0
 74
     0
 49
-1.0
 74
     0
 49
0.0
 74
     0
 49
-1.0
 74
     0
  0
LTYPE
  5
3E
330
5
100
AcDbSymbolTableRecord
100
AcDbLinetypeTableRecord
  2
LONG_DASHED
 70
     0
  3
Long_Dashed
 72
    65
 73
     2
 40
15.0
 49
10.0
 74
     0
 49
-5.0
 74
     0
  0
LTYPE
  5
3F
330
5
100
AcDbSymbolTableRecord
100
AcDbLinetypeTableRecord
  2
DASH_CENTER
 70
     0
  3
Dash_Center
 72
    65
 73
     4
 40
14.0
 49
11.0
 74
     0
 49
-1.0
 74
     0
 49
1.0
 74
     0
 49
-1.0
 74
     0
  0
LTYPE
  5
40
330
5
100
AcDbSymbolTableRecord
100
AcDbLinetypeTableRecord
  2
PHANTOM
 70
     0
  3
Phantom
 72
    65
 73
     6
 40
13.0
 49
10.0
 74
     0
 49
-1.0
 74
     0
 49
0.0
 74
     0
 49
-1.0
 74
     0
 49
0.0
 74
     0
 49
-1.0
 74
     0
  0
LTYPE
  5
41
330
5
100
AcDbSymbolTableRecord
100
AcDbLinetypeTableRecord
  2
CENTER_DASH_DASH
 70
     0
  3
Center_Dash_Dash
 72
    65
 73
     6
 40
14.0
 49
9.0
 74
     0
 49
-1.0
 74
     0
 49
1.0
 74
     0
 49
-1.0
 74
     0
 49
1.0
 74
     0
 49
-1.0
 74
     0
  0
ENDTAB
  0
TABLE
  2
LAYER
  5
2
330
0
100
AcDbSymbolTable
 70
     2
  0
LAYER
  5
10
330
2
100
AcDbSymbolTableRecord
100
AcDbLayerTableRecord
  2
0
 70
     0
 62
     7
  6
Continuous
370
    -3
390
F
  0
LAYER
  5
42
330
2
100
AcDbSymbolTableRecord
100
AcDbLayerTableRecord
  2
1
 70
     0
 62
     7
  6
Continuous
370
    -3
390
F
  0
ENDTAB
  0
TABLE
  2
STYLE
  5
3
330
0
100
AcDbSymbolTable
 70
     3
  0
STYLE
  5
11
330
3
100
AcDbSymbolTableRecord
100
AcDbTextStyleTableRecord
  2
Standard
 70
     0
 40
0.0
 41
1.0
 50
0.0
 71
     0
 42
0.2
  3
txt
  4

  0
STYLE
  5
96
330
3
100
AcDbSymbolTableRecord
100
AcDbTextStyleTableRecord
  2
CONVERTER_11
 70
     0
 40
0.0
 41
0.75
 50
0.0
 71
     0
 42
0.2
  3
ARIAL.TTF
  4

  0
STYLE
  5
15B
330
3
100
AcDbSymbolTableRecord
100
AcDbTextStyleTableRecord
  2
CONVERTER_12
 70
     0
 40
0.0
 41
0.95
 50
0.0
 71
     0
 42
0.2
  3
simplex.shx
  4

  0
ENDTAB
  0
TABLE
  2
VIEW
  5
6
330
0
100
AcDbSymbolTable
 70
     0
  0
ENDTAB
  0
TABLE
  2
UCS
  5
7
330
0
100
AcDbSymbolTable
 70
     0
  0
ENDTAB
  0
TABLE
  2
APPID
  5
9
330
0
100
AcDbSymbolTable
 70
     1
  0
APPID
  5
12
330
9
100
AcDbSymbolTableRecord
100
AcDbRegAppTableRecord
  2
ACAD
 70
     0
  0
ENDTAB
  0
TABLE
  2
DIMSTYLE
  5
A
330
0
100
AcDbSymbolTable
 70
     7
100
AcDbDimStyleTable
  0
DIMSTYLE
105
27
330
A
100
AcDbSymbolTableRecord
100
AcDbDimStyleTableRecord
  2
Standard
 70
     0
340
11
  0
DIMSTYLE
105
15F
102
{ACAD_REACTORS
330
160
102
}
330
A
100
AcDbSymbolTableRecord
100
AcDbDimStyleTableRecord
  2
ME10_DIM_10
 70
     0
 41
7.5
 42
1.25
 44
2.5
 73
     0
 74
     0
 77
     1
 78
     8
140
7.5
147
5.0
172
     1
173
     1
176
     2
177
     2
178
     4
271
     2
340
15B
  0
DIMSTYLE
105
16A
102
{ACAD_REACTORS
330
16B
102
}
330
A
100
AcDbSymbolTableRecord
100
AcDbDimStyleTableRecord
  2
ME10_DIM_11
 70
     0
 41
7.5
 42
1.25
 44
2.5
 73
     0
 74
     0
 77
     1
 78
     8
140
7.5
147
5.0
172
     1
173
     1
176
     2
177
     2
178
     4
271
     2
340
15B
  0
DIMSTYLE
105
175
102
{ACAD_REACTORS
330
176
102
}
330
A
100
AcDbSymbolTableRecord
100
AcDbDimStyleTableRecord
  2
ME10_DIM_12
 70
     0
 41
7.5
 42
1.25
 44
2.5
 73
     0
 74
     0
 77
     1
 78
     8
140
7.5
147
5.0
172
     1
173
     1
176
     2
177
     2
178
     4
271
     2
340
15B
  0
DIMSTYLE
105
180
102
{ACAD_REACTORS
330
181
102
}
330
A
100
AcDbSymbolTableRecord
100
AcDbDimStyleTableRecord
  2
ME10_DIM_13
 70
     0
 41
7.5
 42
1.25
 44
2.5
 73
     0
 74
     0
 77
     1
 78
     8
140
7.5
147
5.0
172
     1
173
     1
176
     2
177
     2
178
     4
271
     2
340
15B
  0
DIMSTYLE
105
18B
102
{ACAD_REACTORS
330
18C
102
}
330
A
100
AcDbSymbolTableRecord
100
AcDbDimStyleTableRecord
  2
ME10_DIM_14
 70
     0
 41
7.5
 42
1.25
 44
2.5
 73
     0
 74
     0
 77
     1
 78
     8
140
7.5
147
5.0
172
     1
173
     1
176
     2
177
     2
178
     4
271
     2
340
15B
  0
DIMSTYLE
105
198
102
{ACAD_REACTORS
330
199
102
}
330
A
100
AcDbSymbolTableRecord
100
AcDbDimStyleTableRecord
  2
ME10_DIM_15
 70
     0
 41
7.5
 42
1.25
 44
2.5
 73
     0
 74
     0
 77
     1
 78
     8
140
7.5
147
5.0
172
     1
173
     1
176
     2
177
     2
178
     4
271
     2
340
15B
  0
ENDTAB
  0
TABLE
  2
BLOCK_RECORD
  5
1
330
0
100
AcDbSymbolTable
 70
     9
  0
BLOCK_RECORD
  5
1F
330
1
100
AcDbSymbolTableRecord
100
AcDbBlockTableRecord
  2
*Model_Space
340
22
  0
BLOCK_RECORD
  5
1B
330
1
100
AcDbSymbolTableRecord
100
AcDbBlockTableRecord
  2
*Paper_Space
340
1E
  0
BLOCK_RECORD
  5
23
330
1
100
AcDbSymbolTableRecord
100
AcDbBlockTableRecord
  2
*Paper_Space0
340
26
  0
BLOCK_RECORD
  5
43
330
1
100
AcDbSymbolTableRecord
100
AcDbBlockTableRecord
  2
_formato_A4
340
0
102
{BLKREFS
331
47
102
}
  0
BLOCK_RECORD
  5
46
330
1
100
AcDbSymbolTableRecord
100
AcDbBlockTableRecord
  2
A4
340
0
102
{BLKREFS
331
4A
102
}
  0
BLOCK_RECORD
  5
153
330
1
100
AcDbSymbolTableRecord
100
AcDbBlockTableRecord
  2
*D3
340
0
  0
BLOCK_RECORD
  5
161
330
1
100
AcDbSymbolTableRecord
100
AcDbBlockTableRecord
  2
*D4
340
0
  0
BLOCK_RECORD
  5
16C
330
1
100
AcDbSymbolTableRecord
100
AcDbBlockTableRecord
  2
*D5
340
0
  0
BLOCK_RECORD
  5
177
330
1
100
AcDbSymbolTableRecord
100
AcDbBlockTableRecord
  2
*D6
340
0
  0
BLOCK_RECORD
  5
182
330
1
100
AcDbSymbolTableRecord
100
AcDbBlockTableRecord
  2
*D7
340
0
  0
BLOCK_RECORD
  5
18D
330
1
100
AcDbSymbolTableRecord
100
AcDbBlockTableRecord
  2
*D8
340
0
  0
ENDTAB
  0
ENDSEC
  0
SECTION
  2
BLOCKS
  0
BLOCK
  5
20
330
1F
100
AcDbEntity
  8
0
100
AcDbBlockBegin
  2
*Model_Space
 70
     0
 10
0.0
 20
0.0
 30
0.0
  3
*Model_Space
  1

  0
ENDBLK
  5
21
330
1F
100
AcDbEntity
  8
0
100
AcDbBlockEnd
  0
BLOCK
  5
1C
330
1B
100
AcDbEntity
 67
     1
  8
0
100
AcDbBlockBegin
  2
*Paper_Space
 70
     0
 10
0.0
 20
0.0
 30
0.0
  3
*Paper_Space
  1

  0
ENDBLK
  5
1D
330
1B
100
AcDbEntity
 67
     1
  8
0
100
AcDbBlockEnd
  0
BLOCK
  5
24
330
23
100
AcDbEntity
  8
0
100
AcDbBlockBegin
  2
*Paper_Space0
 70
     0
 10
0.0
 20
0.0
 30
0.0
  3
*Paper_Space0
  1

  0
ENDBLK
  5
25
330
23
100
AcDbEntity
  8
0
100
AcDbBlockEnd
  0
BLOCK
  5
44
330
43
100
AcDbEntity
  8
0
100
AcDbBlockBegin
  2
_formato_A4
 70
     0
 10
-367.4697689790241
 20
56.68761335345337
 30
0.0
  3
_formato_A4
  1

  0
LINE
  5
4B
330
43
100
AcDbEntity
  8
1
  6
Continuous
 62
     7
100
AcDbLine
 10
-556.4697689790241
 20
76.68761335345337
 30
0.0
 11
-556.4697689790241
 21
61.68761335345326
 31
0.0
  0
LINE
  5
4C
330
43
100
AcDbEntity
  8
1
  6
Continuous
 62
     7
100
AcDbLine
 10
-416.4697689790241
 20
76.68761335345337
 30
0.0
 11
-416.4697689790241
 21
61.68761335345337
 31
0.0
  0
LINE
  5
4D
330
43
100
AcDbEntity
  8
1
  6
Continuous
 62
     7
100
AcDbLine
 10
-399.1171676015387
 20
76.68761335345337
 30
0.0
 11
-399.1171676015387
 21
61.68761335345337
 31
0.0
  0
LINE
  5
4E
330
43
100
AcDbEntity
  8
1
  6
Continuous
 62
     7
100
AcDbLine
 10
-526.4697689790241
 20
76.68761335345337
 30
0.0
 11
-526.4697689790241
 21
61.68761335345337
 31
0.0
  0
LINE
  5
4F
330
43
100
AcDbEntity
  8
1
  6
Continuous
 62
     7
100
AcDbLine
 10
-556.4697689790241
 20
69.18761335345337
 30
0.0
 11
-526.4697689790241
 21
69.18761335345337
 31
0.0
  0
LINE
  5
50
330
43
100
AcDbEntity
  8
1
  6
Continuous
 62
     7
100
AcDbLine
 10
-577.4697689790241
 20
205.1876133534532
 30
0.0
 11
-562.4697689790241
 21
205.1876133534532
 31
0.0
  0
LINE
  5
51
330
43
100
AcDbEntity
  8
1
  6
Continuous
 62
     7
100
AcDbLine
 10
-367.4697689790241
 20
56.68761335345337
 30
0.0
 11
-367.4697689790241
 21
353.6876133534535
 31
0.0
  0
LINE
  5
52
330
43
100
AcDbEntity
  8
1
  6
Continuous
 62
     7
100
AcDbLine
 10
-577.4697689790241
 20
56.68761335345337
 30
0.0
 11
-367.4697689790241
 21
56.68761335345337
 31
0.0
  0
LINE
  5
53
330
43
100
AcDbEntity
  8
1
  6
Continuous
 62
     7
100
AcDbLine
 10
-577.4697689790241
 20
353.6876133534535
 30
0.0
 11
-577.4697689790241
 21
56.68761335345337
 31
0.0
  0
LINE
  5
54
330
43
100
AcDbEntity
  8
1
  6
Continuous
 62
     7
100
AcDbLine
 10
-367.4697689790241
 20
353.6876133534535
 30
0.0
 11
-577.4697689790241
 21
353.6876133534535
 31
0.0
  0
LINE
  5
55
330
43
100
AcDbEntity
  8
1
  6
Continuous
 62
     7
100
AcDbLine
 10
-372.4697689790241
 20
61.68761335345326
 30
0.0
 11
-372.4697689790241
 21
348.6876133534535
 31
0.0
  0
LINE
  5
56
330
43
100
AcDbEntity
  8
1
  6
Continuous
 62
     7
100
AcDbLine
 10
-372.4697689790241
 20
348.6876133534535
 30
0.0
 11
-556.4697689790241
 21
348.6876133534535
 31
0.0
  0
LINE
  5
57
330
43
100
AcDbEntity
  8
1
  6
Continuous
 62
     7
100
AcDbLine
 10
-556.4697689790241
 20
348.6876133534535
 30
0.0
 11
-556.4697689790241
 21
61.68761335345326
 31
0.0
  0
LINE
  5
58
102
{ACAD_REACTORS
330
A2
330
A2
102
}
330
43
100
AcDbEntity
  8
1
  6
Continuous
 62
     7
100
AcDbLine
 10
-383.460134956948
 20
66.765113193286
 30
0.0
 11
-383.460134956948
 21
71.61011351362075
 31
0.0
  0
LINE
  5
59
102
{ACAD_REACTORS
330
9F
330
9F
102
}
330
43
100
AcDbEntity
  8
1
  6
Continuous
 62
     7
100
AcDbLine
 10
-384.7934682902814
 20
69.18761335345337
 30
0.0
 11
-384.7934682902814
 21
70.91966416102221
 31
0.0
  0
LINE
  5
5A
102
{ACAD_REACTORS
330
9F
330
9F
102
}
330
43
100
AcDbEntity
  8
1
  6
Continuous
 62
     7
100
AcDbLine
 10
-384.7934682902814
 20
70.91966416102221
 30
0.0
 11
-385.649130722984
 21
69.43761335345337
 31
0.0
  0
LINE
  5
5B
102
{ACAD_REACTORS
330
9F
330
9F
102
}
330
43
100
AcDbEntity
  8
1
  6
Continuous
 62
     7
100
AcDbLine
 10
-385.9378058575789
 20
69.43761335345337
 30
0.0
 11
-386.7934682902814
 21
70.91966416102221
 31
0.0
  0
LINE
  5
5C
102
{ACAD_REACTORS
330
9F
330
9F
102
}
330
43
100
AcDbEntity
  8
1
  6
Continuous
 62
     7
100
AcDbLine
 10
-386.7934682902814
 20
70.91966416102221
 30
0.0
 11
-386.7934682902814
 21
69.18761335345337
 31
0.0
  0
LINE
  5
5D
330
43
100
AcDbEntity
  8
1
  6
Continuous
 62
     7
100
AcDbLine
 10
-394.209903565423
 20
69.3319776177947
 30
0.0
 11
-385.7934682902814
 21
74.18761335345337
 31
0.0
  0
LINE
  5
5E
330
43
100
AcDbEntity
  8
1
  6
Continuous
 62
     7
100
AcDbLine
 10
-385.7934682902814
 20
74.18761335345337
 30
0.0
 11
-377.3770330151399
 21
69.3319776177947
 31
0.0
  0
LINE
  5
5F
330
43
100
AcDbEntity
  8
1
  6
Continuous
 62
     7
100
AcDbLine
 10
-377.3770330151399
 20
69.04324908911192
 30
0.0
 11
-385.7934682902814
 21
64.18761335345337
 31
0.0
  0
LINE
  5
60
330
43
100
AcDbEntity
  8
1
  6
Continuous
 62
     7
100
AcDbLine
 10
-385.7934682902814
 20
64.18761335345337
 30
0.0
 11
-394.209903565423
 21
69.04324908911192
 31
0.0
  0
LINE
  5
61
102
{ACAD_REACTORS
330
9F
330
9F
102
}
330
43
100
AcDbEntity
  8
1
  6
Continuous
 62
     7
100
AcDbLine
 10
-387.4601349569481
 20
69.18761335345337
 30
0.0
 11
-387.4601349569481
 21
72.41883066548795
 31
0.0
  0
LINE
  5
62
102
{ACAD_REACTORS
330
9F
330
9F
102
}
330
43
100
AcDbEntity
  8
1
  6
Continuous
 62
     7
100
AcDbLine
 10
-386.9657012733247
 20
72.55131377172566
 30
0.0
 11
-385.7934682902814
 21
70.52094668678663
 31
0.0
  0
LINE
  5
63
102
{ACAD_REACTORS
330
9F
330
9F
102
}
330
43
100
AcDbEntity
  8
1
  6
Continuous
 62
     7
100
AcDbLine
 10
-387.4601349569481
 20
69.18761335345337
 30
0.0
 11
-387.4601349569481
 21
67.53519842608628
 31
0.0
  0
LINE
  5
64
102
{ACAD_REACTORS
330
9F
330
9F
102
}
330
43
100
AcDbEntity
  8
1
  6
Continuous
 62
     7
100
AcDbLine
 10
-386.7934682902814
 20
67.53519842608628
 30
0.0
 11
-386.7934682902814
 21
69.18761335345337
 31
0.0
  0
LINE
  5
65
102
{ACAD_REACTORS
330
9F
330
9F
102
}
330
43
100
AcDbEntity
  8
1
  6
Continuous
 62
     7
100
AcDbLine
 10
-384.7934682902814
 20
69.18761335345337
 30
0.0
 11
-384.7934682902814
 21
65.99588242405517
 31
0.0
  0
LINE
  5
66
102
{ACAD_REACTORS
330
9F
330
9F
102
}
330
43
100
AcDbEntity
  8
1
  6
Continuous
 62
     7
100
AcDbLine
 10
-384.1268016236148
 20
65.99588242405517
 30
0.0
 11
-384.1268016236148
 21
72.41883066548795
 31
0.0
  0
LINE
  5
67
102
{ACAD_REACTORS
330
9F
330
9F
102
}
330
43
100
AcDbEntity
  8
1
  6
Continuous
 62
     7
100
AcDbLine
 10
-384.6212353072381
 20
72.55131377172566
 30
0.0
 11
-385.7934682902814
 21
70.52094668678663
 31
0.0
  0
LINE
  5
68
102
{ACAD_REACTORS
330
A0
330
A0
102
}
330
43
100
AcDbEntity
  8
1
  6
Continuous
 62
     7
100
AcDbLine
 10
-388.7934682902814
 20
66.95763450148596
 30
0.0
 11
-388.7934682902814
 21
71.61011351362075
 31
0.0
  0
LINE
  5
69
102
{ACAD_REACTORS
330
A0
330
A0
102
}
330
43
100
AcDbEntity
  8
1
  6
Continuous
 62
     7
100
AcDbLine
 10
-388.1268016236148
 20
71.61011351362075
 30
0.0
 11
-388.1268016236148
 21
66.95763450148607
 31
0.0
  0
LINE
  5
6A
102
{ACAD_REACTORS
330
A0
330
A0
102
}
330
43
100
AcDbEntity
  8
1
  6
Continuous
 62
     7
100
AcDbLine
 10
-388.1268016236148
 20
66.95763450148607
 30
0.0
 11
-385.9602274724516
 21
65.70768787581497
 31
0.0
  0
LINE
  5
6B
102
{ACAD_REACTORS
330
A0
330
A0
102
}
330
43
100
AcDbEntity
  8
1
  6
Continuous
 62
     7
100
AcDbLine
 10
-386.293375774778
 20
65.13023081844918
 30
0.0
 11
-388.4599499259411
 21
66.38017744412028
 31
0.0
  0
LINE
  5
6C
102
{ACAD_REACTORS
330
A1
330
A1
102
}
330
43
100
AcDbEntity
  8
1
  6
Continuous
 62
     7
100
AcDbLine
 10
-389.4601349569481
 20
70.84088274439003
 30
0.0
 11
-389.4601349569481
 21
67.72686527071667
 31
0.0
  0
LINE
  5
6D
102
{ACAD_REACTORS
330
A1
330
A1
102
}
330
43
100
AcDbEntity
  8
1
  6
Continuous
 62
     7
100
AcDbLine
 10
-389.4601349569481
 20
67.72686527071667
 30
0.0
 11
-389.4601349569481
 21
67.5343439625166
 31
0.0
  0
LINE
  5
6E
102
{ACAD_REACTORS
330
A1
330
A1
102
}
330
43
100
AcDbEntity
  8
1
  6
Continuous
 62
     7
100
AcDbLine
 10
-390.1268016236148
 20
67.5343439625166
 30
0.0
 11
-390.1268016236148
 21
70.84088274439003
 31
0.0
  0
LINE
  5
6F
102
{ACAD_REACTORS
330
A2
330
A2
102
}
330
43
100
AcDbEntity
  8
1
  6
Continuous
 62
     7
100
AcDbLine
 10
-382.9602274724516
 20
71.89884204230364
 30
0.0
 11
-381.6268941391183
 21
71.12961127307281
 31
0.0
  0
LINE
  5
70
102
{ACAD_REACTORS
330
A2
330
A2
102
}
330
43
100
AcDbEntity
  8
1
  6
Continuous
 62
     7
100
AcDbLine
 10
-381.9600424414446
 20
70.55215421570713
 30
0.0
 11
-382.7934682902814
 21
71.03297682080532
 31
0.0
  0
LINE
  5
71
102
{ACAD_REACTORS
330
A2
330
A2
102
}
330
43
100
AcDbEntity
  8
1
  6
Continuous
 62
     7
100
AcDbLine
 10
-382.7934682902814
 20
71.03297682080532
 30
0.0
 11
-382.7934682902814
 21
69.52094668678663
 31
0.0
  0
LINE
  5
72
102
{ACAD_REACTORS
330
A2
330
A2
102
}
330
43
100
AcDbEntity
  8
1
  6
Continuous
 62
     7
100
AcDbLine
 10
-382.7934682902814
 20
69.52094668678663
 30
0.0
 11
-381.7934682902814
 21
69.52094668678663
 31
0.0
  0
LINE
  5
73
102
{ACAD_REACTORS
330
A2
330
A2
102
}
330
43
100
AcDbEntity
  8
1
  6
Continuous
 62
     7
100
AcDbLine
 10
-381.7934682902814
 20
68.85428002012
 30
0.0
 11
-382.7934682902814
 21
68.85428002012
 31
0.0
  0
LINE
  5
74
102
{ACAD_REACTORS
330
A2
330
A2
102
}
330
43
100
AcDbEntity
  8
1
  6
Continuous
 62
     7
100
AcDbLine
 10
-382.7934682902814
 20
68.85428002012
 30
0.0
 11
-382.7934682902814
 21
67.34224988610131
 31
0.0
  0
LINE
  5
75
102
{ACAD_REACTORS
330
A2
330
A2
102
}
330
43
100
AcDbEntity
  8
1
  6
Continuous
 62
     7
100
AcDbLine
 10
-382.7934682902814
 20
67.34224988610131
 30
0.0
 11
-381.9600424414446
 21
67.82307249119961
 31
0.0
  0
LINE
  5
76
102
{ACAD_REACTORS
330
A2
330
A2
102
}
330
43
100
AcDbEntity
  8
1
  6
Continuous
 62
     7
100
AcDbLine
 10
-381.6268941391183
 20
67.2456154338337
 30
0.0
 11
-382.9602274724516
 21
66.4763846646031
 31
0.0
  0
LINE
  5
77
330
43
100
AcDbEntity
  8
1
  6
Continuous
 62
     7
100
AcDbLine
 10
-556.4697689790241
 20
81.68761335345337
 30
0.0
 11
-372.4697689790241
 21
81.68761335345337
 31
0.0
  0
LINE
  5
78
330
43
100
AcDbEntity
  8
1
  6
Continuous
 62
     7
100
AcDbLine
 10
-549.4697689790241
 20
76.68761335345337
 30
0.0
 11
-549.4697689790241
 21
81.68761335345337
 31
0.0
  0
LINE
  5
79
330
43
100
AcDbEntity
  8
1
  6
Continuous
 62
     7
100
AcDbLine
 10
-531.4697689790239
 20
76.68761335345337
 30
0.0
 11
-531.4697689790239
 21
81.68761335345337
 31
0.0
  0
LINE
  5
7A
330
43
100
AcDbEntity
  8
1
  6
Continuous
 62
     7
100
AcDbLine
 10
-556.4697689790241
 20
86.68761335345337
 30
0.0
 11
-372.4697689790241
 21
86.68761335345337
 31
0.0
  0
LINE
  5
7B
330
43
100
AcDbEntity
  8
1
  6
Continuous
 62
     7
100
AcDbLine
 10
-549.4697689790241
 20
81.68761335345337
 30
0.0
 11
-549.4697689790241
 21
86.68761335345337
 31
0.0
  0
LINE
  5
7C
330
43
100
AcDbEntity
  8
1
  6
Continuous
 62
     7
100
AcDbLine
 10
-531.4697689790239
 20
81.68761335345337
 30
0.0
 11
-531.4697689790239
 21
86.68761335345337
 31
0.0
  0
LINE
  5
7D
330
43
100
AcDbEntity
  8
1
  6
Continuous
 62
     7
100
AcDbLine
 10
-556.4697689790241
 20
91.68761335345337
 30
0.0
 11
-372.4697689790241
 21
91.68761335345337
 31
0.0
  0
LINE
  5
7E
330
43
100
AcDbEntity
  8
1
  6
Continuous
 62
     7
100
AcDbLine
 10
-549.4697689790241
 20
86.68761335345337
 30
0.0
 11
-549.4697689790241
 21
91.68761335345337
 31
0.0
  0
LINE
  5
7F
330
43
100
AcDbEntity
  8
1
  6
Continuous
 62
     7
100
AcDbLine
 10
-531.4697689790239
 20
86.68761335345337
 30
0.0
 11
-531.4697689790239
 21
91.68761335345337
 31
0.0
  0
LINE
  5
80
330
43
100
AcDbEntity
  8
1
  6
Continuous
 62
     7
100
AcDbLine
 10
-556.4697689790241
 20
96.68761335345337
 30
0.0
 11
-372.4697689790241
 21
96.68761335345337
 31
0.0
  0
LINE
  5
81
330
43
100
AcDbEntity
  8
1
  6
Continuous
 62
     7
100
AcDbLine
 10
-549.4697689790241
 20
91.68761335345337
 30
0.0
 11
-549.4697689790241
 21
96.68761335345337
 31
0.0
  0
LINE
  5
82
330
43
100
AcDbEntity
  8
1
  6
Continuous
 62
     7
100
AcDbLine
 10
-531.4697689790239
 20
91.68761335345337
 30
0.0
 11
-531.4697689790239
 21
96.68761335345337
 31
0.0
  0
LINE
  5
83
330
43
100
AcDbEntity
  8
1
  6
Continuous
 62
     7
100
AcDbLine
 10
-556.4697689790241
 20
61.68761335345326
 30
0.0
 11
-372.4697689790241
 21
61.68761335345326
 31
0.0
  0
LINE
  5
84
330
43
100
AcDbEntity
  8
1
  6
Continuous
 62
     7
100
AcDbLine
 10
-556.4697689790241
 20
76.68761335345337
 30
0.0
 11
-372.4697689790241
 21
76.68761335345337
 31
0.0
  0
ARC
  5
85
102
{ACAD_REACTORS
330
9F
330
9F
102
}
330
43
100
AcDbEntity
  8
1
  6
Continuous
 62
     7
100
AcDbCircle
 10
-387.1951687444728
 20
72.41883066548795
 30
0.0
 40
0.2649662124752827
100
AcDbArc
 50
30.00000000001821
 51
180.0
  0
ARC
  5
86
102
{ACAD_REACTORS
330
9F
330
9F
102
}
330
43
100
AcDbEntity
  8
1
  6
Continuous
 62
     7
100
AcDbCircle
 10
-387.1268016236148
 20
67.53519842608628
 30
0.0
 40
0.3333333333332575
100
AcDbArc
 50
180.0
 51
0.0
  0
ARC
  5
87
102
{ACAD_REACTORS
330
9F
330
9F
102
}
330
43
100
AcDbEntity
  8
1
  6
Continuous
 62
     7
100
AcDbCircle
 10
-384.460134956948
 20
65.99588242405517
 30
0.0
 40
0.3333333333333712
100
AcDbArc
 50
180.0
 51
0.0
  0
ARC
  5
88
102
{ACAD_REACTORS
330
9F
330
9F
102
}
330
43
100
AcDbEntity
  8
1
  6
Continuous
 62
     7
100
AcDbCircle
 10
-384.3917678360901
 20
72.41883066548795
 30
0.0
 40
0.2649662124752581
100
AcDbArc
 50
0.0
 51
149.9999999999756
  0
ARC
  5
89
102
{ACAD_REACTORS
330
A0
330
A0
102
}
330
43
100
AcDbEntity
  8
1
  6
Continuous
 62
     7
100
AcDbCircle
 10
-388.4601349569481
 20
71.61011351362075
 30
0.0
 40
0.3333333333332575
100
AcDbArc
 50
0.0
 51
180.0
  0
ARC
  5
8A
102
{ACAD_REACTORS
330
A0
330
A0
102
}
330
43
100
AcDbEntity
  8
1
  6
Continuous
 62
     7
100
AcDbCircle
 10
-386.1268016236148
 20
65.41895934713207
 30
0.0
 40
0.3333333333333425
100
AcDbArc
 50
240.0183606311578
 51
60.01836063114937
  0
ARC
  5
8B
102
{ACAD_REACTORS
330
A1
330
A1
102
}
330
43
100
AcDbEntity
  8
1
  6
Continuous
 62
     7
100
AcDbCircle
 10
-389.7934682902814
 20
70.84088274439003
 30
0.0
 40
0.3333333333333144
100
AcDbArc
 50
0.0
 51
180.0
  0
ARC
  5
8C
102
{ACAD_REACTORS
330
A1
330
A1
102
}
330
43
100
AcDbEntity
  8
1
  6
Continuous
 62
     7
100
AcDbCircle
 10
-389.7934682902814
 20
67.5343439625166
 30
0.0
 40
0.3333333333334281
100
AcDbArc
 50
180.0
 51
0.0
  0
ARC
  5
8D
102
{ACAD_REACTORS
330
A2
330
A2
102
}
330
43
100
AcDbEntity
  8
1
  6
Continuous
 62
     7
100
AcDbCircle
 10
-381.7934682902814
 20
70.84088274439003
 30
0.0
 40
0.3333333333333709
100
AcDbArc
 50
240.0183606311493
 51
60.01836063115653
  0
ARC
  5
8E
102
{ACAD_REACTORS
330
A2
330
A2
102
}
330
43
100
AcDbEntity
  8
1
  6
Continuous
 62
     7
100
AcDbCircle
 10
-381.7934682902814
 20
69.18761335345337
 30
0.0
 40
0.3333333333333712
100
AcDbArc
 50
270.0
 51
90.0
  0
ARC
  5
8F
102
{ACAD_REACTORS
330
A2
330
A2
102
}
330
43
100
AcDbEntity
  8
1
  6
Continuous
 62
     7
100
AcDbCircle
 10
-381.7934682902814
 20
67.5343439625166
 30
0.0
 40
0.3333333333333141
100
AcDbArc
 50
299.9816393688337
 51
119.9816393688409
  0
ARC
  5
90
102
{ACAD_REACTORS
330
9F
330
9F
102
}
330
43
100
AcDbEntity
  8
1
  6
Continuous
 62
     7
100
AcDbCircle
 10
-385.7934682902814
 20
69.52094668678663
 30
0.0
 40
0.1666666666667081
100
AcDbArc
 50
209.9999999999617
 51
330.0000000000188
  0
ARC
  5
91
102
{ACAD_REACTORS
330
A0
330
A0
102
}
330
43
100
AcDbEntity
  8
1
  6
Continuous
 62
     7
100
AcDbCircle
 10
-388.1268016236148
 20
66.95763450148607
 30
0.0
 40
0.6666666666665719
100
AcDbArc
 50
180.0000000000097
 51
240.018360631162
  0
ARC
  5
92
330
43
100
AcDbEntity
  8
1
  6
Continuous
 62
     7
100
AcDbCircle
 10
-394.1266164898413
 20
69.18761335345337
 30
0.0
 40
0.1666666666666438
100
AcDbArc
 50
119.981639368904
 51
240.0183606311155
  0
ARC
  5
93
330
43
100
AcDbEntity
  8
1
  6
Continuous
 62
     7
100
AcDbCircle
 10
-377.4603200907215
 20
69.18761335345337
 30
0.0
 40
0.1666666666666854
100
AcDbArc
 50
299.9816393688506
 51
60.01836063112984
  0
ARC
  5
94
102
{ACAD_REACTORS
330
A2
330
A2
102
}
330
43
100
AcDbEntity
  8
1
  6
Continuous
 62
     7
100
AcDbCircle
 10
-383.1268016236148
 20
71.61011351362075
 30
0.0
 40
0.3333333333333709
100
AcDbArc
 50
60.01836063114937
 51
180.0
  0
ARC
  5
95
102
{ACAD_REACTORS
330
A2
330
A2
102
}
330
43
100
AcDbEntity
  8
1
  6
Continuous
 62
     7
100
AcDbCircle
 10
-383.1268016236148
 20
66.765113193286
 30
0.0
 40
0.3333333333332007
100
AcDbArc
 50
180.0
 51
299.9816393688506
  0
MTEXT
  5
97
330
43
100
AcDbEntity
  8
1
 62
     7
100
AcDbMText
 10
-561.4697689790241
 20
208.1876133534532
 30
0.0
 40
4.0
 41
0.0
 71
     5
 72
     1
  1
Diritti riservati      All rights reserved
  7
CONVERTER_11
 11
0.0
 21
1.0
 31
0.0
 73
     1
 44
1.32052821128451
  0
MTEXT
  5
98
330
43
100
AcDbEntity
  8
1
 62
     7
100
AcDbMText
 10
-554.4697689790241
 20
72.94825277420935
 30
0.0
 40
3.0
 41
0.0
 71
     4
 72
     1
  1
Date
  7
CONVERTER_11
 73
     1
 44
1.32052821128451
  0
MTEXT
  5
99
330
43
100
AcDbEntity
  8
1
 62
     7
100
AcDbMText
 10
-543.8697689790241
 20
72.94825277420935
 30
0.0
 40
3.0
 41
0.0
 71
     4
 72
     1
  1
17/06/09
  7
CONVERTER_11
 73
     1
 44
1.32052821128451
  0
MTEXT
  5
9A
330
43
100
AcDbEntity
  8
1
 62
     7
100
AcDbMText
 10
-554.4697689790241
 20
65.43761335345337
 30
0.0
 40
3.0
 41
0.0
 71
     4
 72
     1
  1
Sign.
  7
CONVERTER_11
 73
     1
 44
1.32052821128451
  0
MTEXT
  5
9B
330
43
100
AcDbEntity
  8
1
 62
     7
100
AcDbMText
 10
-543.8697689790241
 20
65.43761335345337
 30
0.0
 40
3.0
 41
0.0
 71
     4
 72
     1
  1
Visentin
  7
CONVERTER_11
 73
     1
 44
1.32052821128451
  0
MTEXT
  5
9C
330
43
100
AcDbEntity
  8
1
 62
     7
100
AcDbMText
 10
-520.1934682902813
 20
69.18761335345337
 30
0.0
 40
4.5
 41
0.0
 71
     4
 72
     1
  1
APF 19\PMOUNTING PLATE 19VC
  7
CONVERTER_11
 73
     1
 44
0.90036014405762
  0
MTEXT
  5
9D
330
43
100
AcDbEntity
  8
1
 62
     7
100
AcDbMText
 10
-407.7934682902814
 20
72.94825277420935
 30
0.0
 40
3.0
 41
0.0
 71
     5
 72
     1
  1
Scale
  7
CONVERTER_11
 73
     1
 44
1.32052821128451
  0
MTEXT
  5
9E
330
43
100
AcDbEntity
  8
1
 62
     7
100
AcDbMText
 10
-407.7934682902814
 20
66.74825277420942
 30
0.0
 40
4.5
 41
0.0
 71
     5
 72
     1
  1
1:2,5
  7
CONVERTER_11
 73
     1
 44
1.32052821128451
  0
HATCH
  5
9F
330
43
100
AcDbEntity
  8
1
  6
Continuous
 62
     7
100
AcDbHatch
 10
0.0
 20
0.0
 30
0.0
210
0.0
220
0.0
230
1.0
  2
SOLID
 70
     1
 71
     1
 91
        1
 92
        1
 93
       16
 72
     2
 10
-387.1951687444728
 20
72.41883066548795
 40
0.2649662124752827
 50
30.00000000001821
 51
180.0
 73
     1
 72
     1
 10
-387.4601349569481
 20
72.41883066548795
 11
-387.4601349569481
 21
69.18761335345337
 72
     1
 10
-387.4601349569481
 20
69.18761335345337
 11
-387.4601349569481
 21
67.53519842608628
 72
     2
 10
-387.1268016236148
 20
67.53519842608628
 40
0.3333333333332575
 50
180.0
 51
360.0
 73
     1
 72
     1
 10
-386.7934682902814
 20
67.53519842608628
 11
-386.7934682902814
 21
69.18761335345337
 72
     1
 10
-386.7934682902814
 20
69.18761335345337
 11
-386.7934682902814
 21
70.91966416102221
 72
     1
 10
-386.7934682902814
 20
70.91966416102221
 11
-385.9378058575789
 21
69.43761335345337
 72
     2
 10
-385.7934682902814
 20
69.52094668678663
 40
0.1666666666667081
 50
209.9999999999617
 51
330.0000000000188
 73
     1
 72
     1
 10
-385.649130722984
 20
69.43761335345337
 11
-384.7934682902814
 21
70.91966416102221
 72
     1
 10
-384.7934682902814
 20
70.91966416102221
 11
-384.7934682902814
 21
69.18761335345337
 72
     1
 10
-384.7934682902814
 20
69.18761335345337
 11
-384.7934682902814
 21
65.99588242405517
 72
     2
 10
-384.460134956948
 20
65.99588242405517
 40
0.3333333333333712
 50
180.0
 51
360.0
 73
     1
 72
     1
 10
-384.1268016236148
 20
65.99588242405517
 11
-384.1268016236148
 21
72.41883066548795
 72
     2
 10
-384.3917678360901
 20
72.41883066548795
 40
0.2649662124752581
 50
0.0
 51
149.9999999999756
 73
     1
 72
     1
 10
-384.6212353072381
 20
72.55131377172566
 11
-385.7934682902814
 21
70.52094668678663
 72
     1
 10
-385.7934682902814
 20
70.52094668678663
 11
-386.9657012733247
 21
72.55131377172566
 97
       16
330
67
330
88
330
66
330
87
330
65
330
59
330
5A
330
90
330
5B
330
5C
330
64
330
86
330
63
330
61
330
85
330
62
 75
     0
 76
     1
 98
        1
 10
0.0
 20
0.0
  0
HATCH
  5
A0
330
43
100
AcDbEntity
  8
1
  6
Continuous
 62
     7
100
AcDbHatch
 10
0.0
 20
0.0
 30
0.0
210
0.0
220
0.0
230
1.0
  2
SOLID
 70
     1
 71
     1
 91
        1
 92
        1
 93
        7
 72
     1
 10
-388.1268016236148
 20
71.61011351362075
 11
-388.1268016236148
 21
66.95763450148607
 72
     1
 10
-388.1268016236148
 20
66.95763450148607
 11
-385.9602274724516
 21
65.70768787581497
 72
     2
 10
-386.1268016236148
 20
65.41895934713207
 40
0.3333333333333425
 50
299.9816393688506
 51
479.9816393688421
 73
     0
 72
     1
 10
-386.293375774778
 20
65.13023081844918
 11
-388.4599499259411
 21
66.38017744412028
 72
     2
 10
-388.1268016236148
 20
66.95763450148607
 40
0.6666666666665719
 50
119.9816393688379
 51
179.9999999999902
 73
     0
 72
     1
 10
-388.7934682902814
 20
66.95763450148596
 11
-388.7934682902814
 21
71.61011351362075
 72
     2
 10
-388.4601349569481
 20
71.61011351362075
 40
0.3333333333332575
 50
180.0
 51
360.0
 73
     0
 97
        7
330
69
330
6A
330
8A
330
6B
330
91
330
68
330
89
 75
     0
 76
     1
 98
        1
 10
0.0
 20
0.0
  0
HATCH
  5
A1
330
43
100
AcDbEntity
  8
1
  6
Continuous
 62
     7
100
AcDbHatch
 10
0.0
 20
0.0
 30
0.0
210
0.0
220
0.0
230
1.0
  2
SOLID
 70
     1
 71
     1
 91
        1
 92
        1
 93
        5
 72
     1
 10
-389.4601349569481
 20
70.84088274439003
 11
-389.4601349569481
 21
67.72686527071667
 72
     1
 10
-389.4601349569481
 20
67.72686527071667
 11
-389.4601349569481
 21
67.5343439625166
 72
     2
 10
-389.7934682902814
 20
67.5343439625166
 40
0.3333333333334281
 50
0.0
 51
180.0
 73
     0
 72
     1
 10
-390.1268016236148
 20
67.5343439625166
 11
-390.1268016236148
 21
70.84088274439003
 72
     2
 10
-389.7934682902814
 20
70.84088274439003
 40
0.3333333333333144
 50
180.0
 51
360.0
 73
     0
 97
        5
330
6C
330
6D
330
8C
330
6E
330
8B
 75
     0
 76
     1
 98
        1
 10
0.0
 20
0.0
  0
HATCH
  5
A2
330
43
100
AcDbEntity
  8
1
  6
Continuous
 62
     7
100
AcDbHatch
 10
0.0
 20
0.0
 30
0.0
210
0.0
220
0.0
230
1.0
  2
SOLID
 70
     1
 71
     1
 91
        1
 92
        1
 93
       14
 72
     1
 10
-381.9600424414446
 20
70.55215421570713
 11
-382.7934682902814
 21
71.03297682080532
 72
     1
 10
-382.7934682902814
 20
71.03297682080532
 11
-382.7934682902814
 21
69.52094668678663
 72
     1
 10
-382.7934682902814
 20
69.52094668678663
 11
-381.7934682902814
 21
69.52094668678663
 72
     2
 10
-381.7934682902814
 20
69.18761335345337
 40
0.3333333333333712
 50
270.0
 51
450.0
 73
     0
 72
     1
 10
-381.7934682902814
 20
68.85428002012
 11
-382.7934682902814
 21
68.85428002012
 72
     1
 10
-382.7934682902814
 20
68.85428002012
 11
-382.7934682902814
 21
67.34224988610131
 72
     1
 10
-382.7934682902814
 20
67.34224988610131
 11
-381.9600424414446
 21
67.82307249119961
 72
     2
 10
-381.7934682902814
 20
67.5343439625166
 40
0.3333333333333141
 50
240.0183606311591
 51
420.0183606311662
 73
     0
 72
     1
 10
-381.6268941391183
 20
67.2456154338337
 11
-382.9602274724516
 21
66.4763846646031
 72
     2
 10
-383.1268016236148
 20
66.765113193286
 40
0.3333333333332007
 50
60.01836063114938
 51
180.0
 73
     0
 72
     1
 10
-383.460134956948
 20
66.765113193286
 11
-383.460134956948
 21
71.61011351362075
 72
     2
 10
-383.1268016236148
 20
71.61011351362075
 40
0.3333333333333709
 50
180.0
 51
299.9816393688506
 73
     0
 72
     1
 10
-382.9602274724516
 20
71.89884204230364
 11
-381.6268941391183
 21
71.12961127307281
 72
     2
 10
-381.7934682902814
 20
70.84088274439003
 40
0.3333333333333709
 50
299.9816393688434
 51
479.9816393688507
 73
     0
 97
       14
330
6F
330
94
330
58
330
95
330
76
330
8F
330
75
330
74
330
73
330
8E
330
72
330
71
330
70
330
8D
 75
     0
 76
     1
 98
        1
 10
0.0
 20
0.0
  0
ENDBLK
  5
45
330
43
100
AcDbEntity
  8
0
100
AcDbBlockEnd
  0
BLOCK
  5
48
330
46
100
AcDbEntity
  8
0
100
AcDbBlockBegin
  2
A4
 70
     0
 10
-1837.34884489512
 20
283.4380667672669
 30
0.0
  3
A4
  1

  0
INSERT
  5
47
330
46
100
AcDbEntity
  8
1
100
AcDbBlockReference
  2
_formato_A4
 10
-1837.34884489512
 20
283.4380667672668
 30
0.0
 41
2.5
 42
2.5
 43
2.5
  0
ENDBLK
  5
49
330
46
100
AcDbEntity
  8
0
100
AcDbBlockEnd
  0
BLOCK
  5
15D
330
153
100
AcDbEntity
  8
0
100
AcDbBlockBegin
  2
*D3
 70
     1
 10
0.0
 20
0.0
 30
0.0
  3
*D3
  1

  0
LINE
  5
154
330
153
100
AcDbEntity
  8
1
  6
Continuous
 62
     2
100
AcDbLine
 10
-2245.151846166104
 20
757.1930199274904
 30
0.0
 11
-2234.545244448304
 21
767.7996216452867
 31
0.0
  0
LINE
  5
155
330
153
100
AcDbEntity
  8
1
  6
Continuous
 62
     2
100
AcDbLine
 10
-2248.333826681443
 20
754.0110394121524
 30
0.0
 11
-2245.151846166104
 21
757.1930199274904
 31
0.0
  0
LINE
  5
156
330
153
100
AcDbEntity
  8
1
  6
Continuous
 62
     2
100
AcDbLine
 10
-2258.940428399243
 20
743.404437694356
 30
0.0
 11
-2248.333826681443
 21
754.0110394121524
 31
0.0
  0
LINE
  5
157
330
153
100
AcDbEntity
  8
1
  6
Continuous
 62
     2
100
AcDbLine
 10
-2228.082517681556
 20
740.1236914429363
 30
0.0
 11
-2246.91961311907
 21
758.9607868804572
 31
0.0
  0
LINE
  5
158
330
153
100
AcDbEntity
  8
1
  6
Continuous
 62
     2
100
AcDbLine
 10
-2231.264498196894
 20
736.9417109275975
 30
0.0
 11
-2250.101593634409
 21
755.7788063651191
 31
0.0
  0
SOLID
  5
159
330
153
100
AcDbEntity
  8
1
 62
     2
100
AcDbTrace
 10
-2252.938934736811
 20
748.0095457497226
 30
0.0
 11
-2254.335320343874
 21
749.4059313567857
 31
0.0
 12
-2248.333826681443
 22
754.0110394121524
 32
0.0
 13
-2248.333826681443
 23
754.0110394121524
 33
0.0
  0
SOLID
  5
15A
330
153
100
AcDbEntity
  8
1
 62
     2
100
AcDbTrace
 10
-2240.546738110736
 20
763.1945135899201
 30
0.0
 11
-2239.150352503673
 21
761.7981279828571
 31
0.0
 12
-2245.151846166104
 22
757.1930199274904
 32
0.0
 13
-2245.151846166104
 23
757.1930199274904
 33
0.0
  0
MTEXT
  5
15C
330
153
100
AcDbEntity
  8
1
 62
     4
100
AcDbMText
 10
-2255.714253710078
 20
754.762340367164
 30
0.0
 40
7.5
 41
0.0
 71
     7
 72
     1
  1
4,5
  7
CONVERTER_12
 11
0.7071067811866688
 21
0.7071067811864263
 31
0.0
 73
     1
 44
0.60024009603842
  0
ENDBLK
  5
15E
330
153
100
AcDbEntity
  8
0
100
AcDbBlockEnd
  0
BLOCK
  5
168
330
161
100
AcDbEntity
  8
0
100
AcDbBlockBegin
  2
*D4
 70
     1
 10
0.0
 20
0.0
 30
0.0
  3
*D4
  1

  0
LINE
  5
162
330
161
100
AcDbEntity
  8
1
  6
Continuous
 62
     2
100
AcDbLine
 10
-2226.451088596009
 20
768.0771323044299
 30
0.0
 11
-2073.451088596009
 21
768.0771323044299
 31
0.0
  0
LINE
  5
163
330
161
100
AcDbEntity
  8
1
  6
Continuous
 62
     2
100
AcDbLine
 10
-2073.451088596009
 20
742.9602818420511
 30
0.0
 11
-2073.451088596009
 21
770.5771323044299
 31
0.0
  0
LINE
  5
164
330
161
100
AcDbEntity
  8
1
  6
Continuous
 62
     2
100
AcDbLine
 10
-2226.451088596009
 20
742.9602818420511
 30
0.0
 11
-2226.451088596009
 21
770.5771323044299
 31
0.0
  0
SOLID
  5
165
330
161
100
AcDbEntity
  8
1
 62
     2
100
AcDbTrace
 10
-2218.951088596009
 20
769.0645260363355
 30
0.0
 11
-2218.951088596009
 21
767.0897385725244
 31
0.0
 12
-2226.451088596009
 22
768.0771323044299
 32
0.0
 13
-2226.451088596009
 23
768.0771323044299
 33
0.0
  0
SOLID
  5
166
330
161
100
AcDbEntity
  8
1
 62
     2
100
AcDbTrace
 10
-2080.951088596009
 20
767.0897385725244
 30
0.0
 11
-2080.951088596009
 21
769.0645260363355
 31
0.0
 12
-2073.451088596009
 22
768.0771323044299
 32
0.0
 13
-2073.451088596009
 23
768.0771323044299
 33
0.0
  0
MTEXT
  5
167
330
161
100
AcDbEntity
  8
1
 62
     4
100
AcDbMText
 10
-2157.826088596009
 20
773.0771323044299
 30
0.0
 40
7.5
 41
0.0
 71
     7
 72
     1
  1
153
  7
CONVERTER_12
 11
0.9999999999970619
 21
2.424068405545306E-6
 31
0.0
 73
     1
 44
0.60024009603842
  0
ENDBLK
  5
169
330
161
100
AcDbEntity
  8
0
100
AcDbBlockEnd
  0
BLOCK
  5
173
330
16C
100
AcDbEntity
  8
0
100
AcDbBlockBegin
  2
*D5
 70
     1
 10
0.0
 20
0.0
 30
0.0
  3
*D5
  1

  0
LINE
  5
16D
330
16C
100
AcDbEntity
  8
1
  6
Continuous
 62
     2
100
AcDbLine
 10
-2232.451088596009
 20
506.2203739804451
 30
0.0
 11
-2067.451088596009
 21
506.2203739804451
 31
0.0
  0
LINE
  5
16E
330
16C
100
AcDbEntity
  8
1
  6
Continuous
 62
     2
100
AcDbLine
 10
-2067.451088596009
 20
540.0602818420497
 30
0.0
 11
-2067.451088596009
 21
503.7203739804451
 31
0.0
  0
LINE
  5
16F
330
16C
100
AcDbEntity
  8
1
  6
Continuous
 62
     2
100
AcDbLine
 10
-2232.451088596009
 20
540.0602818420497
 30
0.0
 11
-2232.451088596009
 21
503.7203739804451
 31
0.0
  0
SOLID
  5
170
330
16C
100
AcDbEntity
  8
1
 62
     2
100
AcDbTrace
 10
-2224.951088596009
 20
507.2077677123505
 30
0.0
 11
-2224.951088596009
 21
505.2329802485396
 31
0.0
 12
-2232.451088596009
 22
506.2203739804451
 32
0.0
 13
-2232.451088596009
 23
506.2203739804451
 33
0.0
  0
SOLID
  5
171
330
16C
100
AcDbEntity
  8
1
 62
     2
100
AcDbTrace
 10
-2074.951088596009
 20
505.2329802485396
 30
0.0
 11
-2074.951088596009
 21
507.2077677123505
 31
0.0
 12
-2067.451088596009
 22
506.2203739804451
 32
0.0
 13
-2067.451088596009
 23
506.2203739804451
 33
0.0
  0
MTEXT
  5
172
330
16C
100
AcDbEntity
  8
1
 62
     4
100
AcDbMText
 10
-2157.826088596009
 20
511.2203739804451
 30
0.0
 40
7.5
 41
0.0
 71
     7
 72
     1
  1
165
  7
CONVERTER_12
 11
0.9999999999970619
 21
2.424068405545306E-6
 31
0.0
 73
     1
 44
0.60024009603842
  0
ENDBLK
  5
174
330
16C
100
AcDbEntity
  8
0
100
AcDbBlockEnd
  0
BLOCK
  5
17E
330
177
100
AcDbEntity
  8
0
100
AcDbBlockBegin
  2
*D6
 70
     1
 10
0.0
 20
0.0
 30
0.0
  3
*D6
  1

  0
LINE
  5
178
330
177
100
AcDbEntity
  8
1
  6
Continuous
 62
     2
100
AcDbLine
 10
-2258.84300406896
 20
735.3102818420501
 30
0.0
 11
-2258.84300406896
 21
547.3102818420497
 31
0.0
  0
LINE
  5
179
330
177
100
AcDbEntity
  8
1
  6
Continuous
 62
     2
100
AcDbLine
 10
-2234.101088596009
 20
547.3102818420497
 30
0.0
 11
-2261.34300406896
 21
547.3102818420497
 31
0.0
  0
LINE
  5
17A
330
177
100
AcDbEntity
  8
1
  6
Continuous
 62
     2
100
AcDbLine
 10
-2234.10108859601
 20
735.3102818420501
 30
0.0
 11
-2261.34300406896
 21
735.3102818420501
 31
0.0
  0
SOLID
  5
17B
330
177
100
AcDbEntity
  8
1
 62
     2
100
AcDbTrace
 10
-2257.855610337055
 20
727.8102818420501
 30
0.0
 11
-2259.830397800865
 21
727.8102818420501
 31
0.0
 12
-2258.84300406896
 22
735.3102818420501
 32
0.0
 13
-2258.84300406896
 23
735.3102818420501
 33
0.0
  0
SOLID
  5
17C
330
177
100
AcDbEntity
  8
1
 62
     2
100
AcDbTrace
 10
-2259.830397800865
 20
554.8102818420497
 30
0.0
 11
-2257.855610337055
 21
554.8102818420497
 31
0.0
 12
-2258.84300406896
 22
547.3102818420497
 32
0.0
 13
-2258.84300406896
 23
547.3102818420497
 33
0.0
  0
MTEXT
  5
17D
330
177
100
AcDbEntity
  8
1
 62
     4
100
AcDbMText
 10
-2263.84300406896
 20
633.0602818420499
 30
0.0
 40
7.5
 41
0.0
 71
     7
 72
     1
  1
188
  7
CONVERTER_12
 11
0.0
 21
1.0
 31
0.0
 73
     1
 44
0.60024009603842
  0
ENDBLK
  5
17F
330
177
100
AcDbEntity
  8
0
100
AcDbBlockEnd
  0
BLOCK
  5
189
330
182
100
AcDbEntity
  8
0
100
AcDbBlockBegin
  2
*D7
 70
     1
 10
0.0
 20
0.0
 30
0.0
  3
*D7
  1

  0
LINE
  5
183
330
182
100
AcDbEntity
  8
1
  6
Continuous
 62
     2
100
AcDbLine
 10
-2032.9406711107
 20
741.3102818420501
 30
0.0
 11
-2032.9406711107
 21
541.3102818420497
 31
0.0
  0
LINE
  5
184
330
182
100
AcDbEntity
  8
1
  6
Continuous
 62
     2
100
AcDbLine
 10
-2066.201088596009
 20
541.3102818420497
 30
0.0
 11
-2030.4406711107
 21
541.3102818420497
 31
0.0
  0
LINE
  5
185
330
182
100
AcDbEntity
  8
1
  6
Continuous
 62
     2
100
AcDbLine
 10
-2066.201088596009
 20
741.3102818420501
 30
0.0
 11
-2030.4406711107
 21
741.3102818420501
 31
0.0
  0
SOLID
  5
186
330
182
100
AcDbEntity
  8
1
 62
     2
100
AcDbTrace
 10
-2031.953277378794
 20
733.8102818420501
 30
0.0
 11
-2033.928064842605
 21
733.8102818420501
 31
0.0
 12
-2032.9406711107
 22
741.3102818420501
 32
0.0
 13
-2032.9406711107
 23
741.3102818420501
 33
0.0
  0
SOLID
  5
187
330
182
100
AcDbEntity
  8
1
 62
     2
100
AcDbTrace
 10
-2033.928064842605
 20
548.8102818420497
 30
0.0
 11
-2031.953277378794
 21
548.8102818420497
 31
0.0
 12
-2032.9406711107
 22
541.3102818420497
 32
0.0
 13
-2032.9406711107
 23
541.3102818420497
 33
0.0
  0
MTEXT
  5
188
330
182
100
AcDbEntity
  8
1
 62
     4
100
AcDbMText
 10
-2037.9406711107
 20
632.3102818420499
 30
0.0
 40
7.5
 41
0.0
 71
     7
 72
     1
  1
200
  7
CONVERTER_12
 11
0.0
 21
1.0
 31
0.0
 73
     1
 44
0.60024009603842
  0
ENDBLK
  5
18A
330
182
100
AcDbEntity
  8
0
100
AcDbBlockEnd
  0
BLOCK
  5
196
330
18D
100
AcDbEntity
  8
0
100
AcDbBlockBegin
  2
*D8
 70
     1
 10
0.0
 20
0.0
 30
0.0
  3
*D8
  1

  0
LINE
  5
18E
330
18D
100
AcDbEntity
  8
1
  6
Continuous
 62
     2
100
AcDbLine
 10
-2032.9406711107
 20
838.3102818420551
 30
0.0
 11
-2032.9406711107
 21
857.1875398969602
 31
0.0
  0
LINE
  5
18F
330
18D
100
AcDbEntity
  8
1
  6
Continuous
 62
     2
100
AcDbLine
 10
-2032.9406711107
 20
836.8102818420551
 30
0.0
 11
-2032.9406711107
 21
838.3102818420551
 31
0.0
  0
LINE
  5
190
330
18D
100
AcDbEntity
  8
1
  6
Continuous
 62
     2
100
AcDbLine
 10
-2032.9406711107
 20
821.8102818420551
 30
0.0
 11
-2032.9406711107
 21
836.8102818420551
 31
0.0
  0
LINE
  5
191
330
18D
100
AcDbEntity
  8
1
  6
Continuous
 62
     2
100
AcDbLine
 10
-2066.201088596009
 20
838.3102818420551
 30
0.0
 11
-2030.4406711107
 21
838.3102818420551
 31
0.0
  0
LINE
  5
192
330
18D
100
AcDbEntity
  8
1
  6
Continuous
 62
     2
100
AcDbLine
 10
-2066.201088596009
 20
836.8102818420551
 30
0.0
 11
-2030.4406711107
 21
836.8102818420551
 31
0.0
  0
SOLID
  5
193
330
18D
100
AcDbEntity
  8
1
 62
     2
100
AcDbTrace
 10
-2031.953277378794
 20
829.3102818420551
 30
0.0
 11
-2033.928064842605
 21
829.3102818420551
 31
0.0
 12
-2032.9406711107
 22
836.8102818420551
 32
0.0
 13
-2032.9406711107
 23
836.8102818420551
 33
0.0
  0
SOLID
  5
194
330
18D
100
AcDbEntity
  8
1
 62
     2
100
AcDbTrace
 10
-2033.928064842605
 20
845.8102818420551
 30
0.0
 11
-2031.953277378794
 21
845.8102818420551
 31
0.0
 12
-2032.9406711107
 22
838.3102818420551
 32
0.0
 13
-2032.9406711107
 23
838.3102818420551
 33
0.0
  0
MTEXT
  5
195
330
18D
100
AcDbEntity
  8
1
 62
     4
100
AcDbMText
 10
-2038.6906711107
 20
845.5625398969602
 30
0.0
 40
7.5
 41
0.0
 71
     7
 72
     1
  1
1,5
  7
CONVERTER_12
 11
0.0
 21
1.0
 31
0.0
 73
     1
 44
0.60024009603842
  0
ENDBLK
  5
197
330
18D
100
AcDbEntity
  8
0
100
AcDbBlockEnd
  0
ENDSEC
  0
SECTION
  2
ENTITIES
  0
INSERT
  5
4A
330
1F
100
AcDbEntity
  8
0
100
AcDbBlockReference
  2
A4
 10
-1837.34884489512
 20
283.4380667672668
 30
0.0
 41
1.0
 42
1.0
 43
1.0
  0
LINE
  5
A3
330
1F
100
AcDbEntity
  8
1
  6
DOT_CENTER
 62
     2
100
AcDbLine
 10
-2073.451088596009
 20
842.384093000007
 30
0.0
 11
-2073.451088596009
 21
833.0840930000071
 31
0.0
  0
LINE
  5
A4
330
1F
100
AcDbEntity
  8
1
  6
DOT_CENTER
 62
     2
100
AcDbLine
 10
-2093.451088596009
 20
842.384093000007
 30
0.0
 11
-2093.451088596009
 21
833.0840930000071
 31
0.0
  0
LINE
  5
A5
330
1F
100
AcDbEntity
  8
1
  6
DOT_CENTER
 62
     2
100
AcDbLine
 10
-2206.451088596009
 20
842.384093000007
 30
0.0
 11
-2206.451088596009
 21
833.0840930000071
 31
0.0
  0
LINE
  5
A6
330
1F
100
AcDbEntity
  8
1
  6
DOT_CENTER
 62
     2
100
AcDbLine
 10
-2226.451088596009
 20
842.384093000007
 30
0.0
 11
-2226.451088596009
 21
833.0840930000071
 31
0.0
  0
LINE
  5
A7
330
1F
100
AcDbEntity
  8
1
  6
DOT_CENTER
 62
     2
100
AcDbLine
 10
-2226.451088596009
 20
553.7102818420495
 30
0.0
 11
-2226.451088596009
 21
540.9102818420498
 31
0.0
  0
LINE
  5
A8
330
1F
100
AcDbEntity
  8
1
  6
DOT_CENTER
 62
     2
100
AcDbLine
 10
-2220.051088596009
 20
547.3102818420497
 30
0.0
 11
-2232.851088596009
 21
547.3102818420497
 31
0.0
  0
LINE
  5
A9
330
1F
100
AcDbEntity
  8
1
  6
DOT_CENTER
 62
     2
100
AcDbLine
 10
-2093.451088596009
 20
554.1702818420496
 30
0.0
 11
-2093.451088596009
 21
544.4502818420498
 31
0.0
  0
LINE
  5
AA
330
1F
100
AcDbEntity
  8
1
  6
DOT_CENTER
 62
     2
100
AcDbLine
 10
-2088.591088596009
 20
549.3102818420497
 30
0.0
 11
-2098.311088596009
 21
549.3102818420497
 31
0.0
  0
LINE
  5
AB
330
1F
100
AcDbEntity
  8
1
  6
DOT_CENTER
 62
     2
100
AcDbLine
 10
-2073.451088596009
 20
553.7102818420491
 30
0.0
 11
-2073.451088596009
 21
540.9102818420503
 31
0.0
  0
LINE
  5
AC
330
1F
100
AcDbEntity
  8
1
  6
DOT_CENTER
 62
     2
100
AcDbLine
 10
-2067.051088596009
 20
547.3102818420497
 30
0.0
 11
-2079.851088596009
 21
547.3102818420497
 31
0.0
  0
LINE
  5
AD
330
1F
100
AcDbEntity
  8
1
  6
DOT_CENTER
 62
     2
100
AcDbLine
 10
-2073.451088596009
 20
741.7102818420511
 30
0.0
 11
-2073.451088596009
 21
728.9102818420491
 31
0.0
  0
LINE
  5
AE
330
1F
100
AcDbEntity
  8
1
  6
DOT_CENTER
 62
     2
100
AcDbLine
 10
-2067.051088596008
 20
735.3102818420501
 30
0.0
 11
-2079.85108859601
 21
735.3102818420501
 31
0.0
  0
LINE
  5
AF
330
1F
100
AcDbEntity
  8
1
  6
DOT_CENTER
 62
     2
100
AcDbLine
 10
-2226.451088596009
 20
741.7102818420511
 30
0.0
 11
-2226.451088596009
 21
728.91028184205
 31
0.0
  0
LINE
  5
B0
330
1F
100
AcDbEntity
  8
1
  6
DOT_CENTER
 62
     2
100
AcDbLine
 10
-2220.051088596008
 20
735.3102818420501
 30
0.0
 11
-2232.85108859601
 21
735.3102818420501
 31
0.0
  0
LINE
  5
B1
330
1F
100
AcDbEntity
  8
1
  6
DOT_CENTER
 62
     2
100
AcDbLine
 10
-2206.451088596009
 20
738.17028184205
 30
0.0
 11
-2206.451088596009
 21
728.45028184205
 31
0.0
  0
LINE
  5
B2
330
1F
100
AcDbEntity
  8
1
  6
DOT_CENTER
 62
     2
100
AcDbLine
 10
-2201.591088596009
 20
733.3102818420501
 30
0.0
 11
-2211.311088596009
 21
733.3102818420501
 31
0.0
  0
LINE
  5
B3
330
1F
100
AcDbEntity
  8
0
  6
Continuous
 62
     2
100
AcDbLine
 10
-2214.883765216379
 20
732.350203498839
 30
0.0
 11
-2218.006177790926
 21
732.350203498839
 31
0.0
  0
LINE
  5
B4
330
1F
100
AcDbEntity
  8
0
  6
Continuous
 62
     2
100
AcDbLine
 10
-2218.006177790926
 20
732.350203498839
 30
0.0
 11
-2218.006177790926
 21
732.150203498839
 31
0.0
  0
LINE
  5
B5
330
1F
100
AcDbEntity
  8
0
  6
Continuous
 62
     2
100
AcDbLine
 10
-2214.883765216379
 20
732.150203498839
 30
0.0
 11
-2214.883765216379
 21
732.350203498839
 31
0.0
  0
LINE
  5
B6
330
1F
100
AcDbEntity
  8
0
  6
Continuous
 62
     2
100
AcDbLine
 10
-2218.006177790926
 20
732.150203498839
 30
0.0
 11
-2214.883765216379
 21
732.150203498839
 31
0.0
  0
LINE
  5
B7
330
1F
100
AcDbEntity
  8
0
  6
Continuous
 62
     2
100
AcDbLine
 10
-2214.035702541811
 20
733.21028184205
 30
0.0
 11
-2214.035702541811
 21
733.41028184205
 31
0.0
  0
LINE
  5
B8
330
1F
100
AcDbEntity
  8
0
  6
Continuous
 62
     2
100
AcDbLine
 10
-2216.551088596009
 20
733.41028184205
 30
0.0
 11
-2218.854240465495
 21
733.41028184205
 31
0.0
  0
LINE
  5
B9
330
1F
100
AcDbEntity
  8
0
  6
Continuous
 62
     2
100
AcDbLine
 10
-2214.035702541811
 20
733.41028184205
 30
0.0
 11
-2216.351088596009
 21
733.41028184205
 31
0.0
  0
LINE
  5
BA
330
1F
100
AcDbEntity
  8
0
  6
Continuous
 62
     2
100
AcDbLine
 10
-2218.854240465495
 20
733.41028184205
 30
0.0
 11
-2218.854240465495
 21
733.21028184205
 31
0.0
  0
LINE
  5
BB
330
1F
100
AcDbEntity
  8
0
  6
Continuous
 62
     2
100
AcDbLine
 10
-2218.854240465495
 20
733.21028184205
 30
0.0
 11
-2214.035702541811
 21
733.21028184205
 31
0.0
  0
LINE
  5
BC
330
1F
100
AcDbEntity
  8
0
  6
Continuous
 62
     2
100
AcDbLine
 10
-2216.551088596009
 20
735.568877573825
 30
0.0
 11
-2216.551088596009
 21
733.41028184205
 31
0.0
  0
LINE
  5
BD
330
1F
100
AcDbEntity
  8
0
  6
Continuous
 62
     2
100
AcDbLine
 10
-2216.351088596009
 20
733.41028184205
 30
0.0
 11
-2216.351088596009
 21
735.568877573825
 31
0.0
  0
LINE
  5
BE
330
1F
100
AcDbEntity
  8
0
  6
Continuous
 62
     2
100
AcDbLine
 10
-2216.351088596009
 20
735.568877573825
 30
0.0
 11
-2216.551088596009
 21
735.568877573825
 31
0.0
  0
LINE
  5
BF
330
1F
100
AcDbEntity
  8
0
  6
Continuous
 62
     2
100
AcDbLine
 10
-2217.158115116358
 20
731.290125155629
 30
0.0
 11
-2217.158115116358
 21
731.0901251556289
 31
0.0
  0
LINE
  5
C0
330
1F
100
AcDbEntity
  8
0
  6
Continuous
 62
     2
100
AcDbLine
 10
-2217.158115116358
 20
731.0901251556289
 30
0.0
 11
-2215.731827890947
 21
731.0901251556289
 31
0.0
  0
LINE
  5
C1
330
1F
100
AcDbEntity
  8
0
  6
Continuous
 62
     2
100
AcDbLine
 10
-2215.731827890947
 20
731.0901251556289
 30
0.0
 11
-2215.731827890947
 21
731.290125155629
 31
0.0
  0
LINE
  5
C2
330
1F
100
AcDbEntity
  8
0
  6
Continuous
 62
     2
100
AcDbLine
 10
-2215.731827890947
 20
731.290125155629
 30
0.0
 11
-2217.158115116358
 21
731.290125155629
 31
0.0
  0
LINE
  5
C3
330
1F
100
AcDbEntity
  8
0
  6
Continuous
 62
     7
100
AcDbLine
 10
-2225.703542986945
 20
731.3807557176459
 30
0.0
 11
-2230.380614720412
 21
736.0578274511141
 31
0.0
  0
LINE
  5
C4
330
1F
100
AcDbEntity
  8
0
  6
Continuous
 62
     2
100
AcDbLine
 10
-2083.551088596009
 20
547.0516861102748
 30
0.0
 11
-2083.351088596009
 21
547.0516861102748
 31
0.0
  0
LINE
  5
C5
330
1F
100
AcDbEntity
  8
0
  6
Continuous
 62
     2
100
AcDbLine
 10
-2082.74406207566
 20
551.3304385284708
 30
0.0
 11
-2082.74406207566
 21
551.5304385284707
 31
0.0
  0
LINE
  5
C6
330
1F
100
AcDbEntity
  8
0
  6
Continuous
 62
     2
100
AcDbLine
 10
-2083.351088596009
 20
547.0516861102748
 30
0.0
 11
-2083.351088596009
 21
549.2102818420498
 31
0.0
  0
LINE
  5
C7
330
1F
100
AcDbEntity
  8
0
  6
Continuous
 62
     2
100
AcDbLine
 10
-2083.551088596009
 20
549.2102818420498
 30
0.0
 11
-2083.551088596009
 21
547.0516861102748
 31
0.0
  0
LINE
  5
C8
330
1F
100
AcDbEntity
  8
0
  6
Continuous
 62
     2
100
AcDbLine
 10
-2084.17034930107
 20
551.5304385284707
 30
0.0
 11
-2084.17034930107
 21
551.3304385284708
 31
0.0
  0
LINE
  5
C9
330
1F
100
AcDbEntity
  8
0
  6
Continuous
 62
     2
100
AcDbLine
 10
-2084.17034930107
 20
551.3304385284708
 30
0.0
 11
-2082.74406207566
 21
551.3304385284708
 31
0.0
  0
LINE
  5
CA
330
1F
100
AcDbEntity
  8
0
  6
Continuous
 62
     2
100
AcDbLine
 10
-2083.351088596009
 20
549.2102818420498
 30
0.0
 11
-2081.047936726523
 21
549.2102818420498
 31
0.0
  0
LINE
  5
CB
330
1F
100
AcDbEntity
  8
0
  6
Continuous
 62
     2
100
AcDbLine
 10
-2081.047936726523
 20
549.2102818420498
 30
0.0
 11
-2081.047936726523
 21
549.4102818420498
 31
0.0
  0
LINE
  5
CC
330
1F
100
AcDbEntity
  8
0
  6
Continuous
 62
     2
100
AcDbLine
 10
-2085.866474650207
 20
549.2102818420498
 30
0.0
 11
-2083.551088596009
 21
549.2102818420498
 31
0.0
  0
LINE
  5
CD
330
1F
100
AcDbEntity
  8
0
  6
Continuous
 62
     2
100
AcDbLine
 10
-2085.866474650207
 20
549.4102818420498
 30
0.0
 11
-2085.866474650207
 21
549.2102818420498
 31
0.0
  0
LINE
  5
CE
330
1F
100
AcDbEntity
  8
0
  6
Continuous
 62
     2
100
AcDbLine
 10
-2081.047936726523
 20
549.4102818420498
 30
0.0
 11
-2085.866474650207
 21
549.4102818420498
 31
0.0
  0
LINE
  5
CF
330
1F
100
AcDbEntity
  8
0
  6
Continuous
 62
     2
100
AcDbLine
 10
-2082.74406207566
 20
551.5304385284707
 30
0.0
 11
-2084.17034930107
 21
551.5304385284707
 31
0.0
  0
LINE
  5
D0
330
1F
100
AcDbEntity
  8
0
  6
Continuous
 62
     2
100
AcDbLine
 10
-2081.895999401091
 20
550.4703601852608
 30
0.0
 11
-2085.018411975638
 21
550.4703601852608
 31
0.0
  0
LINE
  5
D1
330
1F
100
AcDbEntity
  8
0
  6
Continuous
 62
     2
100
AcDbLine
 10
-2085.018411975638
 20
550.4703601852608
 30
0.0
 11
-2085.018411975638
 21
550.2703601852608
 31
0.0
  0
LINE
  5
D2
330
1F
100
AcDbEntity
  8
0
  6
Continuous
 62
     2
100
AcDbLine
 10
-2085.018411975638
 20
550.2703601852608
 30
0.0
 11
-2081.895999401091
 21
550.2703601852608
 31
0.0
  0
LINE
  5
D3
330
1F
100
AcDbEntity
  8
0
  6
Continuous
 62
     2
100
AcDbLine
 10
-2081.895999401091
 20
550.2703601852608
 30
0.0
 11
-2081.895999401091
 21
550.4703601852608
 31
0.0
  0
LINE
  5
D4
330
1F
100
AcDbEntity
  8
0
  6
Continuous
 62
     7
100
AcDbLine
 10
-2067.451088596009
 20
541.3102818420497
 30
0.0
 11
-2232.451088596009
 21
541.3102818420497
 31
0.0
  0
LINE
  5
D5
330
1F
100
AcDbEntity
  8
0
  6
Continuous
 62
     7
100
AcDbLine
 10
-2072.703542986945
 20
739.239807966453
 30
0.0
 11
-2077.380614720412
 21
734.5627362329859
 31
0.0
  0
LINE
  5
D6
330
1F
100
AcDbEntity
  8
0
  6
Continuous
 62
     7
100
AcDbLine
 10
-2225.703542986945
 20
551.2398079664531
 30
0.0
 11
-2230.380614720412
 21
546.5627362329857
 31
0.0
  0
LINE
  5
D7
330
1F
100
AcDbEntity
  8
0
  6
Continuous
 62
     7
100
AcDbLine
 10
-2227.198634205073
 20
739.239807966453
 30
0.0
 11
-2222.521562471605
 21
734.5627362329859
 31
0.0
  0
LINE
  5
D8
330
1F
100
AcDbEntity
  8
0
  6
Continuous
 62
     7
100
AcDbLine
 10
-2227.198634205073
 20
543.3807557176463
 30
0.0
 11
-2222.521562471605
 21
548.0578274511137
 31
0.0
  0
LINE
  5
D9
330
1F
100
AcDbEntity
  8
0
  6
Continuous
 62
     7
100
AcDbLine
 10
-2072.703542986945
 20
543.3807557176463
 30
0.0
 11
-2077.380614720412
 21
548.0578274511137
 31
0.0
  0
LINE
  5
DA
330
1F
100
AcDbEntity
  8
0
  6
Continuous
 62
     7
100
AcDbLine
 10
-2232.451088596009
 20
541.3102818420497
 30
0.0
 11
-2232.451088596009
 21
741.3102818420501
 31
0.0
  0
LINE
  5
DB
330
1F
100
AcDbEntity
  8
0
  6
Continuous
 62
     7
100
AcDbLine
 10
-2232.451088596009
 20
741.3102818420501
 30
0.0
 11
-2067.451088596009
 21
741.3102818420501
 31
0.0
  0
LINE
  5
DC
330
1F
100
AcDbEntity
  8
0
  6
Continuous
 62
     7
100
AcDbLine
 10
-2067.451088596009
 20
741.3102818420501
 30
0.0
 11
-2067.451088596009
 21
541.3102818420497
 31
0.0
  0
LINE
  5
DD
330
1F
100
AcDbEntity
  8
0
  6
Continuous
 62
     7
100
AcDbLine
 10
-2074.198634205073
 20
731.3807557176459
 30
0.0
 11
-2069.521562471605
 21
736.0578274511141
 31
0.0
  0
LINE
  5
DE
330
1F
100
AcDbEntity
  8
0
  6
Continuous
 62
     7
100
AcDbLine
 10
-2074.198634205073
 20
551.2398079664531
 30
0.0
 11
-2069.521562471605
 21
546.5627362329857
 31
0.0
  0
LINE
  5
DF
330
1F
100
AcDbEntity
  8
0
  6
Continuous
 62
     7
100
AcDbLine
 10
-1965.293734364809
 20
851.0247725776387
 30
0.0
 11
-1965.293734364809
 21
937.6273129560823
 31
0.0
  0
LINE
  5
E0
330
1F
100
AcDbEntity
  8
0
  6
Continuous
 62
     7
100
AcDbLine
 10
-1965.668734364809
 20
851.3495321040577
 30
0.0
 11
-1965.668734364809
 21
937.9520724825018
 31
0.0
  0
LINE
  5
E1
330
1F
100
AcDbEntity
  8
0
  6
Continuous
 62
     7
100
AcDbLine
 10
-1965.668734364809
 20
851.3495321040577
 30
0.0
 11
-1965.293734364809
 21
851.0247725776387
 31
0.0
  0
LINE
  5
E2
330
1F
100
AcDbEntity
  8
0
  6
Continuous
 62
     2
100
AcDbLine
 10
-1959.406126418597
 20
935.9061186274482
 30
0.0
 11
-1959.406126418597
 21
935.8195160870698
 31
0.0
  0
LINE
  5
E3
330
1F
100
AcDbEntity
  8
0
  6
Continuous
 62
     2
100
AcDbLine
 10
-1958.408832404723
 20
936.1940126111338
 30
0.0
 11
-1959.406126418597
 21
935.9061186274482
 31
0.0
  0
LINE
  5
E4
330
1F
100
AcDbEntity
  8
0
  6
Continuous
 62
     2
100
AcDbLine
 10
-1958.67168259842
 20
935.2000795208683
 30
0.0
 11
-1958.67168259842
 21
935.1134769804896
 31
0.0
  0
LINE
  5
E5
330
1F
100
AcDbEntity
  8
0
  6
Continuous
 62
     2
100
AcDbLine
 10
-1958.67168259842
 20
935.1134769804896
 30
0.0
 11
-1958.05408211327
 21
935.2917628836663
 31
0.0
  0
LINE
  5
E6
330
1F
100
AcDbEntity
  8
0
  6
Continuous
 62
     2
100
AcDbLine
 10
-1958.05408211327
 20
935.2917628836663
 30
0.0
 11
-1958.05408211327
 21
935.3783654240442
 31
0.0
  0
LINE
  5
E7
330
1F
100
AcDbEntity
  8
0
  6
Continuous
 62
     2
100
AcDbLine
 10
-1958.05408211327
 20
935.3783654240442
 30
0.0
 11
-1958.67168259842
 21
935.2000795208683
 31
0.0
  0
LINE
  5
E8
330
1F
100
AcDbEntity
  8
0
  6
Continuous
 62
     2
100
AcDbLine
 10
-1959.038904508509
 20
935.5530990741579
 30
0.0
 11
-1959.038904508509
 21
935.4664965337793
 31
0.0
  0
LINE
  5
E9
330
1F
100
AcDbEntity
  8
0
  6
Continuous
 62
     2
100
AcDbLine
 10
-1957.686860203181
 20
935.8567981055978
 30
0.0
 11
-1957.686860203181
 21
935.9434006459762
 31
0.0
  0
LINE
  5
EA
330
1F
100
AcDbEntity
  8
0
  6
Continuous
 62
     2
100
AcDbLine
 10
-1959.038904508509
 20
935.4664965337793
 30
0.0
 11
-1957.686860203181
 21
935.8567981055978
 31
0.0
  0
LINE
  5
EB
330
1F
100
AcDbEntity
  8
0
  6
Continuous
 62
     2
100
AcDbLine
 10
-1957.686860203181
 20
935.9434006459762
 30
0.0
 11
-1959.038904508509
 21
935.5530990741579
 31
0.0
  0
LINE
  5
EC
330
1F
100
AcDbEntity
  8
0
  6
Continuous
 62
     2
100
AcDbLine
 10
-1959.406126418597
 20
935.8195160870698
 30
0.0
 11
-1957.319638293093
 21
936.4218333275301
 31
0.0
  0
LINE
  5
ED
330
1F
100
AcDbEntity
  8
0
  6
Continuous
 62
     2
100
AcDbLine
 10
-1900.731540512679
 20
873.0830729225872
 30
0.0
 11
-1899.734246498805
 21
873.3709669062728
 31
0.0
  0
LINE
  5
EE
330
1F
100
AcDbEntity
  8
0
  6
Continuous
 62
     2
100
AcDbLine
 10
-1899.734246498805
 20
873.4575694466512
 30
0.0
 11
-1901.82073462431
 21
872.8552522061907
 31
0.0
  0
LINE
  5
EF
330
1F
100
AcDbEntity
  8
0
  6
Continuous
 62
     2
100
AcDbLine
 10
-1899.734246498805
 20
873.3709669062728
 30
0.0
 11
-1899.734246498805
 21
873.4575694466512
 31
0.0
  0
LINE
  5
F0
330
1F
100
AcDbEntity
  8
0
  6
Continuous
 62
     2
100
AcDbLine
 10
-1900.818143053058
 20
872.1233735524781
 30
0.0
 11
-1900.731540512679
 21
872.1483735524782
 31
0.0
  0
LINE
  5
F1
330
1F
100
AcDbEntity
  8
0
  6
Continuous
 62
     2
100
AcDbLine
 10
-1900.756540512679
 20
872.1700241875726
 30
0.0
 11
-1900.818143053058
 21
872.1522410659377
 31
0.0
  0
LINE
  5
F2
330
1F
100
AcDbEntity
  8
0
  6
Continuous
 62
     2
100
AcDbLine
 10
-1900.731540512679
 20
872.1483735524782
 30
0.0
 11
-1900.756540512679
 21
872.1700241875726
 31
0.0
  0
LINE
  5
F3
330
1F
100
AcDbEntity
  8
0
  6
Continuous
 62
     2
100
AcDbLine
 10
-1900.818143053058
 20
873.0580729225874
 30
0.0
 11
-1900.818143053058
 21
872.1233735524781
 31
0.0
  0
LINE
  5
F4
330
1F
100
AcDbEntity
  8
0
  6
Continuous
 62
     2
100
AcDbLine
 10
-1900.731540512679
 20
872.1483735524782
 30
0.0
 11
-1900.731540512679
 21
873.0830729225872
 31
0.0
  0
LINE
  5
F5
330
1F
100
AcDbEntity
  8
0
  6
Continuous
 62
     2
100
AcDbLine
 10
-1900.101468408894
 20
873.8105889999417
 30
0.0
 11
-1901.453512714221
 21
873.4202874281232
 31
0.0
  0
LINE
  5
F6
330
1F
100
AcDbEntity
  8
0
  6
Continuous
 62
     2
100
AcDbLine
 10
-1901.453512714221
 20
873.4202874281232
 30
0.0
 11
-1901.453512714221
 21
873.3336848877448
 31
0.0
  0
LINE
  5
F7
330
1F
100
AcDbEntity
  8
0
  6
Continuous
 62
     2
100
AcDbLine
 10
-1901.453512714221
 20
873.3336848877448
 30
0.0
 11
-1900.101468408894
 21
873.7239864595633
 31
0.0
  0
LINE
  5
F8
330
1F
100
AcDbEntity
  8
0
  6
Continuous
 62
     2
100
AcDbLine
 10
-1901.086290804132
 20
873.9853226500547
 30
0.0
 11
-1901.086290804132
 21
873.8987201096763
 31
0.0
  0
LINE
  5
F9
330
1F
100
AcDbEntity
  8
0
  6
Continuous
 62
     2
100
AcDbLine
 10
-1900.468690318983
 20
874.1636085532311
 30
0.0
 11
-1901.086290804132
 21
873.9853226500547
 31
0.0
  0
LINE
  5
FA
330
1F
100
AcDbEntity
  8
0
  6
Continuous
 62
     2
100
AcDbLine
 10
-1901.086290804132
 20
873.8987201096763
 30
0.0
 11
-1900.468690318983
 21
874.0770060128527
 31
0.0
  0
LINE
  5
FB
330
1F
100
AcDbEntity
  8
0
  6
Continuous
 62
     2
100
AcDbLine
 10
-1900.468690318983
 20
874.0770060128527
 30
0.0
 11
-1900.468690318983
 21
874.1636085532311
 31
0.0
  0
LINE
  5
FC
330
1F
100
AcDbEntity
  8
0
  6
Continuous
 62
     2
100
AcDbLine
 10
-1901.82073462431
 20
872.8552522061907
 30
0.0
 11
-1901.82073462431
 21
872.7686496658123
 31
0.0
  0
LINE
  5
FD
330
1F
100
AcDbEntity
  8
0
  6
Continuous
 62
     2
100
AcDbLine
 10
-1901.82073462431
 20
872.7686496658123
 30
0.0
 11
-1900.818143053058
 21
873.0580729225874
 31
0.0
  0
LINE
  5
FE
330
1F
100
AcDbEntity
  8
0
  6
Continuous
 62
     2
100
AcDbLine
 10
-1900.101468408894
 20
873.7239864595633
 30
0.0
 11
-1900.101468408894
 21
873.8105889999417
 31
0.0
  0
LINE
  5
FF
330
1F
100
AcDbEntity
  8
0
  6
Continuous
 62
     7
100
AcDbLine
 10
-1962.746961409488
 20
934.4959047479972
 30
0.0
 11
-1964.387324304224
 21
935.6627356633112
 31
0.0
  0
LINE
  5
100
330
1F
100
AcDbEntity
  8
0
  6
Continuous
 62
     7
100
AcDbLine
 10
-1962.746961409488
 20
934.4959047479972
 30
0.0
 11
-1962.371961409488
 21
934.1711452215784
 31
0.0
  0
LINE
  5
101
330
1F
100
AcDbEntity
  8
0
  6
Continuous
 62
     7
100
AcDbLine
 10
-1962.371961409488
 20
934.1711452215784
 30
0.0
 11
-1964.39719287774
 21
935.6117427231472
 31
0.0
  0
LINE
  5
102
330
1F
100
AcDbEntity
  8
0
  6
Continuous
 62
     7
100
AcDbLine
 10
-1896.496018019978
 20
872.2145167922597
 30
0.0
 11
-1896.121018019978
 21
871.8897572658409
 31
0.0
  0
LINE
  5
103
330
1F
100
AcDbEntity
  8
0
  6
Continuous
 62
     7
100
AcDbLine
 10
-1897.143411507915
 20
953.4340183457314
 30
0.0
 11
-1896.768411507915
 21
953.1092588193121
 31
0.0
  0
LINE
  5
104
330
1F
100
AcDbEntity
  8
0
  6
Continuous
 62
     7
100
AcDbLine
 10
-1896.121018019978
 20
956.6992146701461
 30
0.0
 11
-1898.14624948823
 21
954.0893492352102
 31
0.0
  0
LINE
  5
105
330
1F
100
AcDbEntity
  8
0
  6
Continuous
 62
     7
100
AcDbLine
 10
-1896.121018019978
 20
871.8897572658409
 30
0.0
 11
-1898.146249488231
 21
873.3303547674097
 31
0.0
  0
LINE
  5
106
330
1F
100
AcDbEntity
  8
0
  6
Continuous
 62
     7
100
AcDbLine
 10
-1896.496018019978
 20
872.2145167922597
 30
0.0
 11
-1898.136380914714
 21
873.3813477075744
 31
0.0
  0
LINE
  5
107
330
1F
100
AcDbEntity
  8
0
  6
Continuous
 62
     7
100
AcDbLine
 10
-1965.668734364809
 20
937.9520724825018
 30
0.0
 11
-1965.293734364809
 21
937.6273129560823
 31
0.0
  0
LINE
  5
108
330
1F
100
AcDbEntity
  8
0
  6
Continuous
 62
     2
100
AcDbLine
 10
-1957.319638293093
 20
936.4218333275301
 30
0.0
 11
-1957.319638293093
 21
936.5084358679082
 31
0.0
  0
LINE
  5
109
330
1F
100
AcDbEntity
  8
0
  6
Continuous
 62
     2
100
AcDbLine
 10
-1957.319638293093
 20
936.5084358679082
 30
0.0
 11
-1958.322229864345
 21
936.2190126111338
 31
0.0
  0
LINE
  5
10A
330
1F
100
AcDbEntity
  8
0
  6
Continuous
 62
     2
100
AcDbLine
 10
-1958.322229864345
 20
936.2190126111338
 30
0.0
 11
-1958.322229864345
 21
937.1537119812426
 31
0.0
  0
LINE
  5
10B
330
1F
100
AcDbEntity
  8
0
  6
Continuous
 62
     2
100
AcDbLine
 10
-1958.322229864345
 20
937.1537119812426
 30
0.0
 11
-1958.408832404723
 21
937.1287119812428
 31
0.0
  0
LINE
  5
10C
330
1F
100
AcDbEntity
  8
0
  6
Continuous
 62
     2
100
AcDbLine
 10
-1958.408832404723
 20
937.1287119812428
 30
0.0
 11
-1958.408832404723
 21
936.1940126111338
 31
0.0
  0
LINE
  5
10D
330
1F
100
AcDbEntity
  8
0
  6
Continuous
 62
     7
100
AcDbLine
 10
-1963.019354897424
 20
937.3873282678803
 30
0.0
 11
-1960.994123429172
 21
935.9467307663112
 31
0.0
  0
LINE
  5
10E
330
1F
100
AcDbEntity
  8
0
  6
Continuous
 62
     7
100
AcDbLine
 10
-1965.668734364809
 20
937.9520724825018
 30
0.0
 11
-1894.221638552593
 21
958.5770724825018
 31
0.0
  0
LINE
  5
10F
330
1F
100
AcDbEntity
  8
0
  6
Continuous
 62
     7
100
AcDbLine
 10
-1963.394354897424
 20
852.9026303899943
 30
0.0
 11
-1963.019354897424
 21
852.5778708635746
 31
0.0
  0
LINE
  5
110
330
1F
100
AcDbEntity
  8
0
  6
Continuous
 62
     7
100
AcDbLine
 10
-1961.369123429172
 20
855.5124958249296
 30
0.0
 11
-1960.994123429172
 21
855.1877362985108
 31
0.0
  0
LINE
  5
111
330
1F
100
AcDbEntity
  8
0
  6
Continuous
 62
     7
100
AcDbLine
 10
-1963.019354897424
 20
852.5778708635746
 30
0.0
 11
-1960.994123429172
 21
855.1877362985108
 31
0.0
  0
LINE
  5
112
330
1F
100
AcDbEntity
  8
0
  6
Continuous
 62
     7
100
AcDbLine
 10
-1963.394354897424
 20
852.9026303899943
 30
0.0
 11
-1961.369123429172
 21
855.5124958249296
 31
0.0
  0
LINE
  5
113
330
1F
100
AcDbEntity
  8
0
  6
Continuous
 62
     7
100
AcDbLine
 10
-1962.371961409488
 20
856.1678267144086
 30
0.0
 11
-1964.39719287774
 21
853.5579612794727
 31
0.0
  0
LINE
  5
114
330
1F
100
AcDbEntity
  8
0
  6
Continuous
 62
     7
100
AcDbLine
 10
-1893.846638552593
 20
871.6497725776387
 30
0.0
 11
-1965.293734364809
 21
851.0247725776387
 31
0.0
  0
LINE
  5
115
330
1F
100
AcDbEntity
  8
0
  6
Continuous
 62
     7
100
AcDbLine
 10
-1895.118180039663
 20
956.0438837806671
 30
0.0
 11
-1894.743180039663
 21
955.7191242542478
 31
0.0
  0
LINE
  5
116
330
1F
100
AcDbEntity
  8
0
  6
Continuous
 62
     7
100
AcDbLine
 10
-1896.768411507915
 20
953.1092588193121
 30
0.0
 11
-1894.743180039663
 21
955.7191242542478
 31
0.0
  0
LINE
  5
117
330
1F
100
AcDbEntity
  8
0
  6
Continuous
 62
     7
100
AcDbLine
 10
-1896.768411507915
 20
875.1059403121428
 30
0.0
 11
-1894.743180039663
 21
873.6653428105737
 31
0.0
  0
LINE
  5
118
330
1F
100
AcDbEntity
  8
0
  6
Continuous
 62
     7
100
AcDbLine
 10
-1897.143411507915
 20
953.4340183457314
 30
0.0
 11
-1895.118180039663
 21
956.0438837806671
 31
0.0
  0
LINE
  5
119
330
1F
100
AcDbEntity
  8
0
  6
Continuous
 62
     7
100
AcDbLine
 10
-1893.846638552593
 20
958.2523129560823
 30
0.0
 11
-1893.846638552593
 21
871.6497725776387
 31
0.0
  0
LINE
  5
11A
330
1F
100
AcDbEntity
  8
0
  6
Continuous
 62
     7
100
AcDbLine
 10
-1894.221638552593
 20
958.5770724825018
 30
0.0
 11
-1893.846638552593
 21
958.2523129560823
 31
0.0
  0
LINE
  5
11B
330
1F
100
AcDbEntity
  8
0
  6
Continuous
 62
     7
100
AcDbLine
 10
-1965.293734364809
 20
937.6273129560823
 30
0.0
 11
-1893.846638552593
 21
958.2523129560823
 31
0.0
  0
LINE
  5
11C
330
1F
100
AcDbEntity
  8
0
  6
Continuous
 62
     7
100
AcDbLine
 10
-2067.451088596009
 20
838.3102818420551
 30
0.0
 11
-2232.451088596009
 21
838.3102818420551
 31
0.0
  0
LINE
  5
11D
330
1F
100
AcDbEntity
  8
0
  6
Continuous
 62
     7
100
AcDbLine
 10
-2067.451088596009
 20
836.8102818420551
 30
0.0
 11
-2232.451088596009
 21
836.8102818420551
 31
0.0
  0
LINE
  5
11E
330
1F
100
AcDbEntity
  8
0
  6
Continuous
 62
     7
100
AcDbLine
 10
-2232.451088596009
 20
836.8102818420551
 30
0.0
 11
-2232.451088596009
 21
838.3102818420551
 31
0.0
  0
LINE
  5
11F
330
1F
100
AcDbEntity
  8
0
  6
Continuous
 62
     7
100
AcDbLine
 10
-2067.451088596009
 20
836.8102818420551
 30
0.0
 11
-2067.451088596009
 21
838.3102818420551
 31
0.0
  0
ARC
  5
120
330
1F
100
AcDbEntity
  8
0
  6
Continuous
 62
     7
100
AcDbCircle
 10
-2226.451088596009
 20
547.3102818420497
 30
0.0
 40
3.999999999999422
100
AcDbArc
 50
190.7711336721891
 51
259.2288663278092
  0
ARC
  5
121
330
1F
100
AcDbEntity
  8
0
  6
Continuous
 62
     7
100
AcDbCircle
 10
-2073.451088596009
 20
547.3102818420497
 30
0.0
 40
3.999999999999938
100
AcDbArc
 50
280.7711336721844
 51
349.2288663278133
  0
ARC
  5
122
330
1F
100
AcDbEntity
  8
0
  6
Continuous
 62
     7
100
AcDbCircle
 10
-2226.451088596009
 20
735.3102818420501
 30
0.0
 40
3.999999999999464
100
AcDbArc
 50
100.7711336721923
 51
169.2288663278109
  0
ARC
  5
123
330
1F
100
AcDbEntity
  8
0
  6
Continuous
 62
     7
100
AcDbCircle
 10
-2226.451088596009
 20
735.3102818420501
 30
0.0
 40
4.000000000000719
100
AcDbArc
 50
280.7711336721823
 51
349.2288663278101
  0
ARC
  5
124
330
1F
100
AcDbEntity
  8
0
  6
Continuous
 62
     7
100
AcDbCircle
 10
-2226.451088596009
 20
547.3102818420497
 30
0.0
 40
4.000000000000315
100
AcDbArc
 50
10.7711336721867
 51
79.2288663278156
  0
ARC
  5
125
330
1F
100
AcDbEntity
  8
0
  6
Continuous
 62
     7
100
AcDbCircle
 10
-2073.451088596009
 20
547.3102818420497
 30
0.0
 40
4.000000000000023
100
AcDbArc
 50
100.7711336721908
 51
169.2288663278109
  0
ARC
  5
126
330
1F
100
AcDbEntity
  8
0
  6
Continuous
 62
     7
100
AcDbCircle
 10
-2073.451088596009
 20
735.3102818420501
 30
0.0
 40
3.999999999999464
100
AcDbArc
 50
190.7711336721923
 51
259.2288663278113
  0
ARC
  5
127
330
1F
100
AcDbEntity
  8
0
  6
Continuous
 62
     7
100
AcDbCircle
 10
-2073.451088596009
 20
735.3102818420501
 30
0.0
 40
4.000000000000315
100
AcDbArc
 50
10.7711336721867
 51
79.22886632781406
  0
CIRCLE
  5
128
330
1F
100
AcDbEntity
  8
0
  6
Continuous
 62
     7
100
AcDbCircle
 10
-2206.451088596009
 20
733.3102818420501
 30
0.0
 40
2.599999999999909
  0
CIRCLE
  5
129
330
1F
100
AcDbEntity
  8
0
  6
Continuous
 62
     2
100
AcDbCircle
 10
-2216.451088596009
 20
733.3102818420501
 30
0.0
 40
2.91158620230317
  0
CIRCLE
  5
12A
330
1F
100
AcDbEntity
  8
0
  6
Continuous
 62
     2
100
AcDbCircle
 10
-2083.451088596009
 20
549.3102818420497
 30
0.0
 40
2.91158620230226
  0
CIRCLE
  5
12B
330
1F
100
AcDbEntity
  8
0
  6
Continuous
 62
     7
100
AcDbCircle
 10
-2093.451088596009
 20
549.3102818420497
 30
0.0
 40
2.599999999999909
  0
CIRCLE
  5
12C
330
1F
100
AcDbEntity
  8
0
  6
Continuous
 62
     2
100
AcDbCircle
 10
-2083.451088596009
 20
549.3102818420497
 30
0.0
 40
3.099999999999909
  0
CIRCLE
  5
12D
330
1F
100
AcDbEntity
  8
0
  6
Continuous
 62
     2
100
AcDbCircle
 10
-2216.451088596009
 20
733.3102818420501
 30
0.0
 40
3.099999999999909
  0
SPLINE
  5
12E
330
1F
100
AcDbEntity
  8
0
  6
Continuous
 62
     2
100
AcDbSpline
210
0.0
220
0.0
230
1.0
 70
     8
 71
     3
 72
    23
 73
    19
 74
    17
 42
0.0000000001
 43
0.0000000001
 44
0.00000001
 40
0.0
 40
0.0
 40
0.0
 40
0.0
 40
0.2869109381483917
 40
0.5877346662831121
 40
0.9112437992891032
 40
1.259111902309169
 40
1.626774058137204
 40
2.005393246515378
 40
2.384012434893357
 40
2.751674590721236
 40
3.099542693741714
 40
3.423051826747887
 40
3.72387555488269
 40
4.010786493029737
 40
4.205946930717978
 40
4.405729449305708
 40
4.613897569067483
 40
4.832802246744635
 40
4.832802246744635
 40
4.832802246744635
 40
4.832802246744635
 10
-1959.318571431993
 20
935.0627351963701
 30
0.0
 10
-1959.384608041861
 20
935.1332183544685
 30
0.0
 10
-1959.519883486964
 20
935.2776025165734
 30
0.0
 10
-1959.61923604937
 20
935.5733356878745
 30
0.0
 10
-1959.636726013731
 20
935.8995012367665
 30
0.0
 10
-1959.56716778594
 20
936.2424530334752
 30
0.0
 10
-1959.418476064671
 20
936.5781785379306
 30
0.0
 10
-1959.200175734865
 20
936.8860475285359
 30
0.0
 10
-1958.926688003543
 20
937.1460470025906
 30
0.0
 10
-1958.615538978861
 20
937.341297342774
 30
0.0
 10
-1958.286408359581
 20
937.4587205627909
 30
0.0
 10
-1957.959858496884
 20
937.4893970600706
 30
0.0
 10
-1957.657120081216
 20
937.428613503009
 30
0.0
 10
-1957.427964106379
 20
937.2925079114971
 30
0.0
 10
-1957.273834124104
 20
937.1225785017632
 30
0.0
 10
-1957.176614319415
 20
936.9448928504429
 30
0.0
 10
-1957.11555875076
 20
936.7428685143345
 30
0.0
 10
-1957.108430865827
 20
936.6002576554522
 30
0.0
 10
-1957.104777326283
 20
936.5271596162322
 30
0.0
 11
-1959.318571431993
 21
935.0627351963701
 31
0.0
 11
-1959.499715207637
 21
935.2852319805594
 31
0.0
 11
-1959.60356679718
 21
935.567561155032
 31
0.0
 11
-1959.623047664622
 21
935.8904832121015
 31
0.0
 11
-1959.556831506358
 21
936.2319910999805
 31
0.0
 11
-1959.409429582901
 21
936.5688117255207
 31
0.0
 11
-1959.190888242964
 21
936.8779915640398
 31
0.0
 11
-1958.916099754961
 21
937.1384599434427
 31
0.0
 11
-1958.603791208899
 21
937.3324672445548
 31
0.0
 11
-1958.275245509798
 21
937.4467910859056
 31
0.0
 11
-1957.952852580318
 21
937.4736417499519
 31
0.0
 11
-1957.658583224872
 21
937.4111880722854
 31
0.0
 11
-1957.412490837074
 21
937.2636874855186
 31
0.0
 11
-1957.28113277807
 21
937.1193522619131
 31
0.0
 11
-1957.184207861789
 21
936.9446564825215
 31
0.0
 11
-1957.124793890908
 21
936.7451472192043
 31
0.0
 11
-1957.104777326283
 21
936.5271596162322
 31
0.0
  0
SPLINE
  5
12F
330
1F
100
AcDbEntity
  8
0
  6
Continuous
 62
     2
100
AcDbSpline
210
0.0
220
0.0
230
1.0
 70
     8
 71
     3
 72
    17
 73
    13
 74
    11
 42
0.0000000001
 43
0.0000000001
 44
0.00000001
 40
0.0
 40
0.0
 40
0.0
 40
0.0
 40
0.2659386702711029
 40
0.5431131154985419
 40
0.8391192413739537
 40
1.156309435596937
 40
1.492155850151299
 40
1.84051255519743
 40
2.193088333952199
 40
2.540911467101523
 40
2.875778070269772
 40
3.191719340300398
 40
3.191719340300398
 40
3.191719340300398
 40
3.191719340300398
 10
-1959.318571431993
 20
935.0627351963701
 30
0.0
 10
-1959.245676839612
 20
935.0109679753587
 30
0.0
 10
-1959.096807895014
 20
934.9052463943051
 30
0.0
 10
-1958.817246857576
 20
934.8433163788116
 30
0.0
 10
-1958.518478359797
 20
934.8549049672162
 30
0.0
 10
-1958.211778851683
 20
934.9439181403361
 30
0.0
 10
-1957.915551564112
 20
935.1022618034144
 30
0.0
 10
-1957.645663279829
 20
935.3211977596753
 30
0.0
 10
-1957.416633671954
 20
935.5881248121309
 30
0.0
 10
-1957.243495509726
 20
935.8881474638977
 30
0.0
 10
-1957.128229772209
 20
936.2044552210525
 30
0.0
 10
-1957.112441771194
 20
936.4216972662817
 30
0.0
 10
-1957.104777326283
 20
936.5271596162322
 30
0.0
 11
-1959.318571431993
 21
935.0627351963701
 31
0.0
 11
-1959.092197332229
 21
934.9231710774085
 31
0.0
 11
-1958.823199801434
 21
934.8563429282972
 31
0.0
 11
-1958.527356893928
 21
934.8661714904426
 31
0.0
 11
-1958.222021912734
 21
934.9520793979412
 31
0.0
 11
-1957.9251047224
 21
935.1090284223193
 31
0.0
 11
-1957.654021243419
 21
935.327811742922
 31
0.0
 11
-1957.424672653545
 21
935.5955969256479
 31
0.0
 11
-1957.250511186315
 21
935.8966761764874
 31
0.0
 11
-1957.141753214486
 21
936.2133895255605
 31
0.0
 11
-1957.104777326283
 21
936.5271596162322
 31
0.0
  0
SPLINE
  5
130
330
1F
100
AcDbEntity
  8
0
  6
Continuous
 62
     7
100
AcDbSpline
210
0.0
220
0.0
230
1.0
 70
     8
 71
     3
 72
    13
 73
     9
 74
     7
 42
0.0000000001
 43
0.0000000001
 44
0.00000001
 40
0.0
 40
0.0
 40
0.0
 40
0.0
 40
0.3824613510162633
 40
0.775643299720713
 40
1.17318883923842
 40
1.568268298333273
 40
1.954317477834097
 40
2.32578114289498
 40
2.32578114289498
 40
2.32578114289498
 40
2.32578114289498
 10
-1962.371961409488
 20
934.1711452215784
 30
0.0
 10
-1962.259593065172
 20
934.2319385328576
 30
0.0
 10
-1962.031706631318
 20
934.3552292246784
 30
0.0
 10
-1961.729950882959
 20
934.6076647795787
 30
0.0
 10
-1961.46331230948
 20
934.9011109356308
 30
0.0
 10
-1961.246488056973
 20
935.2301760629671
 30
0.0
 10
-1961.080654701585
 20
935.5795694165604
 30
0.0
 10
-1961.022594547321
 20
935.8259247978215
 30
0.0
 10
-1960.994123429172
 20
935.9467307663112
 30
0.0
 11
-1962.371961409488
 21
934.1711452215784
 31
0.0
 11
-1962.041757411719
 21
934.3641270986507
 31
0.0
 11
-1961.737398164219
 21
934.6130397203651
 31
0.0
 11
-1961.47091334528
 21
934.9080453088975
 31
0.0
 11
-1961.252835297722
 21
935.2374838375672
 31
0.0
 11
-1961.091783622745
 21
935.5883346990174
 31
0.0
 11
-1960.994123429172
 21
935.9467307663112
 31
0.0
  0
SPLINE
  5
131
330
1F
100
AcDbEntity
  8
0
  6
Continuous
 62
     2
100
AcDbSpline
210
0.0
220
0.0
230
1.0
 70
     8
 71
     3
 72
    17
 73
    13
 74
    11
 42
0.0000000001
 43
0.0000000001
 44
0.00000001
 40
0.0
 40
0.0
 40
0.0
 40
0.0
 40
0.2831480232976172
 40
0.5782589080543166
 40
0.8934201042044152
 40
1.231136226541044
 40
1.588715845614768
 40
1.959615317795295
 40
2.335006887269048
 40
2.70533825918979
 40
3.061874661581408
 40
3.398261039673474
 40
3.398261039673474
 40
3.398261039673474
 40
3.398261039673474
 10
-1959.380244324131
 20
934.9915214746163
 30
0.0
 10
-1959.302632596131
 20
934.9364043068645
 30
0.0
 10
-1959.14413008369
 20
934.8238412987671
 30
0.0
 10
-1958.846478166198
 20
934.7579036844595
 30
0.0
 10
-1958.528375840262
 20
934.7702421905374
 30
0.0
 10
-1958.201829274545
 20
934.8650155606185
 30
0.0
 10
-1957.886432604941
 20
935.0336059170199
 30
0.0
 10
-1957.599079381253
 20
935.2667095990869
 30
0.0
 10
-1957.355228869853
 20
935.5509099644939
 30
0.0
 10
-1957.170886636577
 20
935.8703476028999
 30
0.0
 10
-1957.048161853083
 20
936.2071241841338
 30
0.0
 10
-1957.031352183115
 20
936.4384243392449
 30
0.0
 10
-1957.023191758668
 20
936.5507113409446
 30
0.0
 11
-1959.380244324131
 21
934.9915214746163
 31
0.0
 11
-1959.139221163382
 21
934.8429259192313
 31
0.0
 11
-1958.852816335387
 21
934.7717732045766
 31
0.0
 11
-1958.53782891975
 21
934.7822377900408
 31
0.0
 11
-1958.212735181859
 21
934.8737049473708
 31
0.0
 11
-1957.896603964686
 21
935.0408104155814
 31
0.0
 11
-1957.607978203176
 21
935.2737515846707
 31
0.0
 11
-1957.3637880679
 21
935.5588656114487
 31
0.0
 11
-1957.178356309778
 21
935.8794282232873
 31
0.0
 11
-1957.062560420787
 21
936.216636642997
 31
0.0
 11
-1957.023191758668
 21
936.5507113409446
 31
0.0
  0
SPLINE
  5
132
330
1F
100
AcDbEntity
  8
0
  6
Continuous
 62
     2
100
AcDbSpline
210
0.0
220
0.0
230
1.0
 70
     8
 71
     3
 72
    19
 73
    15
 74
    13
 42
0.0000000001
 43
0.0000000001
 44
0.00000001
 40
0.0
 40
0.0
 40
0.0
 40
0.0
 40
0.3054774430356558
 40
0.6257679968509895
 40
0.9702119674692916
 40
1.340591219338785
 40
1.732045431536271
 40
2.135165724881927
 40
2.53828601822742
 40
2.929740230424225
 40
3.300119482293399
 40
3.644563452911754
 40
3.964854006727782
 40
4.27033144976359
 40
4.27033144976359
 40
4.27033144976359
 40
4.27033144976359
 10
-1957.350817944937
 20
937.3349012072733
 30
0.0
 10
-1957.435136766583
 20
937.3937694052925
 30
0.0
 10
-1957.607863170189
 20
937.5143604184502
 30
0.0
 10
-1957.934615881964
 20
937.5740758118803
 30
0.0
 10
-1958.280986690436
 20
937.5428961056821
 30
0.0
 10
-1958.631805861568
 20
937.4174333358854
 30
0.0
 10
-1958.962976383089
 20
937.2096763339844
 30
0.0
 10
-1959.25419384033
 20
936.93281581956
 30
0.0
 10
-1959.486612190778
 20
936.6050337849324
 30
0.0
 10
-1959.644928220799
 20
936.2475804022356
 30
0.0
 10
-1959.718987134495
 20
935.8824362187404
 30
0.0
 10
-1959.70036549631
 20
935.5351637815498
 30
0.0
 10
-1959.594583625822
 20
935.2202932387229
 30
0.0
 10
-1959.450554275748
 20
935.0665657223997
 30
0.0
 10
-1959.380244324131
 20
934.9915214746163
 30
0.0
 11
-1957.350817944937
 21
937.3349012072733
 31
0.0
 11
-1957.612835398369
 21
937.4919468130726
 31
0.0
 11
-1957.92614743466
 21
937.5584419766412
 31
0.0
 11
-1958.269402970285
 21
937.5298537595113
 31
0.0
 11
-1958.619209431933
 21
937.408131823919
 31
0.0
 11
-1958.951728006182
 21
937.2015699735528
 31
0.0
 11
-1959.24429853428
 21
936.9242462331424
 31
0.0
 11
-1959.476982063715
 21
936.5950588305332
 31
0.0
 11
-1959.63392262153
 21
936.2364419575903
 31
0.0
 11
-1959.704423742347
 21
935.8728345014254
 31
0.0
 11
-1959.683682234153
 21
935.5290155974466
 31
0.0
 11
-1959.573110227964
 21
935.2284164119669
 31
0.0
 11
-1959.380244324131
 21
934.9915214746163
 31
0.0
  0
SPLINE
  5
133
330
1F
100
AcDbEntity
  8
0
  6
Continuous
 62
     7
100
AcDbSpline
210
0.0
220
0.0
230
1.0
 70
     8
 71
     3
 72
    13
 73
     9
 74
     7
 42
0.0000000001
 43
0.0000000001
 44
0.00000001
 40
0.0
 40
0.0
 40
0.0
 40
0.0
 40
0.3824613510166075
 40
0.7756432997214091
 40
1.173188839239268
 40
1.568268298333935
 40
1.954317477834742
 40
2.325781142895126
 40
2.325781142895126
 40
2.325781142895126
 40
2.325781142895126
 10
-1963.019354897424
 20
937.3873282678803
 30
0.0
 10
-1963.13172324174
 20
937.3265349566009
 30
0.0
 10
-1963.359609675593
 20
937.2032442647795
 30
0.0
 10
-1963.661365423953
 20
936.9508087098789
 30
0.0
 10
-1963.928003997433
 20
936.6573625538276
 30
0.0
 10
-1964.144828249937
 20
936.3282974264902
 30
0.0
 10
-1964.310661605328
 20
935.9789040728983
 30
0.0
 10
-1964.368721759592
 20
935.7325486916371
 30
0.0
 10
-1964.39719287774
 20
935.6117427231472
 30
0.0
 11
-1963.019354897424
 21
937.3873282678803
 31
0.0
 11
-1963.349558895193
 21
937.1943463908074
 31
0.0
 11
-1963.653918142693
 21
936.9454337690929
 31
0.0
 11
-1963.920402961632
 21
936.6504281805605
 31
0.0
 11
-1964.138481009189
 21
936.3209896518906
 31
0.0
 11
-1964.299532684167
 21
935.9701387904406
 31
0.0
 11
-1964.39719287774
 21
935.6117427231472
 31
0.0
  0
SPLINE
  5
134
330
1F
100
AcDbEntity
  8
0
  6
Continuous
 62
     7
100
AcDbSpline
210
0.0
220
0.0
230
1.0
 70
     8
 71
     3
 72
    17
 73
    13
 74
    11
 42
0.0000000001
 43
0.0000000001
 44
0.00000001
 40
0.0
 40
0.0
 40
0.0
 40
0.0
 40
0.2692911015229347
 40
0.5589123760135414
 40
0.8704522860912071
 40
1.199834188609763
 40
1.539100627053525
 40
1.878367065497434
 40
2.207748968016168
 40
2.519288878094077
 40
2.808910152584388
 40
3.07820125410723
 40
3.07820125410723
 40
3.07820125410723
 40
3.07820125410723
 10
-1906.115518444453
 20
871.0758780904912
 30
0.0
 10
-1906.028458383718
 20
871.0512609743402
 30
0.0
 10
-1905.847765649624
 20
871.0001682690829
 30
0.0
 10
-1905.553172542266
 20
871.0322735302489
 30
0.0
 10
-1905.25880102208
 20
871.1352079259023
 30
0.0
 10
-1904.979688885289
 20
871.3103136378677
 30
0.0
 10
-1904.734566033439
 20
871.5430959857509
 30
0.0
 10
-1904.539188810195
 20
871.8189593117346
 30
0.0
 10
-1904.405752264126
 20
872.1202237859773
 30
0.0
 10
-1904.345926708085
 20
872.4262809449342
 30
0.0
 10
-1904.356235469974
 20
872.7224389705318
 30
0.0
 10
-1904.432617381361
 20
872.8939794389287
 30
0.0
 10
-1904.469419159129
 20
872.9766298214802
 30
0.0
 11
-1906.115518444453
 21
871.0758780904912
 31
0.0
 11
-1905.85237344703
 21
871.0186731283745
 31
0.0
 11
-1905.563673274763
 21
871.041753275053
 31
0.0
 11
-1905.269229040895
 21
871.1435359293368
 31
0.0
 11
-1904.989246204073
 21
871.3170353494838
 31
0.0
 11
-1904.742938280076
 21
871.5503465640256
 31
0.0
 11
-1904.547206910612
 21
871.8274583596278
 31
0.0
 11
-1904.415484566856
 21
872.1293551331488
 31
0.0
 11
-1904.356809326809
 21
872.4353197255068
 31
0.0
 11
-1904.375208787593
 21
872.7243559559006
 31
0.0
 11
-1904.469419159129
 21
872.9766298214802
 31
0.0
  0
SPLINE
  5
135
330
1F
100
AcDbEntity
  8
0
  6
Continuous
 62
     7
100
AcDbSpline
210
0.0
220
0.0
230
1.0
 70
     8
 71
     3
 72
    19
 73
    15
 74
    13
 42
0.0000000001
 43
0.0000000001
 44
0.00000001
 40
0.0
 40
0.0
 40
0.0
 40
0.0
 40
0.2562068877070658
 40
0.5248376747784071
 40
0.81372616626497
 40
1.124366829122742
 40
1.452683265159477
 40
1.790784156352686
 40
2.128885047545456
 40
2.457201483581858
 40
2.767842146439956
 40
3.056730637926251
 40
3.325361424997558
 40
3.581568312705262
 40
3.581568312705262
 40
3.581568312705262
 40
3.581568312705262
 10
-1905.956018573711
 20
870.8811665629521
 30
0.0
 10
-1905.885299562007
 20
870.8317932355812
 30
0.0
 10
-1905.740432255757
 20
870.7306523858362
 30
0.0
 10
-1905.466381594269
 20
870.6805685074758
 30
0.0
 10
-1905.175877045227
 20
870.7067192288024
 30
0.0
 10
-1904.881641611375
 20
870.811946067988
 30
0.0
 10
-1904.6038856901
 20
870.9861938760332
 30
0.0
 10
-1904.359638790476
 20
871.2183994687757
 30
0.0
 10
-1904.164707270749
 20
871.4933134333032
 30
0.0
 10
-1904.031926084277
 20
871.7931130445969
 30
0.0
 10
-1903.969812156663
 20
872.0993630049477
 30
0.0
 10
-1903.985430304816
 20
872.3906237587207
 30
0.0
 10
-1904.074150583292
 20
872.6547087301237
 30
0.0
 10
-1904.19494939303
 20
872.7836414857495
 30
0.0
 10
-1904.253919029871
 20
872.8465818226002
 30
0.0
 11
-1905.956018573711
 21
870.8811665629521
 31
0.0
 11
-1905.736261999865
 21
870.7494508935723
 31
0.0
 11
-1905.473484162975
 21
870.6936807563858
 31
0.0
 11
-1905.185592423419
 21
870.7176579707526
 31
0.0
 11
-1904.892206358811
 21
870.8197473360883
 31
0.0
 11
-1904.613319812667
 21
870.992992758976
 31
0.0
 11
-1904.367938079422
 21
871.225586863836
 31
0.0
 11
-1904.17278415151
 21
871.501679524089
 31
0.0
 11
-1904.04115658689
 21
871.8024549659124
 31
0.0
 11
-1903.982026614593
 21
872.1074160581799
 31
0.0
 11
-1903.999422718239
 21
872.3957803002265
 31
0.0
 11
-1904.092160529882
 21
872.6478957461125
 31
0.0
 11
-1904.253919029871
 21
872.8465818226002
 31
0.0
  0
SPLINE
  5
136
330
1F
100
AcDbEntity
  8
0
  6
Continuous
 62
     2
100
AcDbSpline
210
0.0
220
0.0
230
1.0
 70
     8
 71
     3
 72
    11
 73
     7
 74
     5
 42
0.0000000001
 43
0.0000000001
 44
0.00000001
 40
0.0
 40
0.0
 40
0.0
 40
0.0
 40
0.2330703793902427
 40
0.4547094195640677
 40
0.6674202117543384
 40
0.8752098201662929
 40
0.8752098201662929
 40
0.8752098201662929
 40
0.8752098201662929
 10
-1902.117181158735
 20
872.7263741927761
 30
0.0
 10
-1902.113330778351
 20
872.6485010939832
 30
0.0
 10
-1902.105818866135
 20
872.4965743169962
 30
0.0
 10
-1902.040262172344
 20
872.2820986292289
 30
0.0
 10
-1901.938723763704
 20
872.0906842151588
 30
0.0
 10
-1901.838888439932
 20
871.9912965728339
 30
0.0
 10
-1901.789554972466
 20
871.9421843264479
 30
0.0
 11
-1902.117181158735
 21
872.7263741927761
 31
0.0
 11
-1902.095869287464
 21
872.4942802335871
 31
0.0
 11
-1902.032610535384
 21
872.2818603794904
 31
0.0
 11
-1901.929413439508
 21
872.0958597329405
 31
0.0
 11
-1901.789554972466
 21
871.9421843264479
 31
0.0
  0
SPLINE
  5
137
330
1F
100
AcDbEntity
  8
0
  6
Continuous
 62
     2
100
AcDbSpline
210
0.0
220
0.0
230
1.0
 70
     8
 71
     3
 72
    23
 73
    19
 74
    17
 42
0.0000000001
 43
0.0000000001
 44
0.00000001
 40
0.0
 40
0.0
 40
0.0
 40
0.0
 40
0.2189046776765853
 40
0.4270727974382077
 40
0.6268553160260483
 40
0.8220157537142354
 40
1.108926691862063
 40
1.409750419997135
 40
1.733259553002883
 40
2.081127656022792
 40
2.44878981185067
 40
2.827409000229145
 40
3.20602818860745
 40
3.573690344435276
 40
3.921558447455205
 40
4.245067580461337
 40
4.545891308596243
 40
4.832802246743906
 40
4.832802246743906
 40
4.832802246743906
 40
4.832802246743906
 10
-1902.03559559112
 20
872.7499259174881
 30
0.0
 10
-1902.031942051576
 20
872.6768278782686
 30
0.0
 10
-1902.024814166644
 20
872.5342170193866
 30
0.0
 10
-1901.963758597987
 20
872.3321926832776
 30
0.0
 10
-1901.866538793299
 20
872.1545070319582
 30
0.0
 10
-1901.712408811024
 20
871.984577622223
 30
0.0
 10
-1901.483252836186
 20
871.848472030712
 30
0.0
 10
-1901.180514420518
 20
871.7876884736497
 30
0.0
 10
-1900.853964557821
 20
871.8183649709301
 30
0.0
 10
-1900.524833938541
 20
871.9357881909469
 30
0.0
 10
-1900.213684913859
 20
872.1310385311308
 30
0.0
 10
-1899.940197182538
 20
872.3910380051848
 30
0.0
 10
-1899.72189685273
 20
872.6989069957901
 30
0.0
 10
-1899.573205131463
 20
873.0346325002457
 30
0.0
 10
-1899.50364690367
 20
873.3775842969543
 30
0.0
 10
-1899.521136868033
 20
873.7037498458465
 30
0.0
 10
-1899.620489430438
 20
873.999483017147
 30
0.0
 10
-1899.755764875541
 20
874.1438671792523
 30
0.0
 10
-1899.821801485409
 20
874.2143503373502
 30
0.0
 11
-1902.03559559112
 21
872.7499259174881
 31
0.0
 11
-1902.015579026495
 21
872.5319383145165
 31
0.0
 11
-1901.956165055614
 21
872.3324290511996
 31
0.0
 11
-1901.859240139333
 21
872.157733271808
 31
0.0
 11
-1901.727882080329
 21
872.0133980482021
 31
0.0
 11
-1901.481789692531
 21
871.8658974614353
 31
0.0
 11
-1901.187520337084
 21
871.8034437837687
 31
0.0
 11
-1900.865127407604
 21
871.8302944478153
 31
0.0
 11
-1900.536581708504
 21
871.9446182891663
 31
0.0
 11
-1900.224273162442
 21
872.1386255902784
 31
0.0
 11
-1899.949484674438
 21
872.3990939696813
 31
0.0
 11
-1899.730943334501
 21
872.7082738082004
 31
0.0
 11
-1899.583541411044
 21
873.0450944337404
 31
0.0
 11
-1899.51732525278
 21
873.3866023216192
 31
0.0
 11
-1899.536806120223
 21
873.7095243786888
 31
0.0
 11
-1899.640657709765
 21
873.9918535531615
 31
0.0
 11
-1899.821801485409
 21
874.2143503373502
 31
0.0
  0
SPLINE
  5
138
330
1F
100
AcDbEntity
  8
0
  6
Continuous
 62
     2
100
AcDbSpline
210
0.0
220
0.0
230
1.0
 70
     8
 71
     3
 72
    17
 73
    13
 74
    11
 42
0.0000000001
 43
0.0000000001
 44
0.00000001
 40
0.0
 40
0.0
 40
0.0
 40
0.0
 40
0.2659386702717882
 40
0.5431131154999167
 40
0.8391192413748815
 40
1.156309435597676
 40
1.492155850152027
 40
1.840512555197699
 40
2.193088333952998
 40
2.540911467102436
 40
2.875778070270759
 40
3.191719340301949
 40
3.191719340301949
 40
3.191719340301949
 40
3.191719340301949
 10
-1899.821801485409
 20
874.2143503373502
 30
0.0
 10
-1899.89469607779
 20
874.266117558362
 30
0.0
 10
-1900.043565022388
 20
874.3718391394157
 30
0.0
 10
-1900.323126059827
 20
874.4337691549098
 30
0.0
 10
-1900.621894557606
 20
874.4221805665044
 30
0.0
 10
-1900.928594065718
 20
874.333167393384
 30
0.0
 10
-1901.224821353291
 20
874.174823730307
 30
0.0
 10
-1901.494709637572
 20
873.9558877740449
 30
0.0
 10
-1901.723739245448
 20
873.6889607215903
 30
0.0
 10
-1901.896877407678
 20
873.3889380698234
 30
0.0
 10
-1902.012143145194
 20
873.0726303126687
 30
0.0
 10
-1902.027931146209
 20
872.8553882674387
 30
0.0
 10
-1902.03559559112
 20
872.7499259174881
 30
0.0
 11
-1899.821801485409
 21
874.2143503373502
 31
0.0
 11
-1900.048175585174
 21
874.3539144563124
 31
0.0
 11
-1900.317173115969
 21
874.4207426054238
 31
0.0
 11
-1900.613016023475
 21
874.4109140432781
 31
0.0
 11
-1900.918351004668
 21
874.3250061357794
 31
0.0
 11
-1901.215268195002
 21
874.1680571114018
 31
0.0
 11
-1901.486351673983
 21
873.949273790799
 31
0.0
 11
-1901.715700263857
 21
873.681488608073
 31
0.0
 11
-1901.889861731087
 21
873.3804093572335
 31
0.0
 11
-1901.998619702917
 21
873.0636960081604
 31
0.0
 11
-1902.03559559112
 21
872.7499259174881
 31
0.0
  0
SPLINE
  5
139
330
1F
100
AcDbEntity
  8
0
  6
Continuous
 62
     2
100
AcDbSpline
210
0.0
220
0.0
230
1.0
 70
     8
 71
     3
 72
    17
 73
    13
 74
    11
 42
0.0000000001
 43
0.0000000001
 44
0.00000001
 40
0.0
 40
0.0
 40
0.0
 40
0.0
 40
0.2831480232981979
 40
0.5782589080542079
 40
0.8934201042047647
 40
1.23113622654202
 40
1.588715845615246
 40
1.959615317796022
 40
2.335006887269923
 40
2.70533825919024
 40
3.061874661581858
 40
3.39826103967423
 40
3.39826103967423
 40
3.39826103967423
 40
3.39826103967423
 10
-1899.760128593271
 20
874.2855640591049
 30
0.0
 10
-1899.837740321271
 20
874.3406812268568
 30
0.0
 10
-1899.996242833712
 20
874.4532442349538
 30
0.0
 10
-1900.293894751205
 20
874.5191818492622
 30
0.0
 10
-1900.611997077141
 20
874.5068433431829
 30
0.0
 10
-1900.938543642858
 20
874.4120699731033
 30
0.0
 10
-1901.253940312462
 20
874.2434796167006
 30
0.0
 10
-1901.541293536149
 20
874.0103759346339
 30
0.0
 10
-1901.78514404755
 20
873.726175569227
 30
0.0
 10
-1901.969486280825
 20
873.4067379308211
 30
0.0
 10
-1902.09221106432
 20
873.0699613495871
 30
0.0
 10
-1902.109020734288
 20
872.838661194476
 30
0.0
 10
-1902.117181158735
 20
872.7263741927761
 30
0.0
 11
-1899.760128593271
 21
874.2855640591049
 31
0.0
 11
-1900.00115175402
 21
874.4341596144899
 31
0.0
 11
-1900.287556582015
 21
874.5053123291445
 31
0.0
 11
-1900.602543997653
 21
874.4948477436802
 31
0.0
 11
-1900.927637735545
 21
874.4033805863503
 31
0.0
 11
-1901.243768952716
 21
874.2362751181395
 31
0.0
 11
-1901.532394714226
 21
874.0033339490501
 31
0.0
 11
-1901.776584849503
 21
873.718219922272
 31
0.0
 11
-1901.962016607624
 21
873.3976573104337
 31
0.0
 11
-1902.077812496615
 21
873.060448890724
 31
0.0
 11
-1902.117181158735
 21
872.7263741927761
 31
0.0
  0
SPLINE
  5
13A
330
1F
100
AcDbEntity
  8
0
  6
Continuous
 62
     7
100
AcDbSpline
210
0.0
220
0.0
230
1.0
 70
     8
 71
     3
 72
    17
 73
    13
 74
    11
 42
0.0000000001
 43
0.0000000001
 44
0.00000001
 40
0.0
 40
0.0
 40
0.0
 40
0.0
 40
0.2374789872816807
 40
0.484991342238571
 40
0.7493200873975596
 40
1.0325658674219
 40
1.332471354386564
 40
1.643548331053835
 40
1.958392873193012
 40
2.268993378674693
 40
2.568023909712646
 40
2.85015442037107
 40
2.85015442037107
 40
2.85015442037107
 40
2.85015442037107
 10
-1904.253919029871
 20
872.8465818226002
 30
0.0
 10
-1904.319012737225
 20
872.8928091245855
 30
0.0
 10
-1904.451950328305
 20
872.9872168087963
 30
0.0
 10
-1904.701593872009
 20
873.0425193240221
 30
0.0
 10
-1904.968389371181
 20
873.0321708995689
 30
0.0
 10
-1905.242267135976
 20
872.9526835569212
 30
0.0
 10
-1905.506793374998
 20
872.8112851934868
 30
0.0
 10
-1905.747799304542
 20
872.6157788794958
 30
0.0
 10
-1905.952319088297
 20
872.3774172827023
 30
0.0
 10
-1906.106928703302
 20
872.1095018440396
 30
0.0
 10
-1906.209859166879
 20
871.8270440662307
 30
0.0
 10
-1906.223957599756
 20
871.6330503877502
 30
0.0
 10
-1906.230801826711
 20
871.5388741927761
 30
0.0
 11
-1904.253919029871
 21
872.8465818226002
 31
0.0
 11
-1904.456067487273
 21
872.971210352923
 31
0.0
 11
-1904.696277988172
 21
873.0308868232785
 31
0.0
 11
-1904.960460981933
 21
873.0221100741793
 31
0.0
 11
-1905.233120245971
 21
872.9453956841608
 31
0.0
 11
-1905.498262557147
 21
872.8052427108228
 31
0.0
 11
-1905.740335776478
 21
872.6098726980382
 31
0.0
 11
-1905.945140406064
 21
872.3707448046114
 31
0.0
 11
-1906.100663816102
 21
872.1018858398438
 31
0.0
 11
-1906.197782948804
 21
871.8190658749263
 31
0.0
 11
-1906.230801826711
 21
871.5388741927761
 31
0.0
  0
SPLINE
  5
13B
330
1F
100
AcDbEntity
  8
0
  6
Continuous
 62
     7
100
AcDbSpline
210
0.0
220
0.0
230
1.0
 70
     8
 71
     3
 72
    13
 73
     9
 74
     7
 42
0.0000000001
 43
0.0000000001
 44
0.00000001
 40
0.0
 40
0.0
 40
0.0
 40
0.0
 40
0.3824613510163538
 40
0.7756432997210514
 40
1.173188839238268
 40
1.568268298333342
 40
1.954317477834364
 40
2.325781142894967
 40
2.325781142894967
 40
2.325781142894967
 40
2.325781142894967
 10
-1896.768411507915
 20
875.1059403121428
 30
0.0
 10
-1896.880779852231
 20
875.0451470008636
 30
0.0
 10
-1897.108666286084
 20
874.9218563090424
 30
0.0
 10
-1897.410422034444
 20
874.6694207541418
 30
0.0
 10
-1897.677060607922
 20
874.3759745980901
 30
0.0
 10
-1897.89388486043
 20
874.0469094707536
 30
0.0
 10
-1898.059718215819
 20
873.6975161171608
 30
0.0
 10
-1898.117778370083
 20
873.4511607358997
 30
0.0
 10
-1898.146249488231
 20
873.3303547674097
 30
0.0
 11
-1896.768411507915
 21
875.1059403121428
 31
0.0
 11
-1897.098615505684
 21
874.91295843507
 31
0.0
 11
-1897.402974753184
 21
874.6640458133554
 31
0.0
 11
-1897.669459572123
 21
874.3690402248235
 31
0.0
 11
-1897.887537619681
 21
874.0396016961537
 31
0.0
 11
-1898.048589294658
 21
873.6887508347033
 31
0.0
 11
-1898.146249488231
 21
873.3303547674097
 31
0.0
  0
SPLINE
  5
13C
330
1F
100
AcDbEntity
  8
0
  6
Continuous
 62
     7
100
AcDbSpline
210
0.0
220
0.0
230
1.0
 70
     8
 71
     3
 72
    11
 73
     7
 74
     5
 42
0.0000000001
 43
0.0000000001
 44
0.00000001
 40
0.0
 40
0.0
 40
0.0
 40
0.0
 40
0.2787869703252031
 40
0.5449872830152103
 40
0.8015374042347811
 40
1.052829285412551
 40
1.052829285412551
 40
1.052829285412551
 40
1.052829285412551
 10
-1896.768411507915
 20
953.1092588193121
 30
0.0
 10
-1896.861526050843
 20
953.1045553255653
 30
0.0
 10
-1897.043551206823
 20
953.0953606911281
 30
0.0
 10
-1897.308054253477
 20
953.1452177682963
 30
0.0
 10
-1897.551495862265
 20
953.2388037951798
 30
0.0
 10
-1897.686980965825
 20
953.341541752756
 30
0.0
 10
-1897.754022105362
 20
953.3923788526922
 30
0.0
 11
-1896.768411507915
 21
953.1092588193121
 31
0.0
 11
-1897.047184077016
 21
953.106425174979
 31
0.0
 11
-1897.309139282675
 21
953.1537757473559
 31
0.0
 11
-1897.546964830244
 21
953.2499889149624
 31
0.0
 11
-1897.754022105362
 21
953.3923788526922
 31
0.0
  0
SPLINE
  5
13D
330
1F
100
AcDbEntity
  8
0
  6
Continuous
 62
     2
100
AcDbSpline
210
0.0
220
0.0
230
1.0
 70
     8
 71
     3
 72
    19
 73
    15
 74
    13
 42
0.0000000001
 43
0.0000000001
 44
0.00000001
 40
0.0
 40
0.0
 40
0.0
 40
0.0
 40
0.3054774430357143
 40
0.6257679968517389
 40
0.9702119674704942
 40
1.340591219339344
 40
1.73204543153665
 40
2.135165724882227
 40
2.538286018227736
 40
2.929740230424932
 40
3.300119482294106
 40
3.644563452912448
 40
3.964854006728183
 40
4.270331449764112
 40
4.270331449764112
 40
4.270331449764112
 40
4.270331449764112
 10
-1901.789554972466
 20
871.9421843264479
 30
0.0
 10
-1901.70523615082
 20
871.8833161284288
 30
0.0
 10
-1901.532509747213
 20
871.7627251152705
 30
0.0
 10
-1901.205757035439
 20
871.7030097218411
 30
0.0
 10
-1900.859386226965
 20
871.7341894280382
 30
0.0
 10
-1900.508567055835
 20
871.8596521978361
 30
0.0
 10
-1900.177396534314
 20
872.0674091997362
 30
0.0
 10
-1899.886179077072
 20
872.3442697141604
 30
0.0
 10
-1899.653760726625
 20
872.6720517487888
 30
0.0
 10
-1899.495444696603
 20
873.029505131485
 30
0.0
 10
-1899.421385782909
 20
873.3946493149808
 30
0.0
 10
-1899.440007421091
 20
873.741921752171
 30
0.0
 10
-1899.545789291581
 20
874.0567922949981
 30
0.0
 10
-1899.689818641654
 20
874.2105198113213
 30
0.0
 10
-1899.760128593271
 20
874.2855640591049
 30
0.0
 11
-1901.789554972466
 21
871.9421843264479
 31
0.0
 11
-1901.527537519034
 21
871.7851387206485
 31
0.0
 11
-1901.214225482742
 21
871.7186435570798
 31
0.0
 11
-1900.870969947117
 21
871.7472317742097
 31
0.0
 11
-1900.52116348547
 21
871.868953709802
 31
0.0
 11
-1900.188644911221
 21
872.0755155601679
 31
0.0
 11
-1899.896074383122
 21
872.3528393005781
 31
0.0
 11
-1899.663390853688
 21
872.6820267031877
 31
0.0
 11
-1899.506450295872
 21
873.0406435761308
 31
0.0
 11
-1899.435949175055
 21
873.4042510322957
 31
0.0
 11
-1899.456690683249
 21
873.7480699362745
 31
0.0
 11
-1899.567262689438
 21
874.048669121754
 31
0.0
 11
-1899.760128593271
 21
874.2855640591049
 31
0.0
  0
SPLINE
  5
13E
330
1F
100
AcDbEntity
  8
0
  6
Continuous
 62
     7
100
AcDbSpline
210
0.0
220
0.0
230
1.0
 70
     8
 71
     3
 72
    13
 73
     9
 74
     7
 42
0.0000000001
 43
0.0000000001
 44
0.00000001
 40
0.0
 40
0.0
 40
0.0
 40
0.0
 40
0.3732499619331656
 40
0.7568530816051443
 40
1.144919816376062
 40
1.531099346241278
 40
1.909234215638496
 40
2.274018763907925
 40
2.274018763907925
 40
2.274018763907925
 40
2.274018763907925
 10
-1962.746961409488
 20
934.4959047479972
 30
0.0
 10
-1962.637239776634
 20
934.5550984975657
 30
0.0
 10
-1962.414753066887
 20
934.6751279050458
 30
0.0
 10
-1962.118949418048
 20
934.9197368104013
 30
0.0
 10
-1961.856144153353
 20
935.203936530952
 30
0.0
 10
-1961.640177486189
 20
935.5229430479019
 30
0.0
 10
-1961.472260523832
 20
935.8623896716904
 30
0.0
 10
-1961.409706811337
 20
936.1025667929424
 30
0.0
 10
-1961.378992002688
 20
936.2204973525661
 30
0.0
 11
-1962.746961409488
 21
934.4959047479972
 31
0.0
 11
-1962.424349659181
 21
934.6836204709587
 31
0.0
 11
-1962.126087483208
 21
934.9248486364075
 31
0.0
 11
-1961.86341202938
 21
935.2105012166375
 31
0.0
 11
-1961.646219389871
 21
935.5298160873058
 31
0.0
 11
-1961.482692514172
 21
935.8707632098603
 31
0.0
 11
-1961.378992002688
 21
936.2204973525661
 31
0.0
  0
SPLINE
  5
13F
330
1F
100
AcDbEntity
  8
0
  6
Continuous
 62
     7
100
AcDbSpline
210
0.0
220
0.0
230
1.0
 70
     8
 71
     3
 72
     9
 73
     5
 74
     3
 42
0.0000000001
 43
0.0000000001
 44
0.00000001
 40
0.0
 40
0.0
 40
0.0
 40
0.0
 40
0.4134865047711296
 40
0.8016359142785672
 40
0.8016359142785672
 40
0.8016359142785672
 40
0.8016359142785672
 10
-1897.143411507915
 20
953.4340183457314
 30
0.0
 10
-1897.283078845763
 20
953.4286068027322
 30
0.0
 10
-1897.553855165616
 20
953.4181153183197
 30
0.0
 10
-1897.802907195133
 20
953.5242040198966
 30
0.0
 10
-1897.923497348932
 20
953.5755718118569
 30
0.0
 11
-1897.143411507915
 21
953.4340183457314
 31
0.0
 11
-1897.556633706349
 21
953.4488002383403
 31
0.0
 11
-1897.923497348932
 21
953.5755718118569
 31
0.0
  0
SPLINE
  5
140
330
1F
100
AcDbEntity
  8
0
  6
Continuous
 62
     7
100
AcDbSpline
210
0.0
220
0.0
230
1.0
 70
     8
 71
     3
 72
    11
 73
     7
 74
     5
 42
0.0000000001
 43
0.0000000001
 44
0.00000001
 40
0.0
 40
0.0
 40
0.0
 40
0.0
 40
0.1973379821485187
 40
0.397263695943924
 40
0.602094578549053
 40
0.8136650711983795
 40
0.8136650711983795
 40
0.8136650711983795
 40
0.8136650711983795
 10
-1897.754022105362
 20
953.3923788526922
 30
0.0
 10
-1897.801633574696
 20
953.438032389844
 30
0.0
 10
-1897.897480851896
 20
953.5299381279309
 30
0.0
 10
-1898.008814415131
 20
953.6985447739564
 30
0.0
 10
-1898.096444818832
 20
953.88554437522
 30
0.0
 10
-1898.129469758151
 20
954.0206851805983
 30
0.0
 10
-1898.14624948823
 20
954.0893492352102
 30
0.0
 11
-1897.754022105362
 21
953.3923788526922
 31
0.0
 11
-1897.891331926076
 21
953.5341120257106
 31
0.0
 11
-1898.003687871224
 21
953.6994795939532
 31
0.0
 11
-1898.08915179539
 21
953.8856290181668
 31
0.0
 11
-1898.14624948823
 21
954.0893492352102
 31
0.0
  0
SPLINE
  5
141
330
1F
100
AcDbEntity
  8
0
  6
Continuous
 62
     7
100
AcDbSpline
210
0.0
220
0.0
230
1.0
 70
     8
 71
     3
 72
     9
 73
     5
 74
     3
 42
0.0000000001
 43
0.0000000001
 44
0.00000001
 40
0.0
 40
0.0
 40
0.0
 40
0.0
 40
0.2480402809954061
 40
0.4811944424213179
 40
0.4811944424213179
 40
0.4811944424213179
 40
0.4811944424213179
 10
-1953.284571090692
 20
938.0629708673637
 30
0.0
 10
-1953.288945129416
 20
938.1464335192334
 30
0.0
 10
-1953.297430699246
 20
938.3083498179419
 30
0.0
 10
-1953.366424675594
 20
938.4549395409609
 30
0.0
 10
-1953.39985447295
 20
938.5259669696486
 30
0.0
 11
-1953.284571090692
 21
938.0629708673637
 31
0.0
 11
-1953.313770722468
 21
938.3092864423897
 31
0.0
 11
-1953.39985447295
 21
938.5259669696486
 31
0.0
  0
SPLINE
  5
142
330
1F
100
AcDbEntity
  8
0
  6
Continuous
 62
     7
100
AcDbSpline
210
0.0
220
0.0
230
1.0
 70
     8
 71
     3
 72
    11
 73
     7
 74
     5
 42
0.0000000001
 43
0.0000000001
 44
0.00000001
 40
0.0
 40
0.0
 40
0.0
 40
0.0
 40
0.1954783827144704
 40
0.3813691906019585
 40
0.559771790503578
 40
0.7340469459457619
 40
0.7340469459457619
 40
0.7340469459457619
 40
0.7340469459457619
 10
-1952.909571090692
 20
937.7382113409446
 30
0.0
 10
-1952.912800441982
 20
937.8035242625128
 30
0.0
 10
-1952.919100755453
 20
937.9309467206309
 30
0.0
 10
-1952.974083788955
 20
938.110829555533
 30
0.0
 10
-1953.059245034911
 20
938.2713706770103
 30
0.0
 10
-1953.142977887107
 20
938.3547280544449
 30
0.0
 10
-1953.184354343691
 20
938.3959189707687
 30
0.0
 11
-1952.909571090692
 21
937.7382113409446
 31
0.0
 11
-1952.927445563371
 21
937.9328707905871
 31
0.0
 11
-1952.980501290921
 21
938.1110293778939
 31
0.0
 11
-1953.067053693914
 21
938.2670299201616
 31
0.0
 11
-1953.184354343691
 21
938.3959189707687
 31
0.0
  0
SPLINE
  5
143
330
1F
100
AcDbEntity
  8
0
  6
Continuous
 62
     2
100
AcDbSpline
210
0.0
220
0.0
230
1.0
 70
     8
 71
     3
 72
    11
 73
     7
 74
     5
 42
0.0000000001
 43
0.0000000001
 44
0.00000001
 40
0.0
 40
0.0
 40
0.0
 40
0.0
 40
0.2330703793904692
 40
0.4547094195640763
 40
0.6674202117545458
 40
0.8752098201666685
 40
0.8752098201666685
 40
0.8752098201666685
 40
0.8752098201666685
 10
-1957.023191758668
 20
936.5507113409446
 30
0.0
 10
-1957.027042139053
 20
936.6285844397379
 30
0.0
 10
-1957.034554051267
 20
936.7805112167248
 30
0.0
 10
-1957.100110745059
 20
936.9949869044916
 30
0.0
 10
-1957.201649153698
 20
937.186401318562
 30
0.0
 10
-1957.301484477472
 20
937.2857889608874
 30
0.0
 10
-1957.350817944937
 20
937.3349012072733
 30
0.0
 11
-1957.023191758668
 21
936.5507113409446
 31
0.0
 11
-1957.044503629939
 21
936.7828053001339
 31
0.0
 11
-1957.107762382019
 21
936.9952251542304
 31
0.0
 11
-1957.210959477895
 21
937.1812258007805
 31
0.0
 11
-1957.350817944937
 21
937.3349012072733
 31
0.0
  0
SPLINE
  5
144
330
1F
100
AcDbEntity
  8
0
  6
Continuous
 62
     7
100
AcDbSpline
210
0.0
220
0.0
230
1.0
 70
     8
 71
     3
 72
    17
 73
    13
 74
    11
 42
0.0000000001
 43
0.0000000001
 44
0.00000001
 40
0.0
 40
0.0
 40
0.0
 40
0.0
 40
0.2374789872822468
 40
0.4849913422393303
 40
0.7493200873980879
 40
1.032565867422647
 40
1.332471354387365
 40
1.643548331054563
 40
1.958392873194062
 40
2.268993378675712
 40
2.56802390971388
 40
2.850154420371686
 40
2.850154420371686
 40
2.850154420371686
 40
2.850154420371686
 10
-1954.886453887532
 20
936.4305037111208
 30
0.0
 10
-1954.821360180177
 20
936.3842764091352
 30
0.0
 10
-1954.688422589097
 20
936.2898687249241
 30
0.0
 10
-1954.438779045395
 20
936.2345662096991
 30
0.0
 10
-1954.171983546221
 20
936.2449146341515
 30
0.0
 10
-1953.898105781427
 20
936.3244019767994
 30
0.0
 10
-1953.633579542404
 20
936.4658003402337
 30
0.0
 10
-1953.39257361286
 20
936.6613066542253
 30
0.0
 10
-1953.188053829106
 20
936.8996682510184
 30
0.0
 10
-1953.0334442141
 20
937.1675836896814
 30
0.0
 10
-1952.930513750523
 20
937.4500414674903
 30
0.0
 10
-1952.916415317647
 20
937.6440351459707
 30
0.0
 10
-1952.909571090692
 20
937.7382113409446
 30
0.0
 11
-1954.886453887532
 21
936.4305037111208
 31
0.0
 11
-1954.68430543013
 21
936.3058751807977
 31
0.0
 11
-1954.44409492923
 21
936.2461987104423
 31
0.0
 11
-1954.17991193547
 21
936.2549754595414
 31
0.0
 11
-1953.907252671431
 21
936.3316898495599
 31
0.0
 11
-1953.642110360255
 21
936.471842822898
 31
0.0
 11
-1953.400037140924
 21
936.6672128356824
 31
0.0
 11
-1953.195232511338
 21
936.9063407291095
 31
0.0
 11
-1953.039709101301
 21
937.1751996938773
 31
0.0
 11
-1952.942589968598
 21
937.458019658795
 31
0.0
 11
-1952.909571090692
 21
937.7382113409446
 31
0.0
  0
SPLINE
  5
145
330
1F
100
AcDbEntity
  8
0
  6
Continuous
 62
     7
100
AcDbSpline
210
0.0
220
0.0
230
1.0
 70
     8
 71
     3
 72
    19
 73
    15
 74
    13
 42
0.0000000001
 43
0.0000000001
 44
0.00000001
 40
0.0
 40
0.0
 40
0.0
 40
0.0
 40
0.2562068877076509
 40
0.52483767477877
 40
0.8137261662653517
 40
1.124366829123656
 40
1.452683265159691
 40
1.790784156352571
 40
2.128885047545526
 40
2.457201483582123
 40
2.767842146440016
 40
3.056730637926425
 40
3.325361424998053
 40
3.581568312705349
 40
3.581568312705349
 40
3.581568312705349
 40
3.581568312705349
 10
-1953.184354343691
 20
938.3959189707687
 30
0.0
 10
-1953.255073355394
 20
938.4452922981393
 30
0.0
 10
-1953.399940661645
 20
938.5464331478843
 30
0.0
 10
-1953.673991323133
 20
938.5965170262449
 30
0.0
 10
-1953.964495872175
 20
938.5703663049177
 30
0.0
 10
-1954.258731306028
 20
938.4651394657334
 30
0.0
 10
-1954.536487227303
 20
938.2908916576876
 30
0.0
 10
-1954.780734126926
 20
938.0586860649453
 30
0.0
 10
-1954.975665646654
 20
937.783772100418
 30
0.0
 10
-1955.108446833125
 20
937.4839724891241
 30
0.0
 10
-1955.17056076074
 20
937.1777225287734
 30
0.0
 10
-1955.154942612586
 20
936.8864617750002
 30
0.0
 10
-1955.066222334111
 20
936.6223768035971
 30
0.0
 10
-1954.945423524372
 20
936.4934440479713
 30
0.0
 10
-1954.886453887532
 20
936.4305037111208
 30
0.0
 11
-1953.184354343691
 21
938.3959189707687
 31
0.0
 11
-1953.404110917537
 21
938.5276346401484
 31
0.0
 11
-1953.666888754427
 21
938.583404777335
 31
0.0
 11
-1953.954780493983
 21
938.5594275629679
 31
0.0
 11
-1954.248166558592
 21
938.4573381976326
 31
0.0
 11
-1954.527053104736
 21
938.2840927747451
 31
0.0
 11
-1954.77243483798
 21
938.0514986698851
 31
0.0
 11
-1954.967588765892
 21
937.7754060096319
 31
0.0
 11
-1955.099216330512
 21
937.4746305678084
 31
0.0
 11
-1955.15834630281
 21
937.1696694755412
 31
0.0
 11
-1955.140950199164
 21
936.8813052334945
 31
0.0
 11
-1955.048212387521
 21
936.6291897876082
 31
0.0
 11
-1954.886453887532
 21
936.4305037111208
 31
0.0
  0
SPLINE
  5
146
330
1F
100
AcDbEntity
  8
0
  6
Continuous
 62
     7
100
AcDbSpline
210
0.0
220
0.0
230
1.0
 70
     8
 71
     3
 72
    15
 73
    11
 74
     9
 42
0.0000000001
 43
0.0000000001
 44
0.00000001
 40
0.0
 40
0.0
 40
0.0
 40
0.0
 40
0.2783646951626506
 40
0.5785562079449247
 40
0.9019884625246679
 40
1.243752384416398
 40
1.594742547509787
 40
1.943950713348128
 40
2.28072630044333
 40
2.597047604396886
 40
2.597047604396886
 40
2.597047604396886
 40
2.597047604396886
 10
-1955.045953758274
 20
936.6252152386598
 30
0.0
 10
-1954.955829476809
 20
936.6000725817667
 30
0.0
 10
-1954.768514190662
 20
936.5478158104067
 30
0.0
 10
-1954.463416241235
 20
936.5855528119333
 30
0.0
 10
-1954.160072320331
 20
936.6982460929428
 30
0.0
 10
-1953.875133638683
 20
936.8867494465113
 30
0.0
 10
-1953.628310606611
 20
937.1346680910096
 30
0.0
 10
-1953.438755607112
 20
937.42564524198
 30
0.0
 10
-1953.310949397806
 20
937.7393058927994
 30
0.0
 10
-1953.293178336301
 20
937.957358937109
 30
0.0
 10
-1953.284571090692
 20
938.0629708673637
 30
0.0
 11
-1955.045953758274
 21
936.6252152386598
 31
0.0
 11
-1954.773640640492
 21
936.5674876941353
 31
0.0
 11
-1954.474749902841
 21
936.5954031252237
 31
0.0
 11
-1954.171150972269
 21
936.7069204452158
 31
0.0
 11
-1953.885057932931
 21
936.8938785986857
 31
0.0
 11
-1953.637404569053
 21
937.1425991365358
 31
0.0
 11
-1953.446310737879
 21
937.4348823737822
 31
0.0
 11
-1953.325759793997
 21
937.749342651071
 31
0.0
 11
-1953.284571090692
 21
938.0629708673637
 31
0.0
  0
SPLINE
  5
147
330
1F
100
AcDbEntity
  8
0
  6
Continuous
 62
     7
100
AcDbSpline
210
0.0
220
0.0
230
1.0
 70
     8
 71
     3
 72
     9
 73
     5
 74
     3
 42
0.0000000001
 43
0.0000000001
 44
0.00000001
 40
0.0
 40
0.0
 40
0.0
 40
0.0
 40
0.4134865047717949
 40
0.8016359142788028
 40
0.8016359142788028
 40
0.8016359142788028
 40
0.8016359142788028
 10
-1963.394354897424
 20
852.9026303899943
 30
0.0
 10
-1963.534022235272
 20
852.897218846995
 30
0.0
 10
-1963.804798555126
 20
852.8867273625817
 30
0.0
 10
-1964.053850584643
 20
852.9928160641591
 30
0.0
 10
-1964.174440738441
 20
853.0441838561194
 30
0.0
 11
-1963.394354897424
 21
852.9026303899943
 31
0.0
 11
-1963.807577095859
 21
852.9174122826028
 31
0.0
 11
-1964.174440738441
 21
853.0441838561194
 31
0.0
  0
SPLINE
  5
148
330
1F
100
AcDbEntity
  8
0
  6
Continuous
 62
     7
100
AcDbSpline
210
0.0
220
0.0
230
1.0
 70
     8
 71
     3
 72
    11
 73
     7
 74
     5
 42
0.0000000001
 43
0.0000000001
 44
0.00000001
 40
0.0
 40
0.0
 40
0.0
 40
0.0
 40
0.278786970325884
 40
0.5449872830163185
 40
0.8015374042358065
 40
1.052829285413571
 40
1.052829285413571
 40
1.052829285413571
 40
1.052829285413571
 10
-1963.019354897424
 20
852.5778708635746
 30
0.0
 10
-1963.112469440351
 20
852.5731673698276
 30
0.0
 10
-1963.294494596333
 20
852.563972735391
 30
0.0
 10
-1963.558997642986
 20
852.613829812558
 30
0.0
 10
-1963.802439251775
 20
852.7074158394429
 30
0.0
 10
-1963.937924355335
 20
852.8101537970188
 30
0.0
 10
-1964.004965494872
 20
852.8609908969547
 30
0.0
 11
-1963.019354897424
 21
852.5778708635746
 31
0.0
 11
-1963.298127466525
 21
852.5750372192416
 31
0.0
 11
-1963.560082672185
 21
852.6223877916184
 31
0.0
 11
-1963.797908219754
 21
852.7186009592252
 31
0.0
 11
-1964.004965494872
 21
852.8609908969547
 31
0.0
  0
SPLINE
  5
149
330
1F
100
AcDbEntity
  8
0
  6
Continuous
 62
     7
100
AcDbSpline
210
0.0
220
0.0
230
1.0
 70
     8
 71
     3
 72
     9
 73
     5
 74
     3
 42
0.0000000001
 43
0.0000000001
 44
0.00000001
 40
0.0
 40
0.0
 40
0.0
 40
0.0
 40
0.2759799187875847
 40
0.5633865621839214
 40
0.5633865621839214
 40
0.5633865621839214
 40
0.5633865621839214
 10
-1961.591875568471
 20
856.0262732482831
 30
0.0
 10
-1961.541533521946
 20
855.9484742815364
 30
0.0
 10
-1961.438765057305
 20
855.7896551449504
 30
0.0
 10
-1961.392649083175
 20
855.6061230769229
 30
0.0
 10
-1961.369123429172
 20
855.5124958249296
 30
0.0
 11
-1961.591875568471
 21
856.0262732482831
 31
0.0
 11
-1961.454443858921
 21
855.7869461900884
 31
0.0
 11
-1961.369123429172
 21
855.5124958249296
 31
0.0
  0
SPLINE
  5
14A
330
1F
100
AcDbEntity
  8
0
  6
Continuous
 62
     7
100
AcDbSpline
210
0.0
220
0.0
230
1.0
 70
     8
 71
     3
 72
    11
 73
     7
 74
     5
 42
0.0000000001
 43
0.0000000001
 44
0.00000001
 40
0.0
 40
0.0
 40
0.0
 40
0.0
 40
0.1973379821483605
 40
0.3972636959437659
 40
0.6020945785492049
 40
0.8136650711982644
 40
0.8136650711982644
 40
0.8136650711982644
 40
0.8136650711982644
 10
-1961.38635081204
 20
855.8847066810288
 30
0.0
 10
-1961.338739342706
 20
855.839053143877
 30
0.0
 10
-1961.242892065507
 20
855.7471474057903
 30
0.0
 10
-1961.131558502271
 20
855.5785407597643
 30
0.0
 10
-1961.043928098571
 20
855.3915411585009
 30
0.0
 10
-1961.010903159252
 20
855.2564003531227
 30
0.0
 10
-1960.994123429172
 20
855.1877362985108
 30
0.0
 11
-1961.38635081204
 21
855.8847066810288
 31
0.0
 11
-1961.249040991326
 21
855.7429735080104
 31
0.0
 11
-1961.136685046178
 21
855.5776059397677
 31
0.0
 11
-1961.051221122013
 21
855.3914565155538
 31
0.0
 11
-1960.994123429172
 21
855.1877362985108
 31
0.0
  0
SPLINE
  5
14B
330
1F
100
AcDbEntity
  8
0
  6
Continuous
 62
     7
100
AcDbSpline
210
0.0
220
0.0
230
1.0
 70
     8
 71
     3
 72
    11
 73
     7
 74
     5
 42
0.0000000001
 43
0.0000000001
 44
0.00000001
 40
0.0
 40
0.0
 40
0.0
 40
0.0
 40
0.2787869703256566
 40
0.5449872830160911
 40
0.801537404235662
 40
1.052829285413303
 40
1.052829285413303
 40
1.052829285413303
 40
1.052829285413303
 10
-1962.371961409488
 20
856.1678267144086
 30
0.0
 10
-1962.278846866561
 20
856.1725302081555
 30
0.0
 10
-1962.096821710579
 20
856.1817248425921
 30
0.0
 10
-1961.832318663925
 20
856.1318677654247
 30
0.0
 10
-1961.588877055138
 20
856.038281738541
 30
0.0
 10
-1961.453391951577
 20
855.935543780965
 30
0.0
 10
-1961.38635081204
 20
855.8847066810288
 30
0.0
 11
-1962.371961409488
 21
856.1678267144086
 31
0.0
 11
-1962.093188840387
 21
856.1706603587417
 31
0.0
 11
-1961.831233634728
 21
856.1233097863649
 31
0.0
 11
-1961.593408087158
 21
856.0270966187584
 31
0.0
 11
-1961.38635081204
 21
855.8847066810288
 31
0.0
  0
SPLINE
  5
14C
330
1F
100
AcDbEntity
  8
0
  6
Continuous
 62
     7
100
AcDbSpline
210
0.0
220
0.0
230
1.0
 70
     8
 71
     3
 72
    11
 73
     7
 74
     5
 42
0.0000000001
 43
0.0000000001
 44
0.00000001
 40
0.0
 40
0.0
 40
0.0
 40
0.0
 40
0.1973379821483656
 40
0.3972636959440531
 40
0.6020945785489924
 40
0.813665071198017
 40
0.813665071198017
 40
0.813665071198017
 40
0.813665071198017
 10
-1964.004965494872
 20
852.8609908969547
 30
0.0
 10
-1964.052576964205
 20
852.9066444341065
 30
0.0
 10
-1964.148424241405
 20
852.9985501721935
 30
0.0
 10
-1964.259757804641
 20
853.1671568182195
 30
0.0
 10
-1964.347388208341
 20
853.3541564194832
 30
0.0
 10
-1964.38041314766
 20
853.489297224861
 30
0.0
 10
-1964.39719287774
 20
853.5579612794727
 30
0.0
 11
-1964.004965494872
 21
852.8609908969547
 31
0.0
 11
-1964.142275315586
 21
853.0027240699733
 31
0.0
 11
-1964.254631260734
 21
853.1680916382163
 31
0.0
 11
-1964.340095184899
 21
853.3542410624299
 31
0.0
 11
-1964.39719287774
 21
853.5579612794727
 31
0.0
  0
SPLINE
  5
14D
330
1F
100
AcDbEntity
  8
0
  6
Continuous
 62
     7
100
AcDbSpline
210
0.0
220
0.0
230
1.0
 70
     8
 71
     3
 72
    11
 73
     7
 74
     5
 42
0.0000000001
 43
0.0000000001
 44
0.00000001
 40
0.0
 40
0.0
 40
0.0
 40
0.0
 40
0.1954783827144912
 40
0.3813691906019352
 40
0.5597717905038639
 40
0.7340469459462698
 40
0.7340469459462698
 40
0.7340469459462698
 40
0.7340469459462698
 10
-1906.230801826711
 20
871.5388741927761
 30
0.0
 10
-1906.227572475421
 20
871.4735612712078
 30
0.0
 10
-1906.22127216195
 20
871.34613881309
 30
0.0
 10
-1906.166289128448
 20
871.1662559781879
 30
0.0
 10
-1906.081127882491
 20
871.0057148567103
 30
0.0
 10
-1905.997395030295
 20
870.9223574792759
 30
0.0
 10
-1905.956018573711
 20
870.8811665629521
 30
0.0
 11
-1906.230801826711
 21
871.5388741927761
 31
0.0
 11
-1906.212927354032
 21
871.3442147431336
 31
0.0
 11
-1906.159871626481
 21
871.1660561558269
 31
0.0
 11
-1906.073319223488
 21
871.0100556135591
 31
0.0
 11
-1905.956018573711
 21
870.8811665629521
 31
0.0
  0
SPLINE
  5
14E
330
1F
100
AcDbEntity
  8
0
  6
Continuous
 62
     7
100
AcDbSpline
210
0.0
220
0.0
230
1.0
 70
     8
 71
     3
 72
    13
 73
     9
 74
     7
 42
0.0000000001
 43
0.0000000001
 44
0.00000001
 40
0.0
 40
0.0
 40
0.0
 40
0.0
 40
0.3732499619330263
 40
0.756853081604866
 40
1.144919816375868
 40
1.531099346240673
 40
1.909234215637986
 40
2.274018763907111
 40
2.274018763907111
 40
2.274018763907111
 40
2.274018763907111
 10
-1896.496018019978
 20
872.2145167922597
 30
0.0
 10
-1896.386296387124
 20
872.2737105418282
 30
0.0
 10
-1896.163809677377
 20
872.3937399493085
 30
0.0
 10
-1895.868006028539
 20
872.6383488546643
 30
0.0
 10
-1895.605200763844
 20
872.9225485752149
 30
0.0
 10
-1895.389234096681
 20
873.2415550921651
 30
0.0
 10
-1895.221317134322
 20
873.5810017159525
 30
0.0
 10
-1895.158763421828
 20
873.821178837205
 30
0.0
 10
-1895.128048613179
 20
873.9391093968286
 30
0.0
 11
-1896.496018019978
 21
872.2145167922597
 31
0.0
 11
-1896.173406269671
 21
872.4022325152213
 31
0.0
 11
-1895.875144093699
 21
872.6434606806705
 31
0.0
 11
-1895.61246863987
 21
872.9291132609005
 31
0.0
 11
-1895.395276000361
 21
873.2484281315685
 31
0.0
 11
-1895.231749124662
 21
873.589375254123
 31
0.0
 11
-1895.128048613179
 21
873.9391093968286
 31
0.0
  0
SPLINE
  5
14F
330
1F
100
AcDbEntity
  8
0
  6
Continuous
 62
     7
100
AcDbSpline
210
0.0
220
0.0
230
1.0
 70
     8
 71
     3
 72
    11
 73
     7
 74
     5
 42
0.0000000001
 43
0.0000000001
 44
0.00000001
 40
0.0
 40
0.0
 40
0.0
 40
0.0
 40
0.1973379821485136
 40
0.397263695944107
 40
0.6020945785494511
 40
0.8136650711984492
 40
0.8136650711984492
 40
0.8136650711984492
 40
0.8136650711984492
 10
-1895.135407422531
 20
956.4160946367658
 30
0.0
 10
-1895.087795953197
 20
956.370441099614
 30
0.0
 10
-1894.991948675998
 20
956.2785353615278
 30
0.0
 10
-1894.880615112761
 20
956.1099287155014
 30
0.0
 10
-1894.792984709061
 20
955.9229291142376
 30
0.0
 10
-1894.759959769742
 20
955.7877883088597
 30
0.0
 10
-1894.743180039663
 20
955.7191242542478
 30
0.0
 11
-1895.135407422531
 21
956.4160946367658
 31
0.0
 11
-1894.998097601816
 21
956.2743614637477
 31
0.0
 11
-1894.885741656668
 21
956.1089938955048
 31
0.0
 11
-1894.800277732503
 21
955.9228444712909
 31
0.0
 11
-1894.743180039663
 21
955.7191242542478
 31
0.0
  0
SPLINE
  5
150
330
1F
100
AcDbEntity
  8
0
  6
Continuous
 62
     7
100
AcDbSpline
210
0.0
220
0.0
230
1.0
 70
     8
 71
     3
 72
     9
 73
     5
 74
     3
 42
0.0000000001
 43
0.0000000001
 44
0.00000001
 40
0.0
 40
0.0
 40
0.0
 40
0.0
 40
0.2759799187877965
 40
0.5633865621836871
 40
0.5633865621836871
 40
0.5633865621836871
 40
0.5633865621836871
 10
-1895.340932178961
 20
956.5576612040206
 30
0.0
 10
-1895.290590132435
 20
956.4798622372739
 30
0.0
 10
-1895.187821667794
 20
956.3210431006877
 30
0.0
 10
-1895.141705693665
 20
956.1375110326604
 30
0.0
 10
-1895.118180039663
 20
956.0438837806671
 30
0.0
 11
-1895.340932178961
 21
956.5576612040206
 31
0.0
 11
-1895.203500469411
 21
956.3183341458258
 31
0.0
 11
-1895.118180039663
 21
956.0438837806671
 31
0.0
  0
SPLINE
  5
151
330
1F
100
AcDbEntity
  8
0
  6
Continuous
 62
     7
100
AcDbSpline
210
0.0
220
0.0
230
1.0
 70
     8
 71
     3
 72
    11
 73
     7
 74
     5
 42
0.0000000001
 43
0.0000000001
 44
0.00000001
 40
0.0
 40
0.0
 40
0.0
 40
0.0
 40
0.2787869703258817
 40
0.544987283015909
 40
0.8015374042348902
 40
1.052829285412467
 40
1.052829285412467
 40
1.052829285412467
 40
1.052829285412467
 10
-1896.121018019978
 20
956.6992146701461
 30
0.0
 10
-1896.02790347705
 20
956.703918163893
 30
0.0
 10
-1895.845878321068
 20
956.7131127983291
 30
0.0
 10
-1895.581375274416
 20
956.6632557211622
 30
0.0
 10
-1895.337933665628
 20
956.5696696942775
 30
0.0
 10
-1895.202448562068
 20
956.4669317367018
 30
0.0
 10
-1895.135407422531
 20
956.4160946367658
 30
0.0
 11
-1896.121018019978
 21
956.6992146701461
 31
0.0
 11
-1895.842245450877
 21
956.7020483144789
 31
0.0
 11
-1895.580290245218
 21
956.6546977421019
 31
0.0
 11
-1895.342464697649
 21
956.5584845744953
 31
0.0
 11
-1895.135407422531
 21
956.4160946367658
 31
0.0
  0
SPLINE
  5
152
330
1F
100
AcDbEntity
  8
0
  6
Continuous
 62
     7
100
AcDbSpline
210
0.0
220
0.0
230
1.0
 70
     8
 71
     3
 72
    13
 73
     9
 74
     7
 42
0.0000000001
 43
0.0000000001
 44
0.00000001
 40
0.0
 40
0.0
 40
0.0
 40
0.0
 40
0.3824613510164354
 40
0.7756432997208851
 40
1.173188839238508
 40
1.568268298333425
 40
1.954317477834439
 40
2.325781142894583
 40
2.325781142894583
 40
2.325781142894583
 40
2.325781142894583
 10
-1896.121018019978
 20
871.8897572658409
 30
0.0
 10
-1896.008649675662
 20
871.9505505771201
 30
0.0
 10
-1895.780763241808
 20
872.0738412689409
 30
0.0
 10
-1895.479007493449
 20
872.3262768238418
 30
0.0
 10
-1895.21236891997
 20
872.6197229798931
 30
0.0
 10
-1894.995544667464
 20
872.9487881072307
 30
0.0
 10
-1894.829711312074
 20
873.2981814608225
 30
0.0
 10
-1894.771651157812
 20
873.5445368420842
 30
0.0
 10
-1894.743180039663
 20
873.6653428105737
 30
0.0
 11
-1896.121018019978
 21
871.8897572658409
 31
0.0
 11
-1895.790814022209
 21
872.0827391429135
 31
0.0
 11
-1895.48645477471
 21
872.331651764628
 31
0.0
 11
-1895.21996995577
 21
872.6266573531602
 31
0.0
 11
-1895.001891908213
 21
872.9560958818302
 31
0.0
 11
-1894.840840233235
 21
873.3069467432804
 31
0.0
 11
-1894.743180039663
 21
873.6653428105737
 31
0.0
  0
DIMENSION
  5
160
330
1F
100
AcDbEntity
  8
1
100
AcDbDimension
  2
*D3
 10
-2248.333826681443
 20
754.0110394121524
 30
0.0
 11
-2253.1951858021
 21
762.0543790481498
 31
0.0
 70
    32
  1
<>
 71
     5
 42
-1.0
 53
44.99999999999025
  3
ME10_DIM_10
100
AcDbAlignedDimension
 13
-2227.198634205073
 23
739.239807966453
 33
0.0
 14
-2230.380614720412
 24
736.0578274511141
 34
0.0
 50
44.99999999999025
100
AcDbRotatedDimension
  0
DIMENSION
  5
16B
330
1F
100
AcDbEntity
  8
1
100
AcDbDimension
  2
*D4
 10
-2226.451088596009
 20
768.0771323044299
 30
0.0
 11
-2149.951088596009
 21
776.8271323044299
 31
0.0
 70
    32
  1
<>
 71
     5
 42
-1.0
 53
0.00013888888889
  3
ME10_DIM_11
100
AcDbAlignedDimension
 13
-2073.451088596009
 23
741.7102818420511
 33
0.0
 14
-2226.451088596009
 24
741.7102818420511
 34
0.0
100
AcDbRotatedDimension
  0
DIMENSION
  5
176
330
1F
100
AcDbEntity
  8
1
100
AcDbDimension
  2
*D5
 10
-2232.451088596009
 20
506.2203739804451
 30
0.0
 11
-2149.951088596009
 21
514.9703739804451
 31
0.0
 70
    32
  1
<>
 71
     5
 42
-1.0
 53
0.00013888888889
  3
ME10_DIM_12
100
AcDbAlignedDimension
 13
-2067.451088596009
 23
541.3102818420497
 33
0.0
 14
-2232.451088596009
 24
541.3102818420497
 34
0.0
100
AcDbRotatedDimension
  0
DIMENSION
  5
181
330
1F
100
AcDbEntity
  8
1
100
AcDbDimension
  2
*D6
 10
-2258.84300406896
 20
735.3102818420501
 30
0.0
 11
-2267.59300406896
 21
641.3102818420499
 31
0.0
 70
    32
  1
<>
 71
     5
 42
-1.0
 53
90.0
  3
ME10_DIM_13
100
AcDbAlignedDimension
 13
-2232.851088596009
 23
547.3102818420497
 33
0.0
 14
-2232.85108859601
 24
735.3102818420501
 34
0.0
 50
90.0
100
AcDbRotatedDimension
  0
DIMENSION
  5
18C
330
1F
100
AcDbEntity
  8
1
100
AcDbDimension
  2
*D7
 10
-2032.9406711107
 20
741.3102818420501
 30
0.0
 11
-2041.6906711107
 21
641.3102818420499
 31
0.0
 70
    32
  1
<>
 71
     5
 42
-1.0
 53
90.0
  3
ME10_DIM_14
100
AcDbAlignedDimension
 13
-2067.451088596009
 23
541.3102818420497
 33
0.0
 14
-2067.451088596009
 24
741.3102818420501
 34
0.0
 50
90.0
100
AcDbRotatedDimension
  0
DIMENSION
  5
199
330
1F
100
AcDbEntity
  8
1
100
AcDbDimension
  2
*D8
 10
-2032.9406711107
 20
836.8102818420551
 30
0.0
 11
-2042.0656711107
 21
851.3750398969602
 31
0.0
 70
    32
  1
<>
 71
     5
 42
-1.0
 53
90.0
  3
ME10_DIM_15
100
AcDbAlignedDimension
 13
-2067.451088596009
 23
838.3102818420551
 33
0.0
 14
-2067.451088596009
 24
836.8102818420551
 34
0.0
 50
90.0
100
AcDbRotatedDimension
  0
ENDSEC
  0
SECTION
  2
OBJECTS
  0
DICTIONARY
  5
C
330
0
100
AcDbDictionary
281
     1
  3
ACAD_GROUP
350
D
  3
ACAD_LAYOUT
350
1A
  3
ACAD_MLEADERSTYLE
350
19B
  3
ACAD_MLINESTYLE
350
17
  3
ACAD_PLOTSETTINGS
350
19
  3
ACAD_PLOTSTYLENAME
350
E
  3
ACAD_TABLESTYLE
350
19A
  3
ACAD_VISUALSTYLE
350
2A
  0
DICTIONARY
  5
D
102
{ACAD_REACTORS
330
C
102
}
330
C
100
AcDbDictionary
281
     1
  0
DICTIONARY
  5
1A
102
{ACAD_REACTORS
330
C
102
}
330
C
100
AcDbDictionary
281
     1
  3
Layout1
350
1E
  3
Layout2
350
26
  3
Model
350
22
  0
DICTIONARY
  5
19B
102
{ACAD_REACTORS
330
C
102
}
330
C
100
AcDbDictionary
281
     1
  0
DICTIONARY
  5
17
102
{ACAD_REACTORS
330
C
102
}
330
C
100
AcDbDictionary
281
     1
  3
Standard
350
18
  0
DICTIONARY
  5
19
102
{ACAD_REACTORS
330
C
102
}
330
C
100
AcDbDictionary
281
     1
  0
ACDBDICTIONARYWDFLT
  5
E
102
{ACAD_REACTORS
330
C
102
}
330
C
100
AcDbDictionary
281
     1
  3
Normal
350
F
100
AcDbDictionaryWithDefault
340
F
  0
DICTIONARY
  5
19A
102
{ACAD_REACTORS
330
C
102
}
330
C
100
AcDbDictionary
281
     1
  0
DICTIONARY
  5
2A
102
{ACAD_REACTORS
330
C
102
}
330
C
100
AcDbDictionary
281
     1
  3
2dWireframe
350
2F
  3
3D Hidden
350
31
  3
3dWireframe
350
30
  3
Basic
350
32
  3
Brighten
350
36
  3
ColorChange
350
3A
  3
Conceptual
350
34
  3
Dim
350
35
  3
Facepattern
350
39
  3
Flat
350
2B
  3
FlatWithEdges
350
2C
  3
Gouraud
350
2D
  3
GouraudWithEdges
350
2E
  3
Linepattern
350
38
  3
Realistic
350
33
  3
Thicken
350
37
  0
LAYOUT
  5
1E
102
{ACAD_REACTORS
330
1A
102
}
330
1A
100
AcDbPlotSettings
  1

  2
none_device
  4

  6

 40
0.0
 41
0.0
 42
0.0
 43
0.0
 44
0.0
 45
0.0
 46
0.0
 47
0.0
 48
0.0
 49
0.0
140
0.0
141
0.0
142
1.0
143
1.0
 70
   688
 72
     0
 73
     0
 74
     5
  7

 75
    16
147
1.0
148
0.0
149
0.0
100
AcDbLayout
  1
Layout1
 70
     1
 71
     1
 10
0.0
 20
0.0
 11
12.0
 21
9.0
 12
0.0
 22
0.0
 32
0.0
 14
1.00000000000000E+20
 24
1.00000000000000E+20
 34
1.00000000000000E+20
 15
-1.00000000000000E+20
 25
-1.00000000000000E+20
 35
-1.00000000000000E+20
146
0.0
 13
0.0
 23
0.0
 33
0.0
 16
1.0
 26
0.0
 36
0.0
 17
0.0
 27
1.0
 37
0.0
 76
     0
330
1B
  0
LAYOUT
  5
26
102
{ACAD_REACTORS
330
1A
102
}
330
1A
100
AcDbPlotSettings
  1

  2
none_device
  4

  6

 40
0.0
 41
0.0
 42
0.0
 43
0.0
 44
0.0
 45
0.0
 46
0.0
 47
0.0
 48
0.0
 49
0.0
140
0.0
141
0.0
142
1.0
143
1.0
 70
   688
 72
     0
 73
     0
 74
     5
  7

 75
    16
147
1.0
148
0.0
149
0.0
100
AcDbLayout
  1
Layout2
 70
     1
 71
     2
 10
0.0
 20
0.0
 11
0.0
 21
0.0
 12
0.0
 22
0.0
 32
0.0
 14
0.0
 24
0.0
 34
0.0
 15
0.0
 25
0.0
 35
0.0
146
0.0
 13
0.0
 23
0.0
 33
0.0
 16
1.0
 26
0.0
 36
0.0
 17
0.0
 27
1.0
 37
0.0
 76
     0
330
23
  0
LAYOUT
  5
22
102
{ACAD_REACTORS
330
1A
102
}
330
1A
100
AcDbPlotSettings
  1

  2
none_device
  4

  6

 40
0.0
 41
0.0
 42
0.0
 43
0.0
 44
0.0
 45
0.0
 46
0.0
 47
0.0
 48
0.0
 49
0.0
140
0.0
141
0.0
142
1.0
143
1.0
 70
  1712
 72
     0
 73
     0
 74
     0
  7

 75
     0
147
1.0
148
0.0
149
0.0
100
AcDbLayout
  1
Model
 70
     1
 71
     0
 10
0.0
 20
0.0
 11
12.0
 21
9.0
 12
0.0
 22
0.0
 32
0.0
 14
-2362.348844895121
 24
283.4380667672668
 34
0.0
 15
-1837.348844895121
 25
1025.938066767267
 35
0.0
146
0.0
 13
0.0
 23
0.0
 33
0.0
 16
1.0
 26
0.0
 36
0.0
 17
0.0
 27
1.0
 37
0.0
 76
     0
330
1F
331
29
  0
MLINESTYLE
  5
18
102
{ACAD_REACTORS
330
17
102
}
330
17
100
AcDbMlineStyle
  2
Standard
 70
     0
  3

 62
   256
 51
90.0
 52
90.0
 71
     2
 49
0.5
 62
   256
  6
BYLAYER
 49
-0.5
 62
   256
  6
BYLAYER
  0
ACDBPLACEHOLDER
  5
F
102
{ACAD_REACTORS
330
E
102
}
330
E
  0
VISUALSTYLE
  5
2F
102
{ACAD_REACTORS
330
2A
102
}
330
2A
100
AcDbVisualStyle
  2
2dWireframe
 70
     4
 71
     0
 72
     2
 73
     0
 90
        0
 40
-0.6
 41
-30.0
 62
     5
 63
     7
 74
     1
 91
        4
 64
     7
 65
   257
 75
     1
175
     1
 42
1.0
 92
        0
 66
   257
 43
1.0
 76
     1
 77
     6
 78
     2
 67
     7
 79
     5
170
     0
171
     0
290
     0
174
     0
 93
        1
 44
0.0
173
     0
291
     0
 45
0.0
1001
ACAD
1000
AcDbSavedByObjectVersion
1070
     0
  0
VISUALSTYLE
  5
31
102
{ACAD_REACTORS
330
2A
102
}
330
2A
100
AcDbVisualStyle
  2
3D Hidden
 70
     6
 71
     1
 72
     2
 73
     2
 90
        0
 40
-0.6
 41
-30.0
 62
     5
 63
     7
 74
     2
 91
        2
 64
     7
 65
   257
 75
     2
175
     1
 42
40.0
 92
        0
 66
   257
 43
1.0
 76
     1
 77
     6
 78
     2
 67
     7
 79
     3
170
     0
171
     0
290
     0
174
     0
 93
        1
 44
0.0
173
     0
291
     0
 45
0.0
1001
ACAD
1000
AcDbSavedByObjectVersion
1070
     0
  0
VISUALSTYLE
  5
30
102
{ACAD_REACTORS
330
2A
102
}
330
2A
100
AcDbVisualStyle
  2
3dWireframe
 70
     5
 71
     0
 72
     2
 73
     0
 90
        0
 40
-0.6
 41
-30.0
 62
     5
 63
     7
 74
     1
 91
        4
 64
     7
 65
   257
 75
     1
175
     1
 42
1.0
 92
        0
 66
   257
 43
1.0
 76
     1
 77
     6
 78
     2
 67
     7
 79
     5
170
     0
171
     0
290
     0
174
     0
 93
        1
 44
0.0
173
     0
291
     0
 45
0.0
1001
ACAD
1000
AcDbSavedByObjectVersion
1070
     0
  0
VISUALSTYLE
  5
32
102
{ACAD_REACTORS
330
2A
102
}
330
2A
100
AcDbVisualStyle
  2
Basic
 70
     7
 71
     1
 72
     0
 73
     1
 90
        0
 40
-0.6
 41
-30.0
 62
     5
 63
     7
 74
     0
 91
        4
 64
     7
 65
   257
 75
     1
175
     1
 42
1.0
 92
        8
 66
     7
 43
1.0
 76
     1
 77
     6
 78
     2
 67
     7
 79
     5
170
     0
171
     0
290
     0
174
     0
 93
        1
 44
0.0
173
     0
291
     1
 45
0.0
1001
ACAD
1000
AcDbSavedByObjectVersion
1070
     0
  0
VISUALSTYLE
  5
36
102
{ACAD_REACTORS
330
2A
102
}
330
2A
100
AcDbVisualStyle
  2
Brighten
 70
    12
 71
     2
 72
     2
 73
     0
 90
        0
 40
-0.6
 41
-30.0
 62
     5
 63
     7
 74
     1
 91
        4
 64
     7
 65
   257
 75
     1
175
     1
 42
1.0
 92
        8
 66
     7
 43
1.0
 76
     1
 77
     6
 78
     2
 67
     7
 79
     5
170
     0
171
     0
290
     0
174
     0
 93
        1
 44
50.0
173
     0
291
     1
 45
0.0
1001
ACAD
1000
AcDbSavedByObjectVersion
1070
     0
  0
VISUALSTYLE
  5
3A
102
{ACAD_REACTORS
330
2A
102
}
330
2A
100
AcDbVisualStyle
  2
ColorChange
 70
    16
 71
     2
 72
     2
 73
     3
 90
        0
 40
-0.6
 41
-30.0
 62
     5
 63
     8
 74
     1
 91
        4
 64
     7
 65
   257
 75
     1
175
     1
 42
1.0
 92
        8
 66
     8
 43
1.0
 76
     1
 77
     6
 78
     2
 67
     7
 79
     5
170
     0
171
     0
290
     0
174
     0
 93
        1
 44
0.0
173
     0
291
     1
 45
0.0
1001
ACAD
1000
AcDbSavedByObjectVersion
1070
     0
  0
VISUALSTYLE
  5
34
102
{ACAD_REACTORS
330
2A
102
}
330
2A
100
AcDbVisualStyle
  2
Conceptual
 70
     9
 71
     3
 72
     2
 73
     0
 90
        0
 40
-0.6
 41
-30.0
 62
     5
 63
     7
 74
     2
 91
        2
 64
     7
 65
   257
 75
     1
175
     1
 42
40.0
 92
        8
 66
     7
 43
1.0
 76
     1
 77
     6
 78
     2
 67
     7
 79
     3
170
     0
171
     0
290
     0
174
     0
 93
        1
 44
0.0
173
     0
291
     0
 45
0.0
1001
ACAD
1000
AcDbSavedByObjectVersion
1070
     0
  0
VISUALSTYLE
  5
35
102
{ACAD_REACTORS
330
2A
102
}
330
2A
100
AcDbVisualStyle
  2
Dim
 70
    11
 71
     2
 72
     2
 73
     0
 90
        0
 40
-0.6
 41
-30.0
 62
     5
 63
     7
 74
     1
 91
        4
 64
     7
 65
   257
 75
     1
175
     1
 42
1.0
 92
        8
 66
     7
 43
1.0
 76
     1
 77
     6
 78
     2
 67
     7
 79
     5
170
     0
171
     0
290
     0
174
     0
 93
        1
 44
-50.0
173
     0
291
     1
 45
0.0
1001
ACAD
1000
AcDbSavedByObjectVersion
1070
     0
  0
VISUALSTYLE
  5
39
102
{ACAD_REACTORS
330
2A
102
}
330
2A
100
AcDbVisualStyle
  2
Facepattern
 70
    15
 71
     2
 72
     2
 73
     0
 90
        0
 40
-0.6
 41
-30.0
 62
     5
 63
     7
 74
     1
 91
        4
 64
     7
 65
   257
 75
     1
175
     1
 42
1.0
 92
        8
 66
     7
 43
1.0
 76
     1
 77
     6
 78
     2
 67
     7
 79
     5
170
     0
171
     0
290
     0
174
     0
 93
        1
 44
0.0
173
     0
291
     1
 45
0.0
1001
ACAD
1000
AcDbSavedByObjectVersion
1070
     0
  0
VISUALSTYLE
  5
2B
102
{ACAD_REACTORS
330
2A
102
}
330
2A
100
AcDbVisualStyle
  2
Flat
 70
     0
 71
     2
 72
     1
 73
     1
 90
        2
 40
-0.6
 41
30.0
 62
     5
 63
     7
 74
     0
 91
        4
 64
     7
 65
   257
 75
     1
175
     1
 42
1.0
 92
        8
 66
     7
 43
1.0
 76
     1
 77
     6
 78
     2
 67
     7
 79
     5
170
     0
171
     0
290
     0
174
     0
 93
       13
 44
0.0
173
     0
291
     1
 45
0.0
1001
ACAD
1000
AcDbSavedByObjectVersion
1070
     0
  0
VISUALSTYLE
  5
2C
102
{ACAD_REACTORS
330
2A
102
}
330
2A
100
AcDbVisualStyle
  2
FlatWithEdges
 70
     1
 71
     2
 72
     1
 73
     1
 90
        2
 40
-0.6
 41
30.0
 62
     5
 63
     7
 74
     1
 91
        4
 64
     7
 65
   257
 75
     1
175
     1
 42
1.0
 92
        0
 66
   257
 43
1.0
 76
     1
 77
     6
 78
     2
 67
     7
 79
     5
170
     0
171
     0
290
     0
174
     0
 93
       13
 44
0.0
173
     0
291
     1
 45
0.0
1001
ACAD
1000
AcDbSavedByObjectVersion
1070
     0
  0
VISUALSTYLE
  5
2D
102
{ACAD_REACTORS
330
2A
102
}
330
2A
100
AcDbVisualStyle
  2
Gouraud
 70
     2
 71
     2
 72
     2
 73
     1
 90
        2
 40
-0.6
 41
30.0
 62
     5
 63
     7
 74
     0
 91
        4
 64
     7
 65
   257
 75
     1
175
     1
 42
1.0
 92
        0
 66
     7
 43
1.0
 76
     1
 77
     6
 78
     2
 67
     7
 79
     5
170
     0
171
     0
290
     0
174
     0
 93
       13
 44
0.0
173
     0
291
     1
 45
0.0
1001
ACAD
1000
AcDbSavedByObjectVersion
1070
     0
  0
VISUALSTYLE
  5
2E
102
{ACAD_REACTORS
330
2A
102
}
330
2A
100
AcDbVisualStyle
  2
GouraudWithEdges
 70
     3
 71
     2
 72
     2
 73
     1
 90
        2
 40
-0.6
 41
30.0
 62
     5
 63
     7
 74
     1
 91
        4
 64
     7
 65
   257
 75
     1
175
     1
 42
1.0
 92
        0
 66
   257
 43
1.0
 76
     1
 77
     6
 78
     2
 67
     7
 79
     5
170
     0
171
     0
290
     0
174
     0
 93
       13
 44
0.0
173
     0
291
     1
 45
0.0
1001
ACAD
1000
AcDbSavedByObjectVersion
1070
     0
  0
VISUALSTYLE
  5
38
102
{ACAD_REACTORS
330
2A
102
}
330
2A
100
AcDbVisualStyle
  2
Linepattern
 70
    14
 71
     2
 72
     2
 73
     0
 90
        0
 40
-0.6
 41
-30.0
 62
     5
 63
     7
 74
     1
 91
        4
 64
     7
 65
   257
 75
     7
175
     7
 42
1.0
 92
        8
 66
     7
 43
1.0
 76
     1
 77
     6
 78
     2
 67
     7
 79
     5
170
     0
171
     0
290
     0
174
     0
 93
        1
 44
0.0
173
     0
291
     1
 45
0.0
1001
ACAD
1000
AcDbSavedByObjectVersion
1070
     0
  0
VISUALSTYLE
  5
33
102
{ACAD_REACTORS
330
2A
102
}
330
2A
100
AcDbVisualStyle
  2
Realistic
 70
     8
 71
     2
 72
     2
 73
     0
 90
        0
 40
-0.6
 41
-30.0
 62
     5
 63
     7
 74
     1
 91
        0
 64
     7
 65
   257
 75
     1
175
     1
 42
1.0
 92
        8
 66
     8
 43
1.0
 76
     1
 77
     6
 78
     2
 67
     7
 79
     5
170
     0
171
     0
290
     0
174
     0
 93
       13
 44
0.0
173
     0
291
     0
 45
0.0
1001
ACAD
1000
AcDbSavedByObjectVersion
1070
     0
  0
VISUALSTYLE
  5
37
102
{ACAD_REACTORS
330
2A
102
}
330
2A
100
AcDbVisualStyle
  2
Thicken
 70
    13
 71
     2
 72
     2
 73
     0
 90
        0
 40
-0.6
 41
-30.0
 62
     5
 63
     7
 74
     1
 91
        4
 64
     7
 65
   257
 75
     1
175
     1
 42
1.0
 92
       12
 66
     7
 43
1.0
 76
     1
 77
     6
 78
     2
 67
     7
 79
     5
170
     0
171
     0
290
     0
174
     0
 93
        1
 44
0.0
173
     0
291
     1
 45
0.0
1001
ACAD
1000
AcDbSavedByObjectVersion
1070
     0
  0
ENDSEC
  0
EOF
