  0
SECTION
  2
HEADER
  9
$ACADVER
  1
AC1015
  9
$ACADMAINTVER
 70
     6
  9
$DWGCODEPAGE
  3
ANSI_1252
  9
$INSBASE
 10
0.0
 20
0.0
 30
0.0
  9
$EXTMIN
 10
-105.0000000000001
 20
0.0
 30
0.0
  9
$EXTMAX
 10
0.0
 20
148.5000000000001
 30
0.0
  9
$LIMMIN
 10
0.0
 20
0.0
  9
$LIMMAX
 10
12.0
 20
9.0
  9
$ORTHOMODE
 70
     0
  9
$REGENMODE
 70
     1
  9
$FILLMODE
 70
     1
  9
$QTEXTMODE
 70
     0
  9
$MIRRTEXT
 70
     1
  9
$LTSCALE
 40
1.0
  9
$ATTMODE
 70
     1
  9
$TEXTSIZE
 40
0.2
  9
$TRACEWID
 40
0.05
  9
$TEXTSTYLE
  7
Standard
  9
$CLAYER
  8
0
  9
$CELTYPE
  6
ByLayer
  9
$CECOLOR
 62
   256
  9
$CELTSCALE
 40
1.0
  9
$DISPSILH
 70
     0
  9
$DIMSCALE
 40
1.0
  9
$DIMASZ
 40
0.18
  9
$DIMEXO
 40
0.0625
  9
$DIMDLI
 40
0.38
  9
$DIMRND
 40
0.0
  9
$DIMDLE
 40
0.0
  9
$DIMEXE
 40
0.18
  9
$DIMTP
 40
0.0
  9
$DIMTM
 40
0.0
  9
$DIMTXT
 40
0.18
  9
$DIMCEN
 40
0.09
  9
$DIMTSZ
 40
0.0
  9
$DIMTOL
 70
     0
  9
$DIMLIM
 70
     0
  9
$DIMTIH
 70
     1
  9
$DIMTOH
 70
     1
  9
$DIMSE1
 70
     0
  9
$DIMSE2
 70
     0
  9
$DIMTAD
 70
     0
  9
$DIMZIN
 70
     0
  9
$DIMBLK
  1

  9
$DIMASO
 70
     1
  9
$DIMSHO
 70
     1
  9
$DIMPOST
  1

  9
$DIMAPOST
  1

  9
$DIMALT
 70
     0
  9
$DIMALTD
 70
     2
  9
$DIMALTF
 40
25.4
  9
$DIMLFAC
 40
1.0
  9
$DIMTOFL
 70
     0
  9
$DIMTVP
 40
0.0
  9
$DIMTIX
 70
     0
  9
$DIMSOXD
 70
     0
  9
$DIMSAH
 70
     0
  9
$DIMBLK1
  1

  9
$DIMBLK2
  1

  9
$DIMSTYLE
  2
Standard
  9
$DIMCLRD
 70
     0
  9
$DIMCLRE
 70
     0
  9
$DIMCLRT
 70
     0
  9
$DIMTFAC
 40
1.0
  9
$DIMGAP
 40
0.09
  9
$DIMJUST
 70
     0
  9
$DIMSD1
 70
     0
  9
$DIMSD2
 70
     0
  9
$DIMTOLJ
 70
     1
  9
$DIMTZIN
 70
     0
  9
$DIMALTZ
 70
     0
  9
$DIMALTTZ
 70
     0
  9
$DIMUPT
 70
     0
  9
$DIMDEC
 70
     4
  9
$DIMTDEC
 70
     4
  9
$DIMALTU
 70
     2
  9
$DIMALTTD
 70
     2
  9
$DIMTXSTY
  7
Standard
  9
$DIMAUNIT
 70
     0
  9
$DIMADEC
 70
     0
  9
$DIMALTRND
 40
0.0
  9
$DIMAZIN
 70
     0
  9
$DIMDSEP
 70
    46
  9
$DIMATFIT
 70
     3
  9
$DIMFRAC
 70
     0
  9
$DIMLDRBLK
  1

  9
$DIMLUNIT
 70
     2
  9
$DIMLWD
 70
    -2
  9
$DIMLWE
 70
    -2
  9
$DIMTMOVE
 70
     0
  9
$LUNITS
 70
     2
  9
$LUPREC
 70
     4
  9
$SKETCHINC
 40
0.1
  9
$FILLETRAD
 40
0.5
  9
$AUNITS
 70
     0
  9
$AUPREC
 70
     0
  9
$MENU
  1
.
  9
$ELEVATION
 40
0.0
  9
$PELEVATION
 40
0.0
  9
$THICKNESS
 40
0.0
  9
$LIMCHECK
 70
     0
  9
$CHAMFERA
 40
0.5
  9
$CHAMFERB
 40
0.5
  9
$CHAMFERC
 40
1.0
  9
$CHAMFERD
 40
0.0
  9
$SKPOLY
 70
     0
  9
$TDCREATE
 40
2456997.491356829
  9
$TDUCREATE
 40
2456997.449690162
  9
$TDUPDATE
 40
2456997.491357014
  9
$TDUUPDATE
 40
2456997.449690347
  9
$TDINDWG
 40
0.0000000116
  9
$TDUSRTIMER
 40
0.0000000116
  9
$USRTIMER
 70
     1
  9
$ANGBASE
 50
0.0
  9
$ANGDIR
 70
     0
  9
$PDMODE
 70
     0
  9
$PDSIZE
 40
0.0
  9
$PLINEWID
 40
0.0
  9
$SPLFRAME
 70
     0
  9
$SPLINETYPE
 70
     6
  9
$SPLINESEGS
 70
     8
  9
$HANDSEED
  5
1A9
  9
$SURFTAB1
 70
     6
  9
$SURFTAB2
 70
     6
  9
$SURFTYPE
 70
     6
  9
$SURFU
 70
     6
  9
$SURFV
 70
     6
  9
$UCSBASE
  2

  9
$UCSNAME
  2

  9
$UCSORG
 10
0.0
 20
0.0
 30
0.0
  9
$UCSXDIR
 10
1.0
 20
0.0
 30
0.0
  9
$UCSYDIR
 10
0.0
 20
1.0
 30
0.0
  9
$UCSORTHOREF
  2

  9
$UCSORTHOVIEW
 70
     0
  9
$UCSORGTOP
 10
0.0
 20
0.0
 30
0.0
  9
$UCSORGBOTTOM
 10
0.0
 20
0.0
 30
0.0
  9
$UCSORGLEFT
 10
0.0
 20
0.0
 30
0.0
  9
$UCSORGRIGHT
 10
0.0
 20
0.0
 30
0.0
  9
$UCSORGFRONT
 10
0.0
 20
0.0
 30
0.0
  9
$UCSORGBACK
 10
0.0
 20
0.0
 30
0.0
  9
$PUCSBASE
  2

  9
$PUCSNAME
  2

  9
$PUCSORG
 10
0.0
 20
0.0
 30
0.0
  9
$PUCSXDIR
 10
1.0
 20
0.0
 30
0.0
  9
$PUCSYDIR
 10
0.0
 20
1.0
 30
0.0
  9
$PUCSORTHOREF
  2

  9
$PUCSORTHOVIEW
 70
     0
  9
$PUCSORGTOP
 10
0.0
 20
0.0
 30
0.0
  9
$PUCSORGBOTTOM
 10
0.0
 20
0.0
 30
0.0
  9
$PUCSORGLEFT
 10
0.0
 20
0.0
 30
0.0
  9
$PUCSORGRIGHT
 10
0.0
 20
0.0
 30
0.0
  9
$PUCSORGFRONT
 10
0.0
 20
0.0
 30
0.0
  9
$PUCSORGBACK
 10
0.0
 20
0.0
 30
0.0
  9
$USERI1
 70
     0
  9
$USERI2
 70
     0
  9
$USERI3
 70
     0
  9
$USERI4
 70
     0
  9
$USERI5
 70
     0
  9
$USERR1
 40
18.1
  9
$USERR2
 40
0.0
  9
$USERR3
 40
0.0
  9
$USERR4
 40
0.0
  9
$USERR5
 40
0.0
  9
$WORLDVIEW
 70
     1
  9
$SHADEDGE
 70
     3
  9
$SHADEDIF
 70
    70
  9
$TILEMODE
 70
     1
  9
$MAXACTVP
 70
    64
  9
$PINSBASE
 10
0.0
 20
0.0
 30
0.0
  9
$PLIMCHECK
 70
     0
  9
$PEXTMIN
 10
1.00000000000000E+20
 20
1.00000000000000E+20
 30
1.00000000000000E+20
  9
$PEXTMAX
 10
-1.00000000000000E+20
 20
-1.00000000000000E+20
 30
-1.00000000000000E+20
  9
$PLIMMIN
 10
0.0
 20
0.0
  9
$PLIMMAX
 10
12.0
 20
9.0
  9
$UNITMODE
 70
     0
  9
$VISRETAIN
 70
     1
  9
$PLINEGEN
 70
     0
  9
$PSLTSCALE
 70
     1
  9
$TREEDEPTH
 70
  3020
  9
$CMLSTYLE
  2
Standard
  9
$CMLJUST
 70
     0
  9
$CMLSCALE
 40
1.0
  9
$PROXYGRAPHICS
 70
     1
  9
$MEASUREMENT
 70
     1
  9
$CELWEIGHT
370
    -1
  9
$ENDCAPS
280
     0
  9
$JOINSTYLE
280
     0
  9
$LWDISPLAY
290
     0
  9
$INSUNITS
 70
     4
  9
$HYPERLINKBASE
  1

  9
$STYLESHEET
  1

  9
$XEDIT
290
     1
  9
$CEPSNTYPE
380
     0
  9
$PSTYLEMODE
290
     1
  9
$FINGERPRINTGUID
  2
{4E9E875B-69A7-4C6E-B0F8-BF982F0A94B6}
  9
$VERSIONGUID
  2
{FAEB1C32-E019-11D5-929B-00C0DF256EC4}
  9
$EXTNAMES
290
     1
  9
$PSVPSCALE
 40
0.0
  9
$OLESTARTUP
290
     0
  0
ENDSEC
  0
SECTION
  2
CLASSES
  0
CLASS
  1
ACDBDICTIONARYWDFLT
  2
AcDbDictionaryWithDefault
  3
ObjectDBX Classes
 90
        0
280
     0
281
     0
  0
CLASS
  1
VISUALSTYLE
  2
AcDbVisualStyle
  3
ObjectDBX Classes
 90
     4095
280
     0
281
     0
  0
CLASS
  1
MATERIAL
  2
AcDbMaterial
  3
ObjectDBX Classes
 90
     1153
280
     0
281
     0
  0
CLASS
  1
DICTIONARYVAR
  2
AcDbDictionaryVar
  3
ObjectDBX Classes
 90
        0
280
     0
281
     0
  0
CLASS
  1
ACDBPLACEHOLDER
  2
AcDbPlaceHolder
  3
ObjectDBX Classes
 90
        0
280
     0
281
     0
  0
CLASS
  1
LAYOUT
  2
AcDbLayout
  3
ObjectDBX Classes
 90
        0
280
     0
281
     0
  0
ENDSEC
  0
SECTION
  2
TABLES
  0
TABLE
  2
VPORT
  5
8
330
0
100
AcDbSymbolTable
 70
     1
  0
VPORT
  5
29
330
8
100
AcDbSymbolTableRecord
100
AcDbViewportTableRecord
  2
*Active
 70
     0
 10
0.0
 20
0.0
 11
1.0
 21
1.0
 12
-52.50000000000005
 22
74.25000000000006
 13
0.0
 23
0.0
 14
0.5
 24
0.5
 15
0.5
 25
0.5
 16
0.0
 26
0.0
 36
1.0
 17
0.0
 27
0.0
 37
0.0
 40
163.3500000000001
 41
1.60267857142857
 42
50.0
 43
0.0
 44
0.0
 50
0.0
 51
0.0
 71
     0
 72
   100
 73
     1
 74
     3
 75
     0
 76
     0
 77
     0
 78
     0
281
     0
 65
     1
110
0.0
120
0.0
130
0.0
111
1.0
121
0.0
131
0.0
112
0.0
122
1.0
132
0.0
 79
     0
146
0.0
  0
ENDTAB
  0
TABLE
  2
LTYPE
  5
5
330
0
100
AcDbSymbolTable
 70
     8
  0
LTYPE
  5
14
330
5
100
AcDbSymbolTableRecord
100
AcDbLinetypeTableRecord
  2
ByBlock
 70
     0
  3

 72
    65
 73
     0
 40
0.0
  0
LTYPE
  5
15
330
5
100
AcDbSymbolTableRecord
100
AcDbLinetypeTableRecord
  2
ByLayer
 70
     0
  3

 72
    65
 73
     0
 40
0.0
  0
LTYPE
  5
16
330
5
100
AcDbSymbolTableRecord
100
AcDbLinetypeTableRecord
  2
Continuous
 70
     0
  3
Solid line
 72
    65
 73
     0
 40
0.0
  0
LTYPE
  5
3F
330
5
100
AcDbSymbolTableRecord
100
AcDbLinetypeTableRecord
  2
DASHED
 70
     0
  3
Dashed
 72
    65
 73
     2
 40
15.0
 49
7.0
 74
     0
 49
-8.0
 74
     0
  0
LTYPE
  5
40
330
5
100
AcDbSymbolTableRecord
100
AcDbLinetypeTableRecord
  2
DOTTED
 70
     0
  3
Dotted
 72
    65
 73
     2
 40
1.0
 49
0.0
 74
     0
 49
-1.0
 74
     0
  0
LTYPE
  5
41
330
5
100
AcDbSymbolTableRecord
100
AcDbLinetypeTableRecord
  2
DOT_CENTER
 70
     0
  3
Dot_Center
 72
    65
 73
     4
 40
14.0
 49
12.0
 74
     0
 49
-1.0
 74
     0
 49
0.0
 74
     0
 49
-1.0
 74
     0
  0
LTYPE
  5
42
330
5
100
AcDbSymbolTableRecord
100
AcDbLinetypeTableRecord
  2
LONG_DASHED
 70
     0
  3
Long_Dashed
 72
    65
 73
     2
 40
15.0
 49
10.0
 74
     0
 49
-5.0
 74
     0
  0
LTYPE
  5
43
330
5
100
AcDbSymbolTableRecord
100
AcDbLinetypeTableRecord
  2
DASH_CENTER
 70
     0
  3
Dash_Center
 72
    65
 73
     4
 40
14.0
 49
11.0
 74
     0
 49
-1.0
 74
     0
 49
1.0
 74
     0
 49
-1.0
 74
     0
  0
LTYPE
  5
44
330
5
100
AcDbSymbolTableRecord
100
AcDbLinetypeTableRecord
  2
PHANTOM
 70
     0
  3
Phantom
 72
    65
 73
     6
 40
13.0
 49
10.0
 74
     0
 49
-1.0
 74
     0
 49
0.0
 74
     0
 49
-1.0
 74
     0
 49
0.0
 74
     0
 49
-1.0
 74
     0
  0
LTYPE
  5
45
330
5
100
AcDbSymbolTableRecord
100
AcDbLinetypeTableRecord
  2
CENTER_DASH_DASH
 70
     0
  3
Center_Dash_Dash
 72
    65
 73
     6
 40
14.0
 49
9.0
 74
     0
 49
-1.0
 74
     0
 49
1.0
 74
     0
 49
-1.0
 74
     0
 49
1.0
 74
     0
 49
-1.0
 74
     0
  0
ENDTAB
  0
TABLE
  2
LAYER
  5
2
330
0
100
AcDbSymbolTable
 70
     2
  0
LAYER
  5
10
330
2
100
AcDbSymbolTableRecord
100
AcDbLayerTableRecord
  2
0
 70
     0
 62
     7
  6
Continuous
370
    -3
390
F
  0
LAYER
  5
46
330
2
100
AcDbSymbolTableRecord
100
AcDbLayerTableRecord
  2
1
 70
     0
 62
     7
  6
Continuous
370
    -3
390
F
  0
ENDTAB
  0
TABLE
  2
STYLE
  5
3
330
0
100
AcDbSymbolTable
 70
     5
  0
STYLE
  5
11
330
3
100
AcDbSymbolTableRecord
100
AcDbTextStyleTableRecord
  2
Standard
 70
     0
 40
0.0
 41
1.0
 50
0.0
 71
     0
 42
0.2
  3
txt
  4

  0
STYLE
  5
12B
330
3
100
AcDbSymbolTableRecord
100
AcDbTextStyleTableRecord
  2
CONVERTER_11
 70
     0
 40
0.0
 41
0.95
 50
0.0
 71
     0
 42
0.2
  3
simplex.shx
  4

  0
STYLE
  5
135
330
3
100
AcDbSymbolTableRecord
100
AcDbTextStyleTableRecord
  2
CONVERTER_12
 70
     0
 40
0.0
 41
1.2
 50
0.0
 71
     0
 42
0.2
  3
ARIAL.TTF
  4

  0
STYLE
  5
138
330
3
100
AcDbSymbolTableRecord
100
AcDbTextStyleTableRecord
  2
CONVERTER_13
 70
     0
 40
0.0
 41
1.32
 50
0.0
 71
     0
 42
0.2
  3
ARIAL.TTF
  4

  0
STYLE
  5
150
330
3
100
AcDbSymbolTableRecord
100
AcDbTextStyleTableRecord
  2
CONVERTER_14
 70
     0
 40
0.0
 41
0.855
 50
0.0
 71
     0
 42
0.2
  3
simplex.shx
  4

  0
ENDTAB
  0
TABLE
  2
VIEW
  5
6
330
0
100
AcDbSymbolTable
 70
     0
  0
ENDTAB
  0
TABLE
  2
UCS
  5
7
330
0
100
AcDbSymbolTable
 70
     0
  0
ENDTAB
  0
TABLE
  2
APPID
  5
9
330
0
100
AcDbSymbolTable
 70
     1
  0
APPID
  5
12
330
9
100
AcDbSymbolTableRecord
100
AcDbRegAppTableRecord
  2
ACAD
 70
     0
  0
ENDTAB
  0
TABLE
  2
DIMSTYLE
  5
A
330
0
100
AcDbSymbolTable
 70
     4
100
AcDbDimStyleTable
  0
DIMSTYLE
105
27
330
A
100
AcDbSymbolTableRecord
100
AcDbDimStyleTableRecord
  2
Standard
 70
     0
178
     0
340
11
  0
DIMSTYLE
105
160
102
{ACAD_REACTORS
330
161
102
}
330
A
100
AcDbSymbolTableRecord
100
AcDbDimStyleTableRecord
  2
ME10_DIM_10
 70
     0
 41
1.5
 42
0.25
 44
0.5
 77
     1
 78
     8
140
1.5
147
1.0
172
     1
173
     1
174
     1
175
     1
176
     2
177
     2
271
     2
178
     4
271
     2
340
12B
  0
DIMSTYLE
105
16B
102
{ACAD_REACTORS
330
16C
102
}
330
A
100
AcDbSymbolTableRecord
100
AcDbDimStyleTableRecord
  2
ME10_DIM_11
 70
     0
  3
 {\Fgdt;n}<>
 41
1.75
 42
0.5
 44
0.5
 73
     0
 74
     0
 77
     1
 78
     8
140
1.75
147
1.0
172
     1
173
     1
174
     1
175
     1
176
     2
177
     2
271
     2
178
     4
271
     2
340
12B
  0
DIMSTYLE
105
177
102
{ACAD_REACTORS
330
178
102
}
330
A
100
AcDbSymbolTableRecord
100
AcDbDimStyleTableRecord
  2
ME10_DIM_12
 70
     0
  3
ø<>
 41
1.5
 42
0.25
 44
0.5
 73
     0
 74
     0
 77
     1
 78
     8
140
1.5
147
1.0
172
     1
173
     1
174
     1
175
     1
176
     2
177
     2
271
     2
178
     4
271
     2
340
12B
  0
ENDTAB
  0
TABLE
  2
BLOCK_RECORD
  5
1
330
0
100
AcDbSymbolTable
 70
     4
  0
BLOCK_RECORD
  5
1F
330
1
100
AcDbSymbolTableRecord
100
AcDbBlockTableRecord
  2
*Model_Space
340
22
  0
BLOCK_RECORD
  5
1B
330
1
100
AcDbSymbolTableRecord
100
AcDbBlockTableRecord
  2
*Paper_Space
340
1E
  0
BLOCK_RECORD
  5
23
330
1
100
AcDbSymbolTableRecord
100
AcDbBlockTableRecord
  2
*Paper_Space0
340
26
  0
BLOCK_RECORD
  5
156
330
1
100
AcDbSymbolTableRecord
100
AcDbBlockTableRecord
  2
*D1
340
0
  0
BLOCK_RECORD
  5
162
330
1
100
AcDbSymbolTableRecord
100
AcDbBlockTableRecord
  2
*D2
340
0
  0
BLOCK_RECORD
  5
16D
330
1
100
AcDbSymbolTableRecord
100
AcDbBlockTableRecord
  2
*D3
340
0
  0
ENDTAB
  0
ENDSEC
  0
SECTION
  2
BLOCKS
  0
BLOCK
  5
20
330
1F
100
AcDbEntity
  8
0
100
AcDbBlockBegin
  2
*Model_Space
 70
     0
 10
0.0
 20
0.0
 30
0.0
  3
*Model_Space
  1

  0
ENDBLK
  5
21
330
1F
100
AcDbEntity
  8
0
100
AcDbBlockEnd
  0
BLOCK
  5
1C
330
1B
100
AcDbEntity
 67
     1
  8
0
100
AcDbBlockBegin
  2
*Paper_Space
 70
     0
 10
0.0
 20
0.0
 30
0.0
  3
*Paper_Space
  1

  0
ENDBLK
  5
1D
330
1B
100
AcDbEntity
 67
     1
  8
0
100
AcDbBlockEnd
  0
BLOCK
  5
24
330
23
100
AcDbEntity
  8
0
100
AcDbBlockBegin
  2
*Paper_Space0
 70
     0
 10
0.0
 20
0.0
 30
0.0
  3
*Paper_Space0
  1

  0
ENDBLK
  5
25
330
23
100
AcDbEntity
  8
0
100
AcDbBlockEnd
  0
BLOCK
  5
15E
330
156
100
AcDbEntity
  8
0
100
AcDbBlockBegin
  2
*D1
 70
     1
 10
0.0
 20
0.0
 30
0.0
  3
*D1
  1

  0
LINE
  5
157
330
156
100
AcDbEntity
  8
1
  6
Continuous
 62
     2
100
AcDbLine
 10
-80.9004084014003
 20
88.29324572927837
 30
0.0
 11
-80.9004084014003
 21
70.04324549081475
 31
0.0
  0
LINE
  5
158
330
156
100
AcDbEntity
  8
1
  6
Continuous
 62
     2
100
AcDbLine
 10
-80.9004084014003
 20
110.043245967742
 30
0.0
 11
-80.9004084014003
 21
91.79324572927837
 31
0.0
  0
LINE
  5
159
330
156
100
AcDbEntity
  8
1
  6
Continuous
 62
     2
100
AcDbLine
 10
-66.7939516129033
 20
70.04324549081475
 30
0.0
 11
-81.4004084014003
 21
70.04324549081475
 31
0.0
  0
LINE
  5
15A
330
156
100
AcDbEntity
  8
1
  6
Continuous
 62
     2
100
AcDbLine
 10
-72.0439516129033
 20
110.043245967742
 30
0.0
 11
-81.4004084014003
 21
110.043245967742
 31
0.0
  0
SOLID
  5
15B
330
156
100
AcDbEntity
  8
1
 62
     2
100
AcDbTrace
 10
-80.7029296550192
 20
108.543245967742
 30
0.0
 11
-81.09788714778139
 21
108.543245967742
 31
0.0
 12
-80.9004084014003
 22
110.043245967742
 32
0.0
 13
-80.9004084014003
 23
110.043245967742
 33
0.0
  0
SOLID
  5
15C
330
156
100
AcDbEntity
  8
1
 62
     2
100
AcDbTrace
 10
-81.09788714778139
 20
71.54324549081475
 30
0.0
 11
-80.7029296550192
 21
71.54324549081475
 31
0.0
 12
-80.9004084014003
 22
70.04324549081475
 32
0.0
 13
-80.9004084014003
 23
70.04324549081475
 33
0.0
  0
MTEXT
  5
15D
330
156
100
AcDbEntity
  8
1
 62
     4
100
AcDbMText
 10
-82.0254084014003
 20
89.29324572927837
 30
0.0
 40
1.5
 41
0.0
 71
     7
 72
     1
  1
40
  7
CONVERTER_11
 11
0.9999999999970619
 21
2.424068405545306E-6
 31
0.0
 73
     1
 44
0.60024009603842
  0
ENDBLK
  5
15F
330
156
100
AcDbEntity
  8
0
100
AcDbBlockEnd
  0
BLOCK
  5
169
330
162
100
AcDbEntity
  8
0
100
AcDbBlockBegin
  2
*D2
 70
     1
 10
0.0
 20
0.0
 30
0.0
  3
*D2
  1

  0
LINE
  5
163
330
162
100
AcDbEntity
  8
1
  6
Continuous
 62
     2
100
AcDbLine
 10
-34.49177945564617
 20
114.823101043151
 30
0.0
 11
-26.29177945564618
 21
114.823101043151
 31
0.0
  0
LINE
  5
164
330
162
100
AcDbEntity
  8
1
  6
Continuous
 62
     2
100
AcDbLine
 10
-34.49177945564617
 20
107.5987595948749
 30
0.0
 11
-34.49177945564617
 21
115.323101043151
 31
0.0
  0
LINE
  5
165
330
162
100
AcDbEntity
  8
1
  6
Continuous
 62
     2
100
AcDbLine
 10
-26.29177945564618
 20
107.5987595948749
 30
0.0
 11
-26.29177945564618
 21
115.323101043151
 31
0.0
  0
SOLID
  5
166
330
162
100
AcDbEntity
  8
1
 62
     2
100
AcDbTrace
 10
-32.74177945564617
 20
115.0534929139289
 30
0.0
 11
-32.74177945564617
 21
114.5927091723731
 31
0.0
 12
-34.49177945564617
 22
114.823101043151
 32
0.0
 13
-34.49177945564617
 23
114.823101043151
 33
0.0
  0
SOLID
  5
167
330
162
100
AcDbEntity
  8
1
 62
     2
100
AcDbTrace
 10
-28.04177945564618
 20
114.5927091723731
 30
0.0
 11
-28.04177945564618
 21
115.0534929139289
 31
0.0
 12
-26.29177945564618
 22
114.823101043151
 32
0.0
 13
-26.29177945564618
 23
114.823101043151
 33
0.0
  0
MTEXT
  5
168
330
162
100
AcDbEntity
  8
1
 62
     4
100
AcDbMText
 10
-32.21177945563774
 20
115.8230940860747
 30
0.0
 40
1.75
 41
0.0
 71
     7
 72
     1
  1
\C4; {\Fgdt;n}\C4;A\C4;
  7
CONVERTER_11
 11
0.9999999999970619
 21
2.424068405545306E-6
 31
0.0
 73
     1
 44
0.60024009603842
  0
ENDBLK
  5
16A
330
162
100
AcDbEntity
  8
0
100
AcDbBlockEnd
  0
BLOCK
  5
175
330
16D
100
AcDbEntity
  8
0
100
AcDbBlockBegin
  2
*D3
 70
     1
 10
0.0
 20
0.0
 30
0.0
  3
*D3
  1

  0
LINE
  5
16E
330
16D
100
AcDbEntity
  8
1
  6
Continuous
 62
     2
100
AcDbLine
 10
-73.7939516129033
 20
114.836629505685
 30
0.0
 11
-53.79395161290331
 21
114.836629505685
 31
0.0
  0
LINE
  5
16F
330
16D
100
AcDbEntity
  8
1
  6
Continuous
 62
     2
100
AcDbLine
 10
-73.7939516129033
 20
94.2932454909048
 30
0.0
 11
-73.7939516129033
 21
109.0911661990047
 31
0.0
  0
LINE
  5
170
330
16D
100
AcDbEntity
  8
1
  6
Continuous
 62
     2
100
AcDbLine
 10
-73.7939516129033
 20
110.9567885078809
 30
0.0
 11
-73.7939516129033
 21
115.336629505685
 31
0.0
  0
LINE
  5
171
330
16D
100
AcDbEntity
  8
1
  6
Continuous
 62
     2
100
AcDbLine
 10
-53.79395161290331
 20
94.2932454909048
 30
0.0
 11
-53.79395161290331
 21
115.336629505685
 31
0.0
  0
SOLID
  5
172
330
16D
100
AcDbEntity
  8
1
 62
     2
100
AcDbTrace
 10
-72.2939516129033
 20
115.0341082520661
 30
0.0
 11
-72.2939516129033
 21
114.6391507593039
 31
0.0
 12
-73.7939516129033
 22
114.836629505685
 32
0.0
 13
-73.7939516129033
 23
114.836629505685
 33
0.0
  0
SOLID
  5
173
330
16D
100
AcDbEntity
  8
1
 62
     2
100
AcDbTrace
 10
-55.29395161290331
 20
114.6391507593039
 30
0.0
 11
-55.29395161290331
 21
115.0341082520661
 31
0.0
 12
-53.79395161290331
 22
114.836629505685
 32
0.0
 13
-53.79395161290331
 23
114.836629505685
 33
0.0
  0
MTEXT
  5
174
330
16D
100
AcDbEntity
  8
1
 62
     4
100
AcDbMText
 10
-65.32395161289968
 20
115.8366265240809
 30
0.0
 40
1.5
 41
0.0
 71
     7
 72
     1
  1
\C4;\U+00f8\C4;20
  7
CONVERTER_11
 11
0.9999999999970619
 21
2.424068405545306E-6
 31
0.0
 73
     1
 44
0.60024009603842
  0
ENDBLK
  5
176
330
16D
100
AcDbEntity
  8
0
100
AcDbBlockEnd
  0
ENDSEC
  0
SECTION
  2
ENTITIES
  0
LINE
  5
47
330
1F
100
AcDbEntity
  8
0
  6
Continuous
 62
     7
100
AcDbLine
 10
-27.64177969406477
 20
70.04324549081475
 30
0.0
 11
-33.14177969406477
 21
70.04324549081475
 31
0.0
  0
LINE
  5
48
330
1F
100
AcDbEntity
  8
0
  6
Continuous
 62
     2
100
AcDbLine
 10
-25.64177969406477
 20
72.04324549081475
 30
0.0
 11
-35.14177969406477
 21
72.04324549081475
 31
0.0
  0
LINE
  5
49
330
1F
100
AcDbEntity
  8
0
  6
Continuous
 62
     2
100
AcDbLine
 10
-25.64177969406477
 20
90.54324549081475
 30
0.0
 11
-35.14177969406477
 21
90.54324549081475
 31
0.0
  0
LINE
  5
4A
330
1F
100
AcDbEntity
  8
0
  6
Continuous
 62
     7
100
AcDbLine
 10
-35.14177969406477
 20
90.54324549081475
 30
0.0
 11
-35.14177969406477
 21
72.04324549081475
 31
0.0
  0
LINE
  5
4B
330
1F
100
AcDbEntity
  8
0
  6
Continuous
 62
     7
100
AcDbLine
 10
-25.64177969406477
 20
90.54324549081475
 30
0.0
 11
-25.64177969406477
 21
72.04324549081475
 31
0.0
  0
LINE
  5
4C
330
1F
100
AcDbEntity
  8
1
  6
DOT_CENTER
 62
     2
100
AcDbLine
 10
-63.79395161290331
 20
115.5204090613832
 30
0.0
 11
-63.79395161290331
 21
67.9980663882375
 31
0.0
  0
LINE
  5
4D
330
1F
100
AcDbEntity
  8
0
  6
Continuous
 62
     7
100
AcDbLine
 10
-19.6574565866789
 20
138.191067342848
 30
0.0
 11
-17.44240233327321
 21
137.0835402161452
 31
0.0
  0
LINE
  5
4E
330
1F
100
AcDbEntity
  8
0
  6
Continuous
 62
     7
100
AcDbLine
 10
-18.46580473420281
 20
128.5950678071734
 30
0.0
 11
-17.81173096160531
 21
128.2680309208746
 31
0.0
  0
LINE
  5
4F
330
1F
100
AcDbEntity
  8
0
  6
Continuous
 62
     7
100
AcDbLine
 10
-22.38545951922862
 20
132.7350614777486
 30
0.0
 11
-20.17040526582291
 21
131.6275343510457
 31
0.0
  0
LINE
  5
50
330
1F
100
AcDbEntity
  8
0
  6
Continuous
 62
     7
100
AcDbLine
 10
-20.50432302337781
 20
139.6766328505099
 30
0.0
 11
-19.6204395468946
 21
139.2346911122683
 31
0.0
  0
LINE
  5
51
330
1F
100
AcDbEntity
  8
0
  6
Continuous
 62
     7
100
AcDbLine
 10
-24.0820317873775
 20
132.5212153225106
 30
0.0
 11
-23.19814831089425
 21
132.079273584269
 31
0.0
  0
LINE
  5
52
330
1F
100
AcDbEntity
  8
0
  6
Continuous
 62
     7
100
AcDbLine
 10
-18.87239113338507
 20
128.7983610067645
 30
0.0
 11
-18.57187075138076
 21
128.6481008157624
 31
0.0
  0
LINE
  5
53
330
1F
100
AcDbEntity
  8
0
  6
Continuous
 62
     7
100
AcDbLine
 10
-19.76527066263576
 20
131.3524698177955
 30
0.0
 11
-19.76527066263576
 21
131.2994368092066
 31
0.0
  0
LINE
  5
54
330
1F
100
AcDbEntity
  8
0
  6
Continuous
 62
     7
100
AcDbLine
 10
-13.99366877920321
 20
137.5393397171725
 30
0.0
 11
-13.33959500660572
 21
137.2123028308738
 31
0.0
  0
LINE
  5
55
330
1F
100
AcDbEntity
  8
0
  6
Continuous
 62
     7
100
AcDbLine
 10
-16.97926994476072
 20
136.9244712535456
 30
0.0
 11
-16.9368435378895
 21
136.956291058699
 31
0.0
  0
LINE
  5
56
330
1F
100
AcDbEntity
  8
0
  6
Continuous
 62
     7
100
AcDbLine
 10
-14.40025517838546
 20
137.7426329167637
 30
0.0
 11
-14.09973479638117
 21
137.5923727257615
 31
0.0
  0
LINE
  5
57
330
1F
100
AcDbEntity
  8
0
  6
Continuous
 62
     7
100
AcDbLine
 10
-14.33675399949647
 20
134.7760431068507
 30
0.0
 11
-7.79601627352091
 21
131.5056742438629
 31
0.0
  0
LINE
  5
58
330
1F
100
AcDbEntity
  8
0
  6
Continuous
 62
     7
100
AcDbLine
 10
-16.46101857812126
 20
130.5275139496011
 30
0.0
 11
-9.92028085214571
 21
127.2571450866133
 31
0.0
  0
LINE
  5
59
330
1F
100
AcDbEntity
  8
0
  6
Continuous
 62
     7
100
AcDbLine
 10
-59.04395161290329
 20
90.54324549081475
 30
0.0
 11
-59.04395161290329
 21
72.04324549081475
 31
0.0
  0
LINE
  5
5A
330
1F
100
AcDbEntity
  8
0
  6
Continuous
 62
     7
100
AcDbLine
 10
-68.5439516129033
 20
90.54324549081475
 30
0.0
 11
-68.5439516129033
 21
72.04324549081475
 31
0.0
  0
LINE
  5
5B
330
1F
100
AcDbEntity
  8
0
  6
Continuous
 62
     2
100
AcDbLine
 10
-59.04395161290329
 20
90.54324549081475
 30
0.0
 11
-68.5439516129033
 21
90.54324549081475
 31
0.0
  0
LINE
  5
5C
330
1F
100
AcDbEntity
  8
0
  6
Continuous
 62
     2
100
AcDbLine
 10
-59.04395161290329
 20
72.04324549081475
 30
0.0
 11
-68.5439516129033
 21
72.04324549081475
 31
0.0
  0
LINE
  5
5D
330
1F
100
AcDbEntity
  8
0
  6
Continuous
 62
     7
100
AcDbLine
 10
-61.04395161290329
 20
70.04324549081475
 30
0.0
 11
-66.5439516129033
 21
70.04324549081475
 31
0.0
  0
LINE
  5
5E
330
1F
100
AcDbEntity
  8
1
  6
Continuous
 62
     7
100
AcDbLine
 10
-27.59999999999955
 20
40.83876067704481
 30
0.0
 11
-76.60000000000066
 21
40.83876067704481
 31
0.0
  0
LINE
  5
5F
330
1F
100
AcDbEntity
  8
1
  6
Continuous
 62
     7
100
AcDbLine
 10
-27.59999999999955
 20
44.03876067704486
 30
0.0
 11
-76.60000000000066
 21
44.03876067704486
 31
0.0
  0
LINE
  5
60
330
1F
100
AcDbEntity
  8
1
  6
Continuous
 62
     7
100
AcDbLine
 10
-94.5
 20
10.0
 30
0.0
 11
-2.5
 21
10.0
 31
0.0
  0
LINE
  5
61
330
1F
100
AcDbEntity
  8
1
  6
Continuous
 62
     7
100
AcDbLine
 10
-94.5
 20
2.49999999999994
 30
0.0
 11
-2.5
 21
2.49999999999994
 31
0.0
  0
LINE
  5
62
330
1F
100
AcDbEntity
  8
1
  6
Continuous
 62
     7
100
AcDbLine
 10
-82.0
 20
17.5
 30
0.0
 11
-82.0
 21
20.0
 31
0.0
  0
LINE
  5
63
330
1F
100
AcDbEntity
  8
1
  6
Continuous
 62
     7
100
AcDbLine
 10
-91.0
 20
17.5
 30
0.0
 11
-91.0
 21
20.0
 31
0.0
  0
LINE
  5
64
330
1F
100
AcDbEntity
  8
1
  6
Continuous
 62
     7
100
AcDbLine
 10
-94.5
 20
20.0
 30
0.0
 11
-2.5
 21
20.0
 31
0.0
  0
LINE
  5
65
330
1F
100
AcDbEntity
  8
1
  6
Continuous
 62
     7
100
AcDbLine
 10
-82.0
 20
15.0
 30
0.0
 11
-82.0
 21
17.5
 31
0.0
  0
LINE
  5
66
330
1F
100
AcDbEntity
  8
1
  6
Continuous
 62
     7
100
AcDbLine
 10
-91.0
 20
15.0
 30
0.0
 11
-91.0
 21
17.5
 31
0.0
  0
LINE
  5
67
330
1F
100
AcDbEntity
  8
1
  6
Continuous
 62
     7
100
AcDbLine
 10
-94.5
 20
17.5
 30
0.0
 11
-2.5
 21
17.5
 31
0.0
  0
LINE
  5
68
330
1F
100
AcDbEntity
  8
1
  6
Continuous
 62
     7
100
AcDbLine
 10
-82.0
 20
12.5
 30
0.0
 11
-82.0
 21
15.0
 31
0.0
  0
LINE
  5
69
330
1F
100
AcDbEntity
  8
1
  6
Continuous
 62
     7
100
AcDbLine
 10
-91.0
 20
12.5
 30
0.0
 11
-91.0
 21
15.0
 31
0.0
  0
LINE
  5
6A
330
1F
100
AcDbEntity
  8
1
  6
Continuous
 62
     7
100
AcDbLine
 10
-94.5
 20
15.0
 30
0.0
 11
-2.5
 21
15.0
 31
0.0
  0
LINE
  5
6B
330
1F
100
AcDbEntity
  8
1
  6
Continuous
 62
     7
100
AcDbLine
 10
-82.0
 20
10.0
 30
0.0
 11
-82.0
 21
12.5
 31
0.0
  0
LINE
  5
6C
330
1F
100
AcDbEntity
  8
1
  6
Continuous
 62
     7
100
AcDbLine
 10
-91.0
 20
10.0
 30
0.0
 11
-91.0
 21
12.5
 31
0.0
  0
LINE
  5
6D
330
1F
100
AcDbEntity
  8
1
  6
Continuous
 62
     7
100
AcDbLine
 10
-94.5
 20
12.5
 30
0.0
 11
-2.5
 21
12.5
 31
0.0
  0
LINE
  5
6E
102
{ACAD_REACTORS
330
179
102
}
330
1F
100
AcDbEntity
  8
1
  6
Continuous
 62
     7
100
AcDbLine
 10
-7.07856258004711
 20
5.27900104019017
 30
0.0
 11
-7.74522924671373
 21
4.89438565557487
 31
0.0
  0
LINE
  5
6F
102
{ACAD_REACTORS
330
179
102
}
330
1F
100
AcDbEntity
  8
1
  6
Continuous
 62
     7
100
AcDbLine
 10
-7.66184965562865
 20
5.32731826632397
 30
0.0
 11
-7.24513673121027
 21
5.56772956887312
 31
0.0
  0
LINE
  5
70
102
{ACAD_REACTORS
330
179
102
}
330
1F
100
AcDbEntity
  8
1
  6
Continuous
 62
     7
100
AcDbLine
 10
-7.66184965562865
 20
6.08333333333332
 30
0.0
 11
-7.66184965562865
 21
5.32731826632397
 31
0.0
  0
LINE
  5
71
102
{ACAD_REACTORS
330
179
102
}
330
1F
100
AcDbEntity
  8
1
  6
Continuous
 62
     7
100
AcDbLine
 10
-7.16184965562865
 20
6.08333333333332
 30
0.0
 11
-7.66184965562865
 21
6.08333333333332
 31
0.0
  0
LINE
  5
72
102
{ACAD_REACTORS
330
179
102
}
330
1F
100
AcDbEntity
  8
1
  6
Continuous
 62
     7
100
AcDbLine
 10
-7.66184965562865
 20
6.41666666666663
 30
0.0
 11
-7.16184965562865
 21
6.41666666666663
 31
0.0
  0
LINE
  5
73
102
{ACAD_REACTORS
330
179
102
}
330
1F
100
AcDbEntity
  8
1
  6
Continuous
 62
     7
100
AcDbLine
 10
-7.66184965562865
 20
7.17268173367597
 30
0.0
 11
-7.66184965562865
 21
6.41666666666663
 31
0.0
  0
LINE
  5
74
102
{ACAD_REACTORS
330
179
102
}
330
1F
100
AcDbEntity
  8
1
  6
Continuous
 62
     7
100
AcDbLine
 10
-7.24513673121027
 20
6.93227043112688
 30
0.0
 11
-7.66184965562865
 21
7.17268173367597
 31
0.0
  0
LINE
  5
75
102
{ACAD_REACTORS
330
179
102
}
330
1F
100
AcDbEntity
  8
1
  6
Continuous
 62
     7
100
AcDbLine
 10
-7.74522924671373
 20
7.60561434442513
 30
0.0
 11
-7.07856258004711
 21
7.22099895980972
 31
0.0
  0
LINE
  5
76
102
{ACAD_REACTORS
330
17A
102
}
330
1F
100
AcDbEntity
  8
1
  6
Continuous
 62
     7
100
AcDbLine
 10
-11.32851632229534
 20
5.42336530453161
 30
0.0
 11
-11.32851632229534
 21
7.07663469546833
 31
0.0
  0
LINE
  5
77
102
{ACAD_REACTORS
330
17A
102
}
330
1F
100
AcDbEntity
  8
1
  6
Continuous
 62
     7
100
AcDbLine
 10
-10.99518298896203
 20
5.51962595863165
 30
0.0
 11
-10.99518298896203
 21
5.42336530453161
 31
0.0
  0
LINE
  5
78
102
{ACAD_REACTORS
330
17A
102
}
330
1F
100
AcDbEntity
  8
1
  6
Continuous
 62
     7
100
AcDbLine
 10
-10.99518298896203
 20
7.07663469546833
 30
0.0
 11
-10.99518298896203
 21
5.51962595863165
 31
0.0
  0
LINE
  5
79
102
{ACAD_REACTORS
330
17B
102
}
330
1F
100
AcDbEntity
  8
1
  6
Continuous
 62
     7
100
AcDbLine
 10
-9.41180339787695
 20
4.2213087324979
 30
0.0
 11
-10.49509047345851
 21
4.84628204533345
 31
0.0
  0
LINE
  5
7A
102
{ACAD_REACTORS
330
17B
102
}
330
1F
100
AcDbEntity
  8
1
  6
Continuous
 62
     7
100
AcDbLine
 10
-10.32851632229534
 20
5.13501057401635
 30
0.0
 11
-9.24522924671374
 21
4.5100372611808
 31
0.0
  0
LINE
  5
7B
102
{ACAD_REACTORS
330
17B
102
}
330
1F
100
AcDbEntity
  8
1
  6
Continuous
 62
     7
100
AcDbLine
 10
-10.32851632229534
 20
7.46125008008369
 30
0.0
 11
-10.32851632229534
 21
5.13501057401635
 31
0.0
  0
LINE
  5
7C
102
{ACAD_REACTORS
330
17B
102
}
330
1F
100
AcDbEntity
  8
1
  6
Continuous
 62
     7
100
AcDbLine
 10
-10.66184965562866
 20
5.13501057401629
 30
0.0
 11
-10.66184965562866
 21
7.46125008008369
 31
0.0
  0
LINE
  5
7D
102
{ACAD_REACTORS
330
17C
102
}
330
1F
100
AcDbEntity
  8
1
  6
Continuous
 62
     7
100
AcDbLine
 10
-8.57573316410702
 20
7.93185020913614
 30
0.0
 11
-9.16184965562866
 21
6.91666666666663
 31
0.0
  0
LINE
  5
7E
102
{ACAD_REACTORS
330
17C
102
}
330
1F
100
AcDbEntity
  8
1
  6
Continuous
 62
     7
100
AcDbLine
 10
-8.32851632229534
 20
4.6541345353009
 30
0.0
 11
-8.32851632229534
 21
7.86560865601728
 31
0.0
  0
LINE
  5
7F
102
{ACAD_REACTORS
330
17C
102
}
330
1F
100
AcDbEntity
  8
1
  6
Continuous
 62
     7
100
AcDbLine
 10
-8.66184965562866
 20
6.25
 30
0.0
 11
-8.66184965562866
 21
4.6541345353009
 31
0.0
  0
LINE
  5
80
102
{ACAD_REACTORS
330
17C
102
}
330
1F
100
AcDbEntity
  8
1
  6
Continuous
 62
     7
100
AcDbLine
 10
-9.66184965562866
 20
5.42379253631645
 30
0.0
 11
-9.66184965562866
 21
6.25
 31
0.0
  0
LINE
  5
81
102
{ACAD_REACTORS
330
17C
102
}
330
1F
100
AcDbEntity
  8
1
  6
Continuous
 62
     7
100
AcDbLine
 10
-9.99518298896203
 20
6.25
 30
0.0
 11
-9.99518298896203
 21
5.42379253631645
 31
0.0
  0
LINE
  5
82
102
{ACAD_REACTORS
330
17C
102
}
330
1F
100
AcDbEntity
  8
1
  6
Continuous
 62
     7
100
AcDbLine
 10
-9.7479661471503
 20
7.93185020913614
 30
0.0
 11
-9.16184965562866
 21
6.91666666666663
 31
0.0
  0
LINE
  5
83
102
{ACAD_REACTORS
330
17C
102
}
330
1F
100
AcDbEntity
  8
1
  6
Continuous
 62
     7
100
AcDbLine
 10
-9.99518298896203
 20
6.25
 30
0.0
 11
-9.99518298896203
 21
7.86560865601728
 31
0.0
  0
LINE
  5
84
330
1F
100
AcDbEntity
  8
1
  6
Continuous
 62
     7
100
AcDbLine
 10
-9.16184965562866
 20
3.75
 30
0.0
 11
-13.37006729319944
 21
6.17781786782928
 31
0.0
  0
LINE
  5
85
330
1F
100
AcDbEntity
  8
1
  6
Continuous
 62
     7
100
AcDbLine
 10
-4.95363201805793
 20
6.17781786782928
 30
0.0
 11
-9.16184965562866
 21
3.75
 31
0.0
  0
LINE
  5
86
330
1F
100
AcDbEntity
  8
1
  6
Continuous
 62
     7
100
AcDbLine
 10
-9.16184965562866
 20
8.75
 30
0.0
 11
-4.95363201805793
 21
6.32218213217067
 31
0.0
  0
LINE
  5
87
330
1F
100
AcDbEntity
  8
1
  6
Continuous
 62
     7
100
AcDbLine
 10
-13.37006729319944
 20
6.32218213217067
 30
0.0
 11
-9.16184965562866
 21
8.75
 31
0.0
  0
LINE
  5
88
102
{ACAD_REACTORS
330
17C
102
}
330
1F
100
AcDbEntity
  8
1
  6
Continuous
 62
     7
100
AcDbLine
 10
-9.66184965562866
 20
7.11602540378442
 30
0.0
 11
-9.66184965562866
 21
6.25
 31
0.0
  0
LINE
  5
89
102
{ACAD_REACTORS
330
17C
102
}
330
1F
100
AcDbEntity
  8
1
  6
Continuous
 62
     7
100
AcDbLine
 10
-9.2340184392774
 20
6.375
 30
0.0
 11
-9.66184965562866
 21
7.11602540378442
 31
0.0
  0
LINE
  5
8A
102
{ACAD_REACTORS
330
17C
102
}
330
1F
100
AcDbEntity
  8
1
  6
Continuous
 62
     7
100
AcDbLine
 10
-8.66184965562866
 20
7.11602540378442
 30
0.0
 11
-9.08968087197997
 21
6.375
 31
0.0
  0
LINE
  5
8B
102
{ACAD_REACTORS
330
17C
102
}
330
1F
100
AcDbEntity
  8
1
  6
Continuous
 62
     7
100
AcDbLine
 10
-8.66184965562866
 20
6.25
 30
0.0
 11
-8.66184965562866
 21
7.11602540378442
 31
0.0
  0
LINE
  5
8C
102
{ACAD_REACTORS
330
179
102
}
330
1F
100
AcDbEntity
  8
1
  6
Continuous
 62
     7
100
AcDbLine
 10
-7.99518298896197
 20
5.03874991991631
 30
0.0
 11
-7.99518298896197
 21
7.46125008008369
 31
0.0
  0
LINE
  5
8D
330
1F
100
AcDbEntity
  8
1
  6
Continuous
 62
     7
100
AcDbLine
 10
-94.5
 20
146.0000000000001
 30
0.0
 11
-94.5
 21
2.49999999999994
 31
0.0
  0
LINE
  5
8E
330
1F
100
AcDbEntity
  8
1
  6
Continuous
 62
     7
100
AcDbLine
 10
-2.5
 20
146.0000000000001
 30
0.0
 11
-94.5
 21
146.0000000000001
 31
0.0
  0
LINE
  5
8F
330
1F
100
AcDbEntity
  8
1
  6
Continuous
 62
     7
100
AcDbLine
 10
-2.5
 20
2.49999999999994
 30
0.0
 11
-2.5
 21
146.0000000000001
 31
0.0
  0
LINE
  5
90
330
1F
100
AcDbEntity
  8
1
  6
Continuous
 62
     7
100
AcDbLine
 10
0.0
 20
148.5000000000001
 30
0.0
 11
-105.0000000000001
 21
148.5000000000001
 31
0.0
  0
LINE
  5
91
330
1F
100
AcDbEntity
  8
1
  6
Continuous
 62
     7
100
AcDbLine
 10
-105.0000000000001
 20
148.5000000000001
 30
0.0
 11
-105.0000000000001
 21
0.0
 31
0.0
  0
LINE
  5
92
330
1F
100
AcDbEntity
  8
1
  6
Continuous
 62
     7
100
AcDbLine
 10
-105.0000000000001
 20
0.0
 30
0.0
 11
0.0
 21
0.0
 31
0.0
  0
LINE
  5
93
330
1F
100
AcDbEntity
  8
1
  6
Continuous
 62
     7
100
AcDbLine
 10
0.0
 20
0.0
 30
0.0
 11
0.0
 21
148.5000000000001
 31
0.0
  0
LINE
  5
94
330
1F
100
AcDbEntity
  8
1
  6
Continuous
 62
     7
100
AcDbLine
 10
-105.0000000000001
 20
74.24999999999996
 30
0.0
 11
-97.50000000000006
 21
74.24999999999996
 31
0.0
  0
LINE
  5
95
330
1F
100
AcDbEntity
  8
1
  6
Continuous
 62
     7
100
AcDbLine
 10
-94.5
 20
6.25
 30
0.0
 11
-79.5
 21
6.25
 31
0.0
  0
LINE
  5
96
330
1F
100
AcDbEntity
  8
1
  6
Continuous
 62
     7
100
AcDbLine
 10
-79.5
 20
10.0
 30
0.0
 11
-79.5
 21
2.5
 31
0.0
  0
LINE
  5
97
330
1F
100
AcDbEntity
  8
1
  6
Continuous
 62
     7
100
AcDbLine
 10
-15.82369931125731
 20
10.0
 30
0.0
 11
-15.82369931125731
 21
2.5
 31
0.0
  0
LINE
  5
98
330
1F
100
AcDbEntity
  8
1
  6
Continuous
 62
     7
100
AcDbLine
 10
-24.5
 20
10.0
 30
0.0
 11
-24.5
 21
2.5
 31
0.0
  0
LINE
  5
99
330
1F
100
AcDbEntity
  8
1
  6
Continuous
 62
     7
100
AcDbLine
 10
-94.5
 20
10.0
 30
0.0
 11
-94.5
 21
2.49999999999994
 31
0.0
  0
LINE
  5
9A
330
1F
100
AcDbEntity
  8
1
  6
Continuous
 62
     7
100
AcDbLine
 10
-38.59999999999978
 20
56.43876067704494
 30
0.0
 11
-38.59999999999978
 21
37.63876067704476
 31
0.0
  0
LINE
  5
9B
330
1F
100
AcDbEntity
  8
1
  6
Continuous
 62
     7
100
AcDbLine
 10
-17.59999999999934
 20
56.43876067704494
 30
0.0
 11
-17.59999999999933
 21
37.63876067704476
 31
0.0
  0
LINE
  5
9C
330
1F
100
AcDbEntity
  8
1
  6
Continuous
 62
     7
100
AcDbLine
 10
-47.6
 20
53.43876067704495
 30
0.0
 11
-47.6
 21
37.63876067704476
 31
0.0
  0
LINE
  5
9D
330
1F
100
AcDbEntity
  8
1
  6
Continuous
 62
     7
100
AcDbLine
 10
-56.60000000000024
 20
56.43876067704494
 30
0.0
 11
-56.60000000000024
 21
37.63876067704476
 31
0.0
  0
LINE
  5
9E
330
1F
100
AcDbEntity
  8
1
  6
Continuous
 62
     7
100
AcDbLine
 10
-63.60000000000046
 20
56.43876067704494
 30
0.0
 11
-63.60000000000046
 21
37.63876067704476
 31
0.0
  0
LINE
  5
9F
330
1F
100
AcDbEntity
  8
1
  6
Continuous
 62
     7
100
AcDbLine
 10
-76.60000000000046
 20
56.43876067704495
 30
0.0
 11
-17.59999999999934
 21
56.43876067704494
 31
0.0
  0
LINE
  5
A0
330
1F
100
AcDbEntity
  8
1
  6
Continuous
 62
     7
100
AcDbLine
 10
-76.60000000000058
 20
50.43876067704497
 30
0.0
 11
-17.59999999999936
 21
50.43876067704497
 31
0.0
  0
LINE
  5
A1
330
1F
100
AcDbEntity
  8
1
  6
Continuous
 62
     7
100
AcDbLine
 10
-27.59999999999955
 20
47.23876067704492
 30
0.0
 11
-76.60000000000066
 21
47.23876067704492
 31
0.0
  0
LINE
  5
A2
330
1F
100
AcDbEntity
  8
1
  6
Continuous
 62
     7
100
AcDbLine
 10
-17.59999999999933
 20
37.63876067704476
 30
0.0
 11
-76.60000000000066
 21
37.63876067704476
 31
0.0
  0
LINE
  5
A3
330
1F
100
AcDbEntity
  8
1
  6
Continuous
 62
     7
100
AcDbLine
 10
-76.60000000000046
 20
56.43876067704495
 30
0.0
 11
-76.60000000000066
 21
37.63876067704476
 31
0.0
  0
LINE
  5
A4
330
1F
100
AcDbEntity
  8
0
  6
Continuous
 62
     7
100
AcDbLine
 10
-73.7939516129033
 20
91.04324549081475
 30
0.0
 11
-73.7939516129033
 21
92.89324587237452
 31
0.0
  0
LINE
  5
A5
330
1F
100
AcDbEntity
  8
0
  6
Continuous
 62
     7
100
AcDbLine
 10
-53.79395161290331
 20
91.04324549081475
 30
0.0
 11
-53.79395161290331
 21
92.89324587237452
 31
0.0
  0
LINE
  5
A6
330
1F
100
AcDbEntity
  8
0
  6
Continuous
 62
     7
100
AcDbLine
 10
-73.7939516129033
 20
93.19324606310938
 30
0.0
 11
-73.7939516129033
 21
94.0432454909048
 31
0.0
  0
LINE
  5
A7
330
1F
100
AcDbEntity
  8
0
  6
Continuous
 62
     7
100
AcDbLine
 10
-53.79395161290331
 20
94.0432454909048
 30
0.0
 11
-53.79395161290331
 21
93.19324606310938
 31
0.0
  0
LINE
  5
A8
330
1F
100
AcDbEntity
  8
0
  6
Continuous
 62
     7
100
AcDbLine
 10
-73.7939516129033
 20
93.19324606310938
 30
0.0
 11
-73.64395199437303
 21
93.0432454909048
 31
0.0
  0
LINE
  5
A9
330
1F
100
AcDbEntity
  8
0
  6
Continuous
 62
     7
100
AcDbLine
 10
-53.94395123143358
 20
93.0432454909048
 30
0.0
 11
-53.79395161290331
 21
93.19324606310938
 31
0.0
  0
LINE
  5
AA
330
1F
100
AcDbEntity
  8
0
  6
Continuous
 62
     7
100
AcDbLine
 10
-53.79395161290331
 20
92.89324587237452
 30
0.0
 11
-53.94395123143358
 21
93.0432454909048
 31
0.0
  0
LINE
  5
AB
330
1F
100
AcDbEntity
  8
0
  6
Continuous
 62
     7
100
AcDbLine
 10
-73.64395199437303
 20
93.0432454909048
 30
0.0
 11
-73.7939516129033
 21
92.89324587237452
 31
0.0
  0
LINE
  5
AC
330
1F
100
AcDbEntity
  8
0
  6
Continuous
 62
     7
100
AcDbLine
 10
-71.7939516129033
 20
110.043245967742
 30
0.0
 11
-71.7939516129033
 21
107.543245967742
 31
0.0
  0
LINE
  5
AD
330
1F
100
AcDbEntity
  8
0
  6
Continuous
 62
     7
100
AcDbLine
 10
-55.79395161290331
 20
110.043245967742
 30
0.0
 11
-55.79395161290331
 21
107.543245967742
 31
0.0
  0
LINE
  5
AE
330
1F
100
AcDbEntity
  8
0
  6
Continuous
 62
     7
100
AcDbLine
 10
-71.7939516129033
 20
107.543245967742
 30
0.0
 11
-69.89395151753587
 21
106.446280177947
 31
0.0
  0
LINE
  5
AF
330
1F
100
AcDbEntity
  8
0
  6
Continuous
 62
     7
100
AcDbLine
 10
-57.69395170827074
 20
106.446280177947
 30
0.0
 11
-55.79395161290331
 21
107.543245967742
 31
0.0
  0
LINE
  5
B0
330
1F
100
AcDbEntity
  8
0
  6
Continuous
 62
     7
100
AcDbLine
 10
-57.69395170827074
 20
106.446280177947
 30
0.0
 11
-57.69395170827074
 21
95.0432454909048
 31
0.0
  0
LINE
  5
B1
330
1F
100
AcDbEntity
  8
0
  6
Continuous
 62
     7
100
AcDbLine
 10
-69.89395151753587
 20
106.446280177947
 30
0.0
 11
-69.89395151753587
 21
95.0432454909048
 31
0.0
  0
LINE
  5
B2
330
1F
100
AcDbEntity
  8
0
  6
Continuous
 62
     7
100
AcDbLine
 10
-69.86530075688523
 20
95.01254790675257
 30
0.0
 11
-69.89395151753587
 21
95.0432454909048
 31
0.0
  0
LINE
  5
B3
330
1F
100
AcDbEntity
  8
0
  6
Continuous
 62
     7
100
AcDbLine
 10
-57.74286852498216
 20
94.85635703456019
 30
0.0
 11
-57.69395170827074
 21
95.0432454909048
 31
0.0
  0
LINE
  5
B4
330
1F
100
AcDbEntity
  8
0
  6
Continuous
 62
     7
100
AcDbLine
 10
-57.75832710881394
 20
94.83890407931422
 30
0.0
 11
-57.74286852498216
 21
94.85635703456019
 31
0.0
  0
LINE
  5
B5
330
1F
100
AcDbEntity
  8
0
  6
Continuous
 62
     7
100
AcDbLine
 10
-57.73566160817307
 20
94.70122545611476
 30
0.0
 11
-57.75832710881394
 21
94.83890407931422
 31
0.0
  0
LINE
  5
B6
330
1F
100
AcDbEntity
  8
0
  6
Continuous
 62
     7
100
AcDbLine
 10
-57.62397251744432
 20
94.51140850436305
 30
0.0
 11
-57.73566160817307
 21
94.70122545611476
 31
0.0
  0
LINE
  5
B7
330
1F
100
AcDbEntity
  8
0
  6
Continuous
 62
     7
100
AcDbLine
 10
-57.56488953252001
 20
94.4004585112295
 30
0.0
 11
-57.62397251744432
 21
94.51140850436305
 31
0.0
  0
LINE
  5
B8
330
1F
100
AcDbEntity
  8
0
  6
Continuous
 62
     7
100
AcDbLine
 10
-57.37872229237718
 20
94.24838846575831
 30
0.0
 11
-57.56488953252001
 21
94.4004585112295
 31
0.0
  0
LINE
  5
B9
330
1F
100
AcDbEntity
  8
0
  6
Continuous
 62
     7
100
AcDbLine
 10
-57.30325041432543
 20
94.1772205198965
 30
0.0
 11
-57.37872229237718
 21
94.24838846575831
 31
0.0
  0
LINE
  5
BA
330
1F
100
AcDbEntity
  8
0
  6
Continuous
 62
     7
100
AcDbLine
 10
-57.02875576634568
 20
94.08211916339015
 30
0.0
 11
-57.30325041432543
 21
94.1772205198965
 31
0.0
  0
LINE
  5
BB
330
1F
100
AcDbEntity
  8
0
  6
Continuous
 62
     7
100
AcDbLine
 10
-56.98230324406786
 20
94.05843752276515
 30
0.0
 11
-57.02875576634568
 21
94.08211916339015
 31
0.0
  0
LINE
  5
BC
330
1F
100
AcDbEntity
  8
0
  6
Continuous
 62
     7
100
AcDbLine
 10
-56.77797661442919
 20
94.0432454909048
 30
0.0
 11
-56.98230324406786
 21
94.05843752276515
 31
0.0
  0
LINE
  5
BD
330
1F
100
AcDbEntity
  8
0
  6
Continuous
 62
     7
100
AcDbLine
 10
-69.92188940663499
 20
94.70122545611476
 30
0.0
 11
-69.86530075688523
 21
95.01254790675257
 31
0.0
  0
LINE
  5
BE
330
1F
100
AcDbEntity
  8
0
  6
Continuous
 62
     7
100
AcDbLine
 10
-69.93261061330003
 20
94.67052906405543
 30
0.0
 11
-69.92188940663499
 21
94.70122545611476
 31
0.0
  0
LINE
  5
BF
330
1F
100
AcDbEntity
  8
0
  6
Continuous
 62
     7
100
AcDbLine
 10
-70.09462509770555
 20
94.4004585112295
 30
0.0
 11
-69.93261061330003
 21
94.67052906405543
 31
0.0
  0
LINE
  5
C0
330
1F
100
AcDbEntity
  8
0
  6
Continuous
 62
     7
100
AcDbLine
 10
-70.1117096962468
 20
94.37270730387782
 30
0.0
 11
-70.09462509770555
 21
94.4004585112295
 31
0.0
  0
LINE
  5
C1
330
1F
100
AcDbEntity
  8
0
  6
Continuous
 62
     7
100
AcDbLine
 10
-70.35927115101975
 20
94.1772205198965
 30
0.0
 11
-70.1117096962468
 21
94.37270730387782
 31
0.0
  0
LINE
  5
C2
330
1F
100
AcDbEntity
  8
0
  6
Continuous
 62
     7
100
AcDbLine
 10
-70.37728939671678
 20
94.1522039736471
 30
0.0
 11
-70.35927115101975
 21
94.1772205198965
 31
0.0
  0
LINE
  5
C3
330
1F
100
AcDbEntity
  8
0
  6
Continuous
 62
     7
100
AcDbLine
 10
-70.68390904088182
 20
94.05843752276515
 30
0.0
 11
-70.37728939671678
 21
94.1522039736471
 31
0.0
  0
LINE
  5
C4
330
1F
100
AcDbEntity
  8
0
  6
Continuous
 62
     7
100
AcDbLine
 10
-70.4903479637639
 20
94.0432454909048
 30
0.0
 11
-70.68390904088182
 21
94.05843752276515
 31
0.0
  0
LINE
  5
C5
330
1F
100
AcDbEntity
  8
0
  6
Continuous
 62
     7
100
AcDbLine
 10
-57.69395170827074
 20
95.0432454909048
 30
0.0
 11
-57.78662405629319
 21
95.0432454909048
 31
0.0
  0
LINE
  5
C6
330
1F
100
AcDbEntity
  8
0
  6
Continuous
 62
     7
100
AcDbLine
 10
-73.7939516129033
 20
93.19324606310938
 30
0.0
 11
-53.79395161290331
 21
93.19324606310938
 31
0.0
  0
LINE
  5
C7
330
1F
100
AcDbEntity
  8
0
  6
Continuous
 62
     7
100
AcDbLine
 10
-69.89395151753587
 20
106.446280177947
 30
0.0
 11
-57.69395170827074
 21
106.446280177947
 31
0.0
  0
LINE
  5
C8
330
1F
100
AcDbEntity
  8
0
  6
Continuous
 62
     7
100
AcDbLine
 10
-71.7939516129033
 20
107.543245967742
 30
0.0
 11
-55.79395161290331
 21
107.543245967742
 31
0.0
  0
LINE
  5
C9
330
1F
100
AcDbEntity
  8
0
  6
Continuous
 62
     7
100
AcDbLine
 10
-73.64395199437303
 20
93.0432454909048
 30
0.0
 11
-53.94395123143358
 21
93.0432454909048
 31
0.0
  0
LINE
  5
CA
330
1F
100
AcDbEntity
  8
0
  6
Continuous
 62
     7
100
AcDbLine
 10
-73.7939516129033
 20
92.89324587237452
 30
0.0
 11
-53.79395161290331
 21
92.89324587237452
 31
0.0
  0
LINE
  5
CB
330
1F
100
AcDbEntity
  8
0
  6
Continuous
 62
     7
100
AcDbLine
 10
-73.7939516129033
 20
91.04324549081475
 30
0.0
 11
-53.79395161290331
 21
91.04324549081475
 31
0.0
  0
LINE
  5
CC
330
1F
100
AcDbEntity
  8
0
  6
Continuous
 62
     7
100
AcDbLine
 10
-73.7939516129033
 20
94.0432454909048
 30
0.0
 11
-53.79395161290331
 21
94.0432454909048
 31
0.0
  0
LINE
  5
CD
330
1F
100
AcDbEntity
  8
0
  6
Continuous
 62
     7
100
AcDbLine
 10
-55.79395161290331
 20
110.043245967742
 30
0.0
 11
-71.7939516129033
 21
110.043245967742
 31
0.0
  0
LINE
  5
CE
330
1F
100
AcDbEntity
  8
0
  6
Continuous
 62
     7
100
AcDbLine
 10
-20.39177897880904
 20
91.04324549081475
 30
0.0
 11
-20.39177897880904
 21
92.89324587237452
 31
0.0
  0
LINE
  5
CF
330
1F
100
AcDbEntity
  8
0
  6
Continuous
 62
     7
100
AcDbLine
 10
-40.39177993248337
 20
92.89324587237452
 30
0.0
 11
-40.39177993248337
 21
91.04324549081475
 31
0.0
  0
LINE
  5
D0
330
1F
100
AcDbEntity
  8
0
  6
Continuous
 62
     7
100
AcDbLine
 10
-40.39177993248337
 20
93.19324606310938
 30
0.0
 11
-40.39177993248337
 21
94.0432454909048
 31
0.0
  0
LINE
  5
D1
330
1F
100
AcDbEntity
  8
0
  6
Continuous
 62
     7
100
AcDbLine
 10
-20.39177897880904
 20
93.19324606310938
 30
0.0
 11
-20.39177897880904
 21
94.0432454909048
 31
0.0
  0
LINE
  5
D2
330
1F
100
AcDbEntity
  8
0
  6
Continuous
 62
     7
100
AcDbLine
 10
-40.39177993248337
 20
93.19324606310938
 30
0.0
 11
-40.24177936027878
 21
93.0432454909048
 31
0.0
  0
LINE
  5
D3
330
1F
100
AcDbEntity
  8
0
  6
Continuous
 62
     7
100
AcDbLine
 10
-20.54178050468795
 20
93.0432454909048
 30
0.0
 11
-20.39177897880904
 21
93.19324606310938
 31
0.0
  0
LINE
  5
D4
330
1F
100
AcDbEntity
  8
0
  6
Continuous
 62
     7
100
AcDbLine
 10
-40.39177993248337
 20
92.89324587237452
 30
0.0
 11
-40.24177936027878
 21
93.0432454909048
 31
0.0
  0
LINE
  5
D5
330
1F
100
AcDbEntity
  8
0
  6
Continuous
 62
     7
100
AcDbLine
 10
-20.39177897880904
 20
92.89324587237452
 30
0.0
 11
-20.54178050468795
 21
93.0432454909048
 31
0.0
  0
LINE
  5
D6
102
{ACAD_REACTORS
330
17D
102
}
330
1F
100
AcDbEntity
  8
0
  6
Continuous
 62
     7
100
AcDbLine
 10
-22.39177993248336
 20
107.543245967742
 30
0.0
 11
-22.39177993248336
 21
110.043245967742
 31
0.0
  0
LINE
  5
D7
102
{ACAD_REACTORS
330
17D
102
}
330
1F
100
AcDbEntity
  8
0
  6
Continuous
 62
     7
100
AcDbLine
 10
-38.3917794556462
 20
110.043245967742
 30
0.0
 11
-38.3917794556462
 21
107.543245967742
 31
0.0
  0
LINE
  5
D8
102
{ACAD_REACTORS
330
17D
102
}
330
1F
100
AcDbEntity
  8
0
  6
Continuous
 62
     7
100
AcDbLine
 10
-24.29177955101363
 20
106.446280177947
 30
0.0
 11
-22.39177993248336
 21
107.543245967742
 31
0.0
  0
LINE
  5
D9
102
{ACAD_REACTORS
330
17D
102
}
330
1F
100
AcDbEntity
  8
0
  6
Continuous
 62
     7
100
AcDbLine
 10
-38.3917794556462
 20
107.543245967742
 30
0.0
 11
-36.49177936027878
 21
106.446280177947
 31
0.0
  0
LINE
  5
DA
102
{ACAD_REACTORS
330
17D
102
}
330
1F
100
AcDbEntity
  8
0
  6
Continuous
 62
     7
100
AcDbLine
 10
-36.48661235283248
 20
94.7560321654043
 30
0.0
 11
-36.49177936027878
 21
95.0432454909048
 31
0.0
  0
LINE
  5
DB
102
{ACAD_REACTORS
330
17D
102
}
330
1F
100
AcDbEntity
  8
0
  6
Continuous
 62
     7
100
AcDbLine
 10
-36.49177936027878
 20
106.446280177947
 30
0.0
 11
-36.49177936027878
 21
95.0432454909048
 31
0.0
  0
LINE
  5
DC
102
{ACAD_REACTORS
330
17D
102
}
330
1F
100
AcDbEntity
  8
0
  6
Continuous
 62
     7
100
AcDbLine
 10
-24.29177955101363
 20
95.0432454909048
 30
0.0
 11
-24.29177955101363
 21
106.446280177947
 31
0.0
  0
LINE
  5
DD
330
1F
100
AcDbEntity
  8
0
  6
Continuous
 62
     7
100
AcDbLine
 10
-36.49344352196091
 20
94.70122545611476
 30
0.0
 11
-36.48661235283248
 21
94.7560321654043
 31
0.0
  0
LINE
  5
DE
330
1F
100
AcDbEntity
  8
0
  6
Continuous
 62
     7
100
AcDbLine
 10
-36.64959100197189
 20
94.44317668330287
 30
0.0
 11
-36.49344352196091
 21
94.70122545611476
 31
0.0
  0
LINE
  5
DF
330
1F
100
AcDbEntity
  8
0
  6
Continuous
 62
     7
100
AcDbLine
 10
-36.66543868492477
 20
94.4004585112295
 30
0.0
 11
-36.64959100197189
 21
94.44317668330287
 31
0.0
  0
LINE
  5
E0
330
1F
100
AcDbEntity
  8
0
  6
Continuous
 62
     7
100
AcDbLine
 10
-36.91470769356124
 20
94.20334642779444
 30
0.0
 11
-36.66543868492477
 21
94.4004585112295
 31
0.0
  0
LINE
  5
E1
330
1F
100
AcDbEntity
  8
0
  6
Continuous
 62
     7
100
AcDbLine
 10
-36.92895034263962
 20
94.1772205198965
 30
0.0
 11
-36.91470769356124
 21
94.20334642779444
 31
0.0
  0
LINE
  5
E2
330
1F
100
AcDbEntity
  8
0
  6
Continuous
 62
     7
100
AcDbLine
 10
-37.2638988823735
 20
94.06626289736842
 30
0.0
 11
-36.92895034263962
 21
94.1772205198965
 31
0.0
  0
LINE
  5
E3
330
1F
100
AcDbEntity
  8
0
  6
Continuous
 62
     7
100
AcDbLine
 10
-37.25219539116257
 20
94.05843752276515
 30
0.0
 11
-37.2638988823735
 21
94.06626289736842
 31
0.0
  0
LINE
  5
E4
330
1F
100
AcDbEntity
  8
0
  6
Continuous
 62
     7
100
AcDbLine
 10
-37.47831300209396
 20
94.0432454909048
 30
0.0
 11
-37.25219539116257
 21
94.05843752276515
 31
0.0
  0
LINE
  5
E5
102
{ACAD_REACTORS
330
17D
102
}
330
1F
100
AcDbEntity
  8
0
  6
Continuous
 62
     7
100
AcDbLine
 10
-22.39177993248336
 20
110.043245967742
 30
0.0
 11
-24.59177945564602
 21
110.043245967742
 31
0.0
  0
LINE
  5
E6
330
1F
100
AcDbEntity
  8
0
  6
Continuous
 62
     7
100
AcDbLine
 10
-40.39177993248337
 20
93.19324606310938
 30
0.0
 11
-34.63497117066056
 21
93.19324606310938
 31
0.0
  0
LINE
  5
E7
330
1F
100
AcDbEntity
  8
0
  6
Continuous
 62
     7
100
AcDbLine
 10
-40.39177993248337
 20
92.89324587237452
 30
0.0
 11
-34.28165119682556
 21
92.89324587237452
 31
0.0
  0
LINE
  5
E8
330
1F
100
AcDbEntity
  8
0
  6
Continuous
 62
     7
100
AcDbLine
 10
-40.39177993248337
 20
91.04324549081475
 30
0.0
 11
-20.39177897880904
 21
91.04324549081475
 31
0.0
  0
LINE
  5
E9
330
1F
100
AcDbEntity
  8
0
  6
Continuous
 62
     7
100
AcDbLine
 10
-40.39177993248337
 20
94.0432454909048
 30
0.0
 11
-35.5709164307508
 21
94.0432454909048
 31
0.0
  0
LINE
  5
EA
330
1F
100
AcDbEntity
  8
0
  6
Continuous
 62
     7
100
AcDbLine
 10
-40.24177936027878
 20
93.0432454909048
 30
0.0
 11
-34.46208740015632
 21
93.04324549090478
 31
0.0
  0
LINE
  5
EB
102
{ACAD_REACTORS
330
17D
102
}
330
1F
100
AcDbEntity
  8
0
  6
Continuous
 62
     7
100
AcDbLine
 10
-30.3917794556462
 20
93.05096800725057
 30
0.0
 11
-26.29177945564618
 21
94.54324596774195
 31
0.0
  0
LINE
  5
EC
102
{ACAD_REACTORS
330
17D
102
}
330
1F
100
AcDbEntity
  8
0
  6
Continuous
 62
     7
100
AcDbLine
 10
-26.29177945564618
 20
94.54324596774195
 30
0.0
 11
-26.29177945564618
 21
107.098759594875
 31
0.0
  0
LINE
  5
ED
102
{ACAD_REACTORS
330
17D
102
}
330
1F
100
AcDbEntity
  8
0
  6
Continuous
 62
     7
100
AcDbLine
 10
-26.29177945564618
 20
107.098759594875
 30
0.0
 11
-24.59177945564602
 21
110.043245967742
 31
0.0
  0
LINE
  5
EE
102
{ACAD_REACTORS
330
17D
102
}
330
1F
100
AcDbEntity
  8
0
  6
Continuous
 62
     7
100
AcDbLine
 10
-34.49177945564617
 20
107.098759594875
 30
0.0
 11
-36.19177945564616
 21
110.043245967742
 31
0.0
  0
LINE
  5
EF
330
1F
100
AcDbEntity
  8
0
  6
Continuous
 62
     7
100
AcDbLine
 10
-26.29177945564618
 20
94.54324596774195
 30
0.0
 11
-34.49177945564617
 21
94.54324596774195
 31
0.0
  0
LINE
  5
F0
330
1F
100
AcDbEntity
  8
0
  6
Continuous
 62
     7
100
AcDbLine
 10
-26.29177945564618
 20
107.098759594875
 30
0.0
 11
-34.49177945564617
 21
107.098759594875
 31
0.0
  0
LINE
  5
F1
102
{ACAD_REACTORS
330
17D
102
}
330
1F
100
AcDbEntity
  8
0
  6
Continuous
 62
     7
100
AcDbLine
 10
-34.49177945564617
 20
94.54324596774195
 30
0.0
 11
-34.49177945564617
 21
107.098759594875
 31
0.0
  0
LINE
  5
F2
102
{ACAD_REACTORS
330
17D
102
}
330
1F
100
AcDbEntity
  8
0
  6
Continuous
 62
     7
100
AcDbLine
 10
-30.3917794556462
 20
93.05096800725057
 30
0.0
 11
-34.49177945564617
 21
94.54324596774195
 31
0.0
  0
LINE
  5
F3
330
1F
100
AcDbEntity
  8
1
  6
DOT_CENTER
 62
     2
100
AcDbLine
 10
-30.39177969406478
 20
115.5204090613832
 30
0.0
 11
-30.39177969406478
 21
67.9980663882375
 31
0.0
  0
LINE
  5
F4
330
1F
100
AcDbEntity
  8
0
  6
Continuous
 62
     7
100
AcDbLine
 10
-23.53136399696702
 20
94.05843752276515
 30
0.0
 11
-23.30524638603563
 21
94.0432454909048
 31
0.0
  0
LINE
  5
F5
330
1F
100
AcDbEntity
  8
0
  6
Continuous
 62
     7
100
AcDbLine
 10
-23.51966050575609
 20
94.06626289736842
 30
0.0
 11
-23.53136399696702
 21
94.05843752276515
 31
0.0
  0
LINE
  5
F6
330
1F
100
AcDbEntity
  8
0
  6
Continuous
 62
     7
100
AcDbLine
 10
-23.85460904548997
 20
94.1772205198965
 30
0.0
 11
-23.51966050575609
 21
94.06626289736842
 31
0.0
  0
LINE
  5
F7
330
1F
100
AcDbEntity
  8
0
  6
Continuous
 62
     7
100
AcDbLine
 10
-23.86885169456835
 20
94.20334642779444
 30
0.0
 11
-23.85460904548997
 21
94.1772205198965
 31
0.0
  0
LINE
  5
F8
330
1F
100
AcDbEntity
  8
0
  6
Continuous
 62
     7
100
AcDbLine
 10
-24.11812070320482
 20
94.4004585112295
 30
0.0
 11
-23.86885169456835
 21
94.20334642779444
 31
0.0
  0
LINE
  5
F9
330
1F
100
AcDbEntity
  8
0
  6
Continuous
 62
     7
100
AcDbLine
 10
-24.1339683861577
 20
94.44317668330287
 30
0.0
 11
-24.11812070320482
 21
94.4004585112295
 31
0.0
  0
LINE
  5
FA
330
1F
100
AcDbEntity
  8
0
  6
Continuous
 62
     7
100
AcDbLine
 10
-24.29011586616868
 20
94.70122545611476
 30
0.0
 11
-24.1339683861577
 21
94.44317668330287
 31
0.0
  0
LINE
  5
FB
330
1F
100
AcDbEntity
  8
0
  6
Continuous
 62
     7
100
AcDbLine
 10
-24.29694703529711
 20
94.7560321654043
 30
0.0
 11
-24.29011586616868
 21
94.70122545611476
 31
0.0
  0
LINE
  5
FC
330
1F
100
AcDbEntity
  8
0
  6
Continuous
 62
     7
100
AcDbLine
 10
-24.29178002785081
 20
95.0432454909048
 30
0.0
 11
-24.29694703529711
 21
94.7560321654043
 31
0.0
  0
LINE
  5
FD
330
1F
100
AcDbEntity
  8
0
  6
Continuous
 62
     7
100
AcDbLine
 10
-25.12892265029235
 20
94.0432454909048
 30
0.0
 11
-20.39177897880904
 21
94.0432454909048
 31
0.0
  0
LINE
  5
FE
330
1F
100
AcDbEntity
  8
0
  6
Continuous
 62
     7
100
AcDbLine
 10
-25.65011337564206
 20
93.19324606310938
 30
0.0
 11
-20.39177897880904
 21
93.19324606310938
 31
0.0
  0
LINE
  5
FF
330
1F
100
AcDbEntity
  8
0
  6
Continuous
 62
     7
100
AcDbLine
 10
-25.75130875130836
 20
93.0432454909048
 30
0.0
 11
-20.54178050468795
 21
93.0432454909048
 31
0.0
  0
LINE
  5
100
330
1F
100
AcDbEntity
  8
0
  6
Continuous
 62
     7
100
AcDbLine
 10
-25.86007750645941
 20
92.89324587237452
 30
0.0
 11
-20.39177897880904
 21
92.89324587237452
 31
0.0
  0
LINE
  5
101
102
{ACAD_REACTORS
330
17D
102
}
330
1F
100
AcDbEntity
  8
0
  6
Continuous
 62
     7
100
AcDbLine
 10
-36.19177945564616
 20
110.043245967742
 30
0.0
 11
-38.3917794556462
 21
110.043245967742
 31
0.0
  0
LINE
  5
102
330
1F
100
AcDbEntity
  8
0
  6
Continuous
 62
     7
100
AcDbLine
 10
-24.59177945564602
 20
110.043245967742
 30
0.0
 11
-36.19177945564616
 21
110.043245967742
 31
0.0
  0
LINE
  5
103
330
1F
100
AcDbEntity
  8
1
  6
Continuous
 62
     7
100
AcDbLine
 10
-27.59999999999955
 20
56.43876067704494
 30
0.0
 11
-27.59999999999955
 21
37.63876067704476
 31
0.0
  0
ARC
  5
104
330
1F
100
AcDbEntity
  8
0
  6
Continuous
 62
     7
100
AcDbCircle
 10
-27.64177969406477
 20
72.04324549081475
 30
0.0
 40
2.0
100
AcDbArc
 50
270.0
 51
0.0
  0
ARC
  5
105
330
1F
100
AcDbEntity
  8
0
  6
Continuous
 62
     7
100
AcDbCircle
 10
-33.14177969406477
 20
72.04324549081475
 30
0.0
 40
2.0
100
AcDbArc
 50
180.0
 51
270.0
  0
ARC
  5
106
330
1F
100
AcDbEntity
  8
0
  6
Continuous
 62
     7
100
AcDbCircle
 10
-25.14177969406477
 20
90.54324549081475
 30
0.0
 40
0.5
100
AcDbArc
 50
90.0
 51
180.0
  0
ARC
  5
107
330
1F
100
AcDbEntity
  8
0
  6
Continuous
 62
     7
100
AcDbCircle
 10
-35.64177969406477
 20
90.54324549081475
 30
0.0
 40
0.5
100
AcDbArc
 50
0.0
 51
90.0
  0
ARC
  5
108
330
1F
100
AcDbEntity
  8
0
  6
Continuous
 62
     7
100
AcDbCircle
 10
-69.0439516129033
 20
90.54324549081475
 30
0.0
 40
0.5
100
AcDbArc
 50
0.0
 51
90.0
  0
ARC
  5
109
330
1F
100
AcDbEntity
  8
0
  6
Continuous
 62
     7
100
AcDbCircle
 10
-58.54395161290329
 20
90.54324549081475
 30
0.0
 40
0.5
100
AcDbArc
 50
90.0
 51
180.0
  0
ARC
  5
10A
330
1F
100
AcDbEntity
  8
0
  6
Continuous
 62
     7
100
AcDbCircle
 10
-66.5439516129033
 20
72.04324549081475
 30
0.0
 40
2.0
100
AcDbArc
 50
180.0
 51
270.0
  0
ARC
  5
10B
330
1F
100
AcDbEntity
  8
0
  6
Continuous
 62
     7
100
AcDbCircle
 10
-61.04395161290329
 20
72.04324549081475
 30
0.0
 40
2.0
100
AcDbArc
 50
270.0
 51
0.0
  0
ARC
  5
10C
102
{ACAD_REACTORS
330
179
102
}
330
1F
100
AcDbEntity
  8
1
  6
Continuous
 62
     7
100
AcDbCircle
 10
-7.16184965562865
 20
5.42336530453161
 30
0.0
 40
0.1666666666666572
100
AcDbArc
 50
299.9816393688326
 51
119.9816393688413
  0
ARC
  5
10D
102
{ACAD_REACTORS
330
179
102
}
330
1F
100
AcDbEntity
  8
1
  6
Continuous
 62
     7
100
AcDbCircle
 10
-7.16184965562865
 20
6.25
 30
0.0
 40
0.1666666666666847
100
AcDbArc
 50
270.0
 51
90.0
  0
ARC
  5
10E
102
{ACAD_REACTORS
330
179
102
}
330
1F
100
AcDbEntity
  8
1
  6
Continuous
 62
     7
100
AcDbCircle
 10
-7.16184965562865
 20
7.07663469546833
 30
0.0
 40
0.1666666666666886
100
AcDbArc
 50
240.0183606311493
 51
60.01836063115717
  0
ARC
  5
10F
102
{ACAD_REACTORS
330
17A
102
}
330
1F
100
AcDbEntity
  8
1
  6
Continuous
 62
     7
100
AcDbCircle
 10
-11.16184965562866
 20
5.42336530453161
 30
0.0
 40
0.1666666666666785
100
AcDbArc
 50
180.0
 51
0.0
  0
ARC
  5
110
102
{ACAD_REACTORS
330
17A
102
}
330
1F
100
AcDbEntity
  8
1
  6
Continuous
 62
     7
100
AcDbCircle
 10
-11.16184965562866
 20
7.07663469546833
 30
0.0
 40
0.1666666666666305
100
AcDbArc
 50
0.0
 51
180.0
  0
ARC
  5
111
102
{ACAD_REACTORS
330
17B
102
}
330
1F
100
AcDbEntity
  8
1
  6
Continuous
 62
     7
100
AcDbCircle
 10
-9.32851632229534
 20
4.36567299683935
 30
0.0
 40
0.1666666666666837
100
AcDbArc
 50
240.0183606311504
 51
60.01836063114937
  0
ARC
  5
112
102
{ACAD_REACTORS
330
17B
102
}
330
1F
100
AcDbEntity
  8
1
  6
Continuous
 62
     7
100
AcDbCircle
 10
-10.49518298896203
 20
7.46125008008369
 30
0.0
 40
0.1666666666666909
100
AcDbArc
 50
0.0
 51
180.0
  0
ARC
  5
113
102
{ACAD_REACTORS
330
17C
102
}
330
1F
100
AcDbEntity
  8
1
  6
Continuous
 62
     7
100
AcDbCircle
 10
-8.460999428533
 20
7.86560865601728
 30
0.0
 40
0.1324831062376557
100
AcDbArc
 50
0.0
 51
149.9999999999743
  0
ARC
  5
114
102
{ACAD_REACTORS
330
17C
102
}
330
1F
100
AcDbEntity
  8
1
  6
Continuous
 62
     7
100
AcDbCircle
 10
-8.49518298896197
 20
4.6541345353009
 30
0.0
 40
0.1666666666666856
100
AcDbArc
 50
180.0
 51
0.0
  0
ARC
  5
115
102
{ACAD_REACTORS
330
17C
102
}
330
1F
100
AcDbEntity
  8
1
  6
Continuous
 62
     7
100
AcDbCircle
 10
-9.82851632229534
 20
5.42379253631645
 30
0.0
 40
0.1666666666666856
100
AcDbArc
 50
180.0
 51
0.0
  0
ARC
  5
116
102
{ACAD_REACTORS
330
17C
102
}
330
1F
100
AcDbEntity
  8
1
  6
Continuous
 62
     7
100
AcDbCircle
 10
-9.86269988272437
 20
7.86560865601728
 30
0.0
 40
0.1324831062376642
100
AcDbArc
 50
30.00000000001384
 51
180.0
  0
SPLINE
  5
117
330
1F
100
AcDbEntity
  8
0
  6
Continuous
 62
     7
100
AcDbSpline
210
0.0
220
0.0
230
1.0
 70
     8
 71
     3
 72
    49
 73
    45
 74
    43
 42
0.000000001
 43
0.0000000001
 44
0.00000001
 40
0.0
 40
0.0
 40
0.0
 40
0.0
 40
0.132403701930774
 40
0.285672144071636
 40
0.4371021241325528
 40
0.5692551644442032
 40
0.7108610782526821
 40
0.8550808537110557
 40
0.9920066030767638
 40
1.147996673722122
 40
1.274821738257615
 40
1.391689758036796
 40
1.518221805553909
 40
1.64674488578681
 40
1.773645822994372
 40
1.916213616947834
 40
2.050346090642531
 40
2.202381682418028
 40
2.335921819810882
 40
2.470331589384797
 40
2.617196205715808
 40
2.750838588707268
 40
2.887116379873058
 40
3.041071461928697
 40
3.180043582356678
 40
3.336635709334934
 40
3.484509861462042
 40
3.632200209375222
 40
3.786155291444642
 40
3.922433082611432
 40
4.198194605601817
 40
4.470734092688918
 40
4.75125847136248
 40
5.026139613103408
 40
5.279697294488186
 40
5.52464162154789
 40
5.662855027447877
 40
5.817556866160865
 40
5.951535408243091
 40
6.103381122644191
 40
6.235534162853929
 40
6.386964142720172
 40
6.519504266916968
 40
6.672636158489067
 40
6.672636158489067
 40
6.672636158489067
 40
6.672636158489067
 10
-7.796016273520905
 20
131.5056742438629
 30
0.0
 10
-7.757033248128483
 20
131.4849235484926
 30
0.0
 10
-7.672924092336817
 20
131.4401521632044
 30
0.0
 10
-7.552933249483663
 20
131.3568694797963
 30
0.0
 10
-7.441371337627001
 20
131.2629908561656
 30
0.0
 10
-7.341735418334109
 20
131.1619440567777
 30
0.0
 10
-7.252674133038265
 20
131.0545686821714
 30
0.0
 10
-7.172489419885083
 20
130.9384659865117
 30
0.0
 10
-7.099923121174749
 20
130.8119367748831
 30
0.0
 10
-7.040690341190517
 20
130.68497067655
 30
0.0
 10
-6.993861633058341
 20
130.560138922629
 30
0.0
 10
-6.95798979267881
 20
130.4419817318733
 30
0.0
 10
-6.929316632005506
 20
130.321284826168
 30
0.0
 10
-6.907550838654053
 20
130.1957609666421
 30
0.0
 10
-6.892588713124704
 20
130.0638730987226
 30
0.0
 10
-6.885335085927131
 20
129.9294487165553
 30
0.0
 10
-6.885847309729542
 20
129.7864705721005
 30
0.0
 10
-6.894272798572772
 20
129.6467375698449
 30
0.0
 10
-6.910189749131813
 20
129.5075956216019
 30
0.0
 10
-6.932526973723894
 20
129.3710879152432
 30
0.0
 10
-6.961506446824433
 20
129.235791839049
 30
0.0
 10
-6.996958170683534
 20
129.1014174209027
 30
0.0
 10
-7.038981532440293
 20
128.9664732037916
 30
0.0
 10
-7.087801586967736
 20
128.831929932995
 30
0.0
 10
-7.145317579427611
 20
128.6935208211172
 30
0.0
 10
-7.208240094567087
 20
128.5597039432466
 30
0.0
 10
-7.278719700928445
 20
128.4264209139475
 30
0.0
 10
-7.354765315748947
 20
128.2972528680022
 30
0.0
 10
-7.434700445455395
 20
128.1750360686708
 30
0.0
 10
-7.545176186836096
 20
128.0220431844906
 30
0.0
 10
-7.691079528252583
 20
127.8461304743556
 30
0.0
 10
-7.887116378356232
 20
127.6508491150609
 30
0.0
 10
-8.10221173119512
 20
127.4770353002925
 30
0.0
 10
-8.330580730593782
 20
127.3324089460583
 30
0.0
 10
-8.564044206552596
 20
127.2216188399239
 30
0.0
 10
-8.76632063144626
 20
127.1552520307992
 30
0.0
 10
-8.941749674952247
 20
127.1175200845991
 30
0.0
 10
-9.083087883096818
 20
127.0993158119261
 30
0.0
 10
-9.22995051150222
 20
127.093124045414
 30
0.0
 10
-9.369344996232606
 20
127.0994992293853
 30
0.0
 10
-9.513345803024048
 20
127.1190363888377
 30
0.0
 10
-9.648649543781751
 20
127.15041161548
 30
0.0
 10
-9.787500090890916
 20
127.1954905876617
 30
0.0
 10
-9.873943597469541
 20
127.2356291621207
 30
0.0
 10
-9.920280852145709
 20
127.2571450866133
 30
0.0
 11
-7.796016273520905
 21
131.5056742438629
 31
0.0
 11
-7.680289067578855
 21
131.441347300017
 31
0.0
 11
-7.553903969576112
 21
131.3546407644846
 31
0.0
 11
-7.438150087550884
 21
131.2570084030286
 31
0.0
 11
-7.345306630692363
 21
131.1629631015718
 31
0.0
 11
-7.25487290244141
 21
131.0539953277348
 31
0.0
 11
-7.17285700197391
 21
130.9353667654234
 31
0.0
 11
-7.104680784880586
 21
130.8166205472451
 31
0.0
 11
-7.038635505757213
 21
130.6753020299764
 31
0.0
 11
-6.99403307562128
 21
130.5565787371278
 31
0.0
 11
-6.960037075346804
 21
130.4447645786081
 31
0.0
 11
-6.930732422228012
 21
130.321672757647
 31
0.0
 11
-6.908712403459504
 21
130.1950500860853
 31
0.0
 11
-6.894350313341953
 21
130.0689644871807
 31
0.0
 11
-6.886591426859013
 21
129.9266079784879
 31
0.0
 11
-6.887012901319484
 21
129.792476166974
 31
0.0
 11
-6.896086789395554
 21
129.6407115936803
 31
0.0
 11
-6.911218302714432
 21
129.5080315063483
 31
0.0
 11
-6.932883655389929
 21
129.3753793348213
 31
0.0
 11
-6.963599944635082
 21
129.2317627444159
 31
0.0
 11
-6.997665707177504
 21
129.1025349986146
 31
0.0
 11
-7.038163501892304
 21
128.9724136517793
 31
0.0
 11
-7.090655189883393
 21
128.827683593201
 31
0.0
 11
-7.143974430709903
 21
128.6993468926809
 31
0.0
 11
-7.210602855263829
 21
128.5576368114533
 31
0.0
 11
-7.279732061018462
 21
128.426916049356
 31
0.0
 11
-7.3546716814337
 21
128.2996506101004
 31
0.0
 11
-7.438960715505463
 21
128.1708192245551
 31
0.0
 11
-7.518759116141069
 21
128.0603481806875
 31
0.0
 11
-7.69501091296993
 21
127.8482639488175
 31
0.0
 11
-7.888353041524454
 21
127.6561790894226
 31
0.0
 11
-8.106866351679194
 21
127.4802647344349
 31
0.0
 11
-8.339399203886813
 21
127.3336764852307
 31
0.0
 11
-8.568683903932673
 21
127.225417424435
 31
0.0
 11
-8.801554620378369
 21
127.1494638007342
 31
0.0
 11
-8.936692886086472
 21
127.1204707881483
 31
0.0
 11
-9.090139306465915
 21
127.1008021564394
 31
0.0
 11
-9.224001332203873
 21
127.0952157537879
 31
0.0
 11
-9.37568615261577
 21
127.1022040577251
 31
0.0
 11
-9.506628467895391
 21
127.1200516423377
 31
0.0
 11
-9.654186686276205
 21
127.1540753310844
 31
0.0
 11
-9.780032501626813
 21
127.1956651853239
 31
0.0
 11
-9.920280852145709
 21
127.2571450866133
 31
0.0
  0
SPLINE
  5
118
330
1F
100
AcDbEntity
  8
0
  6
Continuous
 62
     2
100
AcDbSpline
210
0.0
220
0.0
230
1.0
 70
    11
 71
     3
 72
    31
 73
    27
 74
    25
 42
0.000000001
 43
0.0000000001
 44
0.00000001
 40
0.0
 40
0.0
 40
0.0
 40
0.0
 40
0.2935086581019649
 40
0.5511486774813008
 40
0.7804039112364027
 40
1.000380314137484
 40
1.234880083362206
 40
1.500569293037782
 40
1.802250743156181
 40
2.13508802475207
 40
2.488076796787325
 40
2.84692135557938
 40
3.196448025893821
 40
3.52289599840655
 40
3.816404665224846
 40
4.074044683154263
 40
4.303299915881975
 40
4.523276318284036
 40
4.757776087572307
 40
5.023465297661069
 40
5.32514674831573
 40
5.657984030455355
 40
6.010972803017642
 40
6.369817362365501
 40
6.719344033427363
 40
7.045791996699151
 40
7.045791996699151
 40
7.045791996699151
 40
7.045791996699151
 10
-9.123313605778264
 20
128.5417203625791
 30
0.0
 10
-9.11776328490919
 20
128.4435663185029
 30
0.0
 10
-9.10734093159085
 20
128.2592532833283
 30
0.0
 10
-9.010308305351545
 20
128.0123993379418
 30
0.0
 10
-8.8512533728146
 20
127.8304766024136
 30
0.0
 10
-8.6353181144332
 20
127.7363612805827
 30
0.0
 10
-8.389430310191925
 20
127.7398912612678
 30
0.0
 10
-8.134644580051546
 20
127.8319824283553
 30
0.0
 10
-7.884508381091422
 20
128.0020953047633
 30
0.0
 10
-7.653033488188791
 20
128.2386891094934
 30
0.0
 10
-7.454393614163074
 20
128.526574390573
 30
0.0
 10
-7.301299511813872
 20
128.847154567328
 30
0.0
 10
-7.203689903983584
 20
129.179647226029
 30
0.0
 10
-7.167959456063352
 20
129.5027720953689
 30
0.0
 10
-7.197005146574722
 20
129.7965047158604
 30
0.0
 10
-7.291272161741879
 20
130.0433031061659
 30
0.0
 10
-7.450952267636627
 20
130.225238398092
 30
0.0
 10
-7.666730939099301
 20
130.3193505718305
 30
0.0
 10
-7.912664846145108
 20
130.3158215148588
 30
0.0
 10
-8.167432037855882
 20
130.2237299734643
 30
0.0
 10
-8.417591775728143
 20
130.0536175684136
 30
0.0
 10
-8.64898396687305
 20
129.8170221011897
 30
0.0
 10
-8.847953085377938
 20
129.5291434329997
 30
0.0
 10
-8.999797461697732
 20
129.208538150726
 30
0.0
 10
-9.101867418527823
 20
128.8761350937529
 30
0.0
 10
-9.116329460699296
 20
128.6506255370129
 30
0.0
 10
-9.123313605778264
 20
128.5417203625791
 30
0.0
 11
-9.123313605778264
 21
128.5417203625791
 31
0.0
 11
-9.09018399636778
 21
128.2500874308939
 31
0.0
 11
-8.993053880728496
 21
128.0114577600021
 31
0.0
 11
-8.838541598355302
 21
127.8420944916941
 31
0.0
 11
-8.637177693712516
 21
127.7535383186119
 31
0.0
 11
-8.402684179659236
 21
127.7518254646517
 31
0.0
 11
-8.151041781646768
 21
127.8370713444413
 31
0.0
 11
-7.8993993836343
 21
128.0034678626642
 31
0.0
 11
-7.66490586958102
 21
128.2396742306777
 31
0.0
 11
-7.463541964938237
 21
128.5295943084027
 31
0.0
 11
-7.309029682565068
 21
128.8534698590839
 31
0.0
 11
-7.211899566925766
 21
129.1892296456149
 31
0.0
 11
-7.178769957515243
 21
129.5139921867106
 31
0.0
 11
-7.211899566925766
 21
129.8056251183958
 31
0.0
 11
-7.309029682565068
 21
130.0442547892874
 31
0.0
 11
-7.463541964938237
 21
130.2136180575955
 31
0.0
 11
-7.66490586958102
 21
130.3021742306777
 31
0.0
 11
-7.8993993836343
 21
130.303887084638
 31
0.0
 11
-8.151041781646768
 21
130.2186412048484
 31
0.0
 11
-8.402684179659236
 21
130.0522446866255
 31
0.0
 11
-8.637177693712516
 21
129.816038318612
 31
0.0
 11
-8.838541598355302
 21
129.526118240887
 31
0.0
 11
-8.993053880728496
 21
129.2022426902058
 31
0.0
 11
-9.09018399636778
 21
128.8664829036748
 31
0.0
 11
-9.123313605778264
 21
128.5417203625791
 31
0.0
  0
SPLINE
  5
119
330
1F
100
AcDbEntity
  8
0
  6
Continuous
 62
     2
100
AcDbSpline
210
0.0
220
0.0
230
1.0
 70
     8
 71
     3
 72
    21
 73
    17
 74
    15
 42
0.000000001
 43
0.0000000001
 44
0.00000001
 40
0.0
 40
0.0
 40
0.0
 40
0.0
 40
0.3307804621667847
 40
0.6869097449267609
 40
1.084614929608525
 40
1.528651997101443
 40
2.014475706196669
 40
2.531159719186449
 40
3.063881849310249
 40
3.595999029396398
 40
4.110934670564098
 40
4.594072746274597
 40
5.027408008622357
 40
5.416028781775097
 40
5.764890780695237
 40
6.089663650415617
 40
6.089663650415617
 40
6.089663650415617
 40
6.089663650415617
 10
-7.796016273520905
 20
131.5056742438629
 30
0.0
 10
-7.900635498646082
 20
131.5440840738114
 30
0.0
 10
-8.117891275810234
 20
131.6238471928234
 30
0.0
 10
-8.48796928662736
 20
131.5892796994398
 30
0.0
 10
-8.865323375675079
 20
131.4523416410321
 30
0.0
 10
-9.240277635240776
 20
131.2107550406273
 30
0.0
 10
-9.594556742211555
 20
130.8808169037568
 30
0.0
 10
-9.912370794204236
 20
130.4773244354615
 30
0.0
 10
-10.17829342798476
 20
130.0202292599881
 30
0.0
 10
-10.37941558520576
 20
129.531769923591
 30
0.0
 10
-10.50593008208914
 20
129.0356899203632
 30
0.0
 10
-10.55116767124754
 20
128.5587083636458
 30
0.0
 10
-10.51445265946428
 20
128.1218071104839
 30
0.0
 10
-10.39590922860064
 20
127.747764965443
 30
0.0
 10
-10.20279494578787
 20
127.4395247321454
 30
0.0
 10
-10.01218009604889
 20
127.3164715067465
 30
0.0
 10
-9.920280852145709
 20
127.2571450866133
 30
0.0
 11
-7.796016273520905
 21
131.5056742438629
 31
0.0
 11
-8.113844479101473
 21
131.5973309372861
 31
0.0
 11
-8.469377625973891
 21
131.5767335355134
 31
0.0
 11
-8.844605288351413
 21
131.44492452839
 31
0.0
 11
-9.220519025655022
 21
131.2085820268648
 31
0.0
 11
-9.57807565335502
 21
130.8796778881524
 31
0.0
 11
-9.89916222899454
 21
130.4748745079617
 31
0.0
 11
-10.16751271290138
 21
130.0146779431023
 31
0.0
 11
-10.36953345404978
 21
129.5224012865698
 31
0.0
 11
-10.49498984752686
 21
129.0229822194063
 31
0.0
 11
-10.53752716815134
 21
128.5417203625791
 31
0.0
 11
-10.49649100719582
 21
128.1103325071772
 31
0.0
 11
-10.37538861349912
 21
127.7410625319044
 31
0.0
 11
-10.18013771424192
 21
127.4519573851858
 31
0.0
 11
-9.920280852145709
 21
127.2571450866133
 31
0.0
  0
SPLINE
  5
11A
330
1F
100
AcDbEntity
  8
0
  6
Continuous
 62
     2
100
AcDbSpline
210
0.0
220
0.0
230
1.0
 70
     8
 71
     3
 72
    25
 73
    21
 74
    19
 42
0.000000001
 43
0.0000000001
 44
0.00000001
 40
0.0
 40
0.0
 40
0.0
 40
0.0
 40
0.3901826511098521
 40
0.7536653786134553
 40
1.118375509110554
 40
1.511753795703403
 40
1.951078320384683
 40
2.441179213268216
 40
2.976865852656109
 40
3.546084012421814
 40
4.132594328382102
 40
4.718212725468529
 40
5.284852326781265
 40
5.816575115102915
 40
6.294481432136482
 40
6.723191414353717
 40
7.108105458092139
 40
7.466356894059694
 40
7.824346493209028
 40
8.20857592080954
 40
8.20857592080954
 40
8.20857592080954
 40
8.20857592080954
 10
-13.90115825909732
 20
134.5582452366511
 30
0.0
 10
-13.96731857866296
 20
134.67156787458
 30
0.0
 10
-14.09511191957396
 20
134.8904585577372
 30
0.0
 10
-14.40635839715623
 20
135.1154666827959
 30
0.0
 10
-14.77470214439417
 20
135.2136729705174
 30
0.0
 10
-15.17913481260493
 20
135.179030398175
 30
0.0
 10
-15.59573365257343
 20
135.0222961861148
 30
0.0
 10
-16.00776074208409
 20
134.7543608446156
 30
0.0
 10
-16.39715293819784
 20
134.3889261664413
 30
0.0
 10
-16.74607173978593
 20
133.9435414774061
 30
0.0
 10
-17.03787837881843
 20
133.4396800088057
 30
0.0
 10
-17.25848110244355
 20
132.9017461017935
 30
0.0
 10
-17.39716428871017
 20
132.3557563930142
 30
0.0
 10
-17.4468908135689
 20
131.8302812804537
 30
0.0
 10
-17.40612842689587
 20
131.3494957204149
 30
0.0
 10
-17.27691812788038
 20
130.9345429884817
 30
0.0
 10
-17.06052722085558
 20
130.6014615206204
 30
0.0
 10
-16.7630553034588
 20
130.3746320459266
 30
0.0
 10
-16.40157432734496
 20
130.2657958849853
 30
0.0
 10
-16.15372739620861
 20
130.2947349820325
 30
0.0
 10
-16.02542283772212
 20
130.3097160794015
 30
0.0
 11
-13.90115825909732
 21
134.5582452366511
 31
0.0
 11
-14.12160497981247
 21
134.8801858394569
 31
0.0
 11
-14.41510949227184
 21
135.094603180255
 31
0.0
 11
-14.76692541653276
 21
135.1907230829157
 31
0.0
 11
-15.15937560752378
 21
135.1637170686577
 31
0.0
 11
-15.57274194310827
 21
135.0149410245754
 31
0.0
 11
-15.98625504368028
 21
134.7518710695693
 31
0.0
 11
-16.37913815792527
 21
134.3877240746102
 31
0.0
 11
-16.73165140951875
 21
133.9407971008907
 31
0.0
 11
-17.02608261871919
 21
133.4335450805749
 31
0.0
 11
-17.24763884267523
 21
132.8914549173999
 31
0.0
 11
-17.38518750170873
 21
132.3417633645845
 31
0.0
 11
-17.43181828472021
 21
131.8120892255669
 31
0.0
 11
-17.38667045961362
 21
131.3363202457671
 31
0.0
 11
-17.25342395446631
 21
130.9288431072572
 31
0.0
 11
-17.03856007728619
 21
130.6094807172167
 31
0.0
 11
-16.75253177660834
 21
130.3937681688789
 31
0.0
 11
-16.40925280687309
 21
130.29219994717
 31
0.0
 11
-16.02542283772212
 21
130.3097160794015
 31
0.0
  0
SPLINE
  5
11B
330
1F
100
AcDbEntity
  8
0
  6
Continuous
 62
     2
100
AcDbSpline
210
0.0
220
0.0
230
1.0
 70
     8
 71
     3
 72
    21
 73
    17
 74
    15
 42
0.000000001
 43
0.0000000001
 44
0.00000001
 40
0.0
 40
0.0
 40
0.0
 40
0.0
 40
0.330780462166783
 40
0.6869097449267574
 40
1.084614929608523
 40
1.528651997101443
 40
2.014475706196625
 40
2.531159719186443
 40
3.063881849310221
 40
3.595999029396373
 40
4.110934670564074
 40
4.594072746274573
 40
5.027408008622361
 40
5.416028781775114
 40
5.764890780695269
 40
6.089663650415631
 40
6.089663650415631
 40
6.089663650415631
 40
6.089663650415631
 10
-14.33675399949647
 20
134.7760431068507
 30
0.0
 10
-14.44137322462164
 20
134.8144529367992
 30
0.0
 10
-14.6586290017858
 20
134.8942160558112
 30
0.0
 10
-15.02870701260291
 20
134.8596485624276
 30
0.0
 10
-15.40606110165065
 20
134.72271050402
 30
0.0
 10
-15.78101536121631
 20
134.481123903615
 30
0.0
 10
-16.13529446818715
 20
134.1511857667447
 30
0.0
 10
-16.45310852017975
 20
133.7476932984492
 30
0.0
 10
-16.71903115396033
 20
133.2905981229759
 30
0.0
 10
-16.92015331118131
 20
132.8021387865787
 30
0.0
 10
-17.0466678080647
 20
132.306058783351
 30
0.0
 10
-17.09190539722309
 20
131.8290772266336
 30
0.0
 10
-17.05519038543985
 20
131.3921759734717
 30
0.0
 10
-16.93664695457623
 20
131.0181338284307
 30
0.0
 10
-16.74353267176343
 20
130.7098935951332
 30
0.0
 10
-16.55291782202444
 20
130.5868403697343
 30
0.0
 10
-16.46101857812126
 20
130.5275139496011
 30
0.0
 11
-14.33675399949647
 21
134.7760431068507
 31
0.0
 11
-14.65458220507704
 21
134.8676998002739
 31
0.0
 11
-15.01011535194945
 21
134.8471023985011
 31
0.0
 11
-15.38534301432697
 21
134.7152933913777
 31
0.0
 11
-15.76125675163058
 21
134.4789508898526
 31
0.0
 11
-16.11881337933058
 21
134.1500467511402
 31
0.0
 11
-16.43989995497008
 21
133.7452433709495
 31
0.0
 11
-16.70825043887693
 21
133.2850468060901
 31
0.0
 11
-16.91027118002533
 21
132.7927701495576
 31
0.0
 11
-17.03572757350242
 21
132.2933510823941
 31
0.0
 11
-17.0782648941269
 21
131.8120892255669
 31
0.0
 11
-17.0372287331714
 21
131.380701370165
 31
0.0
 11
-16.91612633947469
 21
131.0114313948922
 31
0.0
 11
-16.72087544021747
 21
130.7223262481735
 31
0.0
 11
-16.46101857812126
 21
130.5275139496011
 31
0.0
  0
SPLINE
  5
11C
330
1F
100
AcDbEntity
  8
0
  6
Continuous
 62
     7
100
AcDbSpline
210
0.0
220
0.0
230
1.0
 70
     8
 71
     3
 72
    15
 73
    11
 74
     9
 42
0.000000001
 43
0.0000000001
 44
0.00000001
 40
0.0
 40
0.0
 40
0.0
 40
0.0
 40
0.7537212126601959
 40
1.549142998831027
 40
2.37402929451431
 40
3.214135722320455
 40
4.054242150126591
 40
4.879128445809866
 40
5.674550231980684
 40
6.428271444640927
 40
6.428271444640927
 40
6.428271444640927
 40
6.428271444640927
 10
-16.97926994476072
 20
136.9244712535456
 30
0.0
 10
-17.1740888356105
 20
136.7652906695607
 30
0.0
 10
-17.57450520762367
 20
136.4381226244237
 30
0.0
 10
-18.10141694118273
 20
135.8436677285703
 30
0.0
 10
-18.58110913389775
 20
135.1771085553854
 30
0.0
 10
-18.99317332226179
 20
134.4489220449523
 30
0.0
 10
-19.32848401758985
 20
133.6823587880013
 30
0.0
 10
-19.5739160405087
 20
132.8986695299183
 30
0.0
 10
-19.733332917056
 20
132.120467205559
 30
0.0
 10
-19.75481752995771
 20
131.6038332808663
 30
0.0
 10
-19.76527066263576
 20
131.3524698177955
 30
0.0
 11
-16.97926994476072
 21
136.9244712535456
 31
0.0
 11
-17.55033129382389
 21
136.4325519486241
 31
0.0
 11
-18.08434055204849
 21
135.8430352553333
 31
0.0
 11
-18.56568794703006
 21
135.1731531103933
 31
0.0
 11
-18.98030336100494
 21
134.4424870643239
 31
0.0
 11
-19.31606694947558
 21
133.6723951055023
 31
0.0
 11
-19.56316422843856
 21
132.8853879025531
 31
0.0
 11
-19.71437202813643
 21
132.104470479999
 31
0.0
 11
-19.76527066263576
 21
131.3524698177955
 31
0.0
  0
SPLINE
  5
11D
330
1F
100
AcDbEntity
  8
0
  6
Continuous
 62
     7
100
AcDbSpline
210
0.0
220
0.0
230
1.0
 70
     8
 71
     3
 72
    27
 73
    23
 74
    21
 42
0.000000001
 43
0.0000000001
 44
0.00000001
 40
0.0
 40
0.0
 40
0.0
 40
0.0
 40
0.4538078226272682
 40
0.9233932834879457
 40
1.421777416750578
 40
1.957646759519787
 40
2.535107285270321
 40
3.154211900110806
 40
3.919411102173002
 40
4.726945913053032
 40
5.564393933270811
 40
6.417293867594683
 40
7.270193801918636
 40
8.107641822136406
 40
8.915176633016472
 40
9.680375835078683
 40
10.2994804499191
 40
10.87694097566966
 40
11.41281031843889
 40
11.9111944517015
 40
12.38077991256217
 40
12.83458773518946
 40
12.83458773518946
 40
12.83458773518946
 40
12.83458773518946
 10
-18.46580473420281
 20
128.5950678071734
 30
0.0
 10
-18.59657645482463
 20
128.67253215034
 30
0.0
 10
-18.86266645708777
 20
128.8301540687532
 30
0.0
 10
-19.18512755443237
 20
129.1861294541357
 30
0.0
 10
-19.44399002321739
 20
129.618002544293
 30
0.0
 10
-19.63007675791798
 20
130.1251737395256
 30
0.0
 10
-19.74210623422652
 20
130.6936494195883
 30
0.0
 10
-19.78008348800162
 20
131.3482523699064
 30
0.0
 10
-19.72764313062317
 20
132.0790992919383
 30
0.0
 10
-19.57248999861687
 20
132.8691968843822
 30
0.0
 10
-19.32140288930512
 20
133.6647807324819
 30
0.0
 10
-18.98159407927057
 20
134.4431324234568
 30
0.0
 10
-18.56279801251143
 20
135.1819904860693
 30
0.0
 10
-18.07698319961865
 20
135.8602104823785
 30
0.0
 10
-17.53799700486733
 20
136.4583915434498
 30
0.0
 10
-16.98478368166887
 20
136.9388519825719
 30
0.0
 10
-16.43831496914934
 20
137.3012319497425
 30
0.0
 10
-15.91631673931409
 20
137.5526937767333
 30
0.0
 10
-15.39892774230764
 20
137.7081271061125
 30
0.0
 10
-14.89811178891078
 20
137.7601609851789
 30
0.0
 10
-14.4198548221981
 20
137.7157773385326
 30
0.0
 10
-14.13410328610959
 20
137.59747848777
 30
0.0
 10
-13.99366877920321
 20
137.5393397171725
 30
0.0
 11
-18.46580473420281
 21
128.5950678071734
 31
0.0
 11
-18.8444340709565
 21
128.8452304962255
 31
0.0
 11
-19.16614245195251
 21
129.1873039208612
 31
0.0
 11
-19.42392630963229
 21
129.6138414058519
 31
0.0
 11
-19.61217388820513
 21
130.1155572622847
 31
0.0
 11
-19.72678699534638
 21
130.6815294290116
 31
0.0
 11
-19.76527066263576
 21
131.2994368092066
 31
0.0
 11
-19.71359692202731
 21
132.0628892581441
 31
0.0
 11
-19.56008646548126
 21
132.8556988241889
 31
0.0
 11
-19.30922628379295
 21
133.6546909084013
 31
0.0
 11
-18.96834954422884
 21
134.4365101559358
 31
0.0
 11
-18.54742018993961
 21
135.1783030961079
 31
0.0
 11
-18.05874263158266
 21
135.858386491986
 31
0.0
 11
-17.51660125267444
 21
136.4568805968497
 31
0.0
 11
-16.9368435378895
 21
136.956291058699
 31
0.0
 11
-16.41942743335988
 21
137.2962485529845
 31
0.0
 11
-15.89788183569359
 21
137.5441413673076
 31
0.0
 11
-15.38356060340366
 21
137.6945728183091
 31
0.0
 11
-14.88766030080323
 21
137.7442682231597
 31
0.0
 11
-14.42097653249713
 21
137.6921455731442
 31
0.0
 11
-13.99366877920321
 21
137.5393397171725
 31
0.0
  0
SPLINE
  5
11E
330
1F
100
AcDbEntity
  8
0
  6
Continuous
 62
     7
100
AcDbSpline
210
0.0
220
0.0
230
1.0
 70
     8
 71
     3
 72
    37
 73
    33
 74
    31
 42
0.000000001
 43
0.0000000001
 44
0.00000001
 40
0.0
 40
0.0
 40
0.0
 40
0.0
 40
0.0296532943755412
 40
0.0593019613393143
 40
0.3613590169701039
 40
0.6678288670372504
 40
0.9838374493956185
 40
1.312708401682615
 40
1.656827931096857
 40
2.018908732753853
 40
2.596369258159532
 40
3.215473872669698
 40
3.771569095160032
 40
4.35079779993788
 40
4.950971986367416
 40
5.565769666778764
 40
6.18823309816348
 40
6.814757937529903
 40
7.437997109552436
 40
8.050739327693844
 40
8.649676746945396
 40
9.228434146976213
 40
9.781567524078953
 40
10.30788837808474
 40
10.80427640776092
 40
11.26950642127244
 40
11.70705628919449
 40
12.1199665059817
 40
12.51387262453958
 40
12.89879450446097
 40
12.92844317141092
 40
12.95809646579934
 40
12.95809646579934
 40
12.95809646579934
 40
12.95809646579934
 10
-18.51841844073276
 20
128.6224229155859
 30
0.0
 10
-18.52737581944833
 20
128.6266031113423
 30
0.0
 10
-18.54528917402784
 20
128.6349628611771
 30
0.0
 10
-18.65341152308834
 20
128.6880500712175
 30
0.0
 10
-18.83632239113494
 20
128.7987151949362
 30
0.0
 10
-19.0721622029339
 20
128.9989555321571
 30
0.0
 10
-19.28089378037692
 20
129.2392156740302
 30
0.0
 10
-19.46043918688056
 20
129.5168914198272
 30
0.0
 10
-19.60931126633585
 20
129.8291148341608
 30
0.0
 10
-19.7473985813546
 20
130.2349971384948
 30
0.0
 10
-19.84816295087615
 20
130.7467526354874
 30
0.0
 10
-19.8821159263783
 20
131.3315359065383
 30
0.0
 10
-19.85155317873049
 20
131.9164278374278
 30
0.0
 10
-19.76795126105247
 20
132.4896330180208
 30
0.0
 10
-19.63106412456503
 20
133.0725317159854
 30
0.0
 10
-19.44298595966136
 20
133.6560957033594
 30
0.0
 10
-19.20667863349092
 20
134.231325185465
 30
0.0
 10
-18.92580519025548
 20
134.7893051238005
 30
0.0
 10
-18.60468031323478
 20
135.3213616961148
 30
0.0
 10
-18.24832342612718
 20
135.8192580378249
 30
0.0
 10
-17.86224698736294
 20
136.2752857359561
 30
0.0
 10
-17.45233582560529
 20
136.6823803260644
 30
0.0
 10
-17.0249305914008
 20
137.0342449772683
 30
0.0
 10
-16.58652437955105
 20
137.3254425037316
 30
0.0
 10
-16.14362494993063
 20
137.5513842863163
 30
0.0
 10
-15.70289598160711
 20
137.7084026345053
 30
0.0
 10
-15.27087776397866
 20
137.7937171959571
 30
0.0
 10
-14.85405327832008
 20
137.8052067886178
 30
0.0
 10
-14.45942062216156
 20
137.7420551331581
 30
0.0
 10
-14.20523003308655
 20
137.6461688569185
 30
0.0
 10
-14.07327565181238
 20
137.578990150869
 30
0.0
 10
-14.05583972886317
 20
137.5696753742773
 30
0.0
 10
-14.04712108985123
 20
137.565017617349
 30
0.0
 11
-18.51841844073276
 21
128.6224229155859
 31
0.0
 11
-18.54524817594922
 21
128.6350515979765
 31
0.0
 11
-18.57187075138076
 21
128.6481008157624
 31
0.0
 11
-18.83033093908602
 21
128.8044235420591
 31
0.0
 11
-19.06434468654322
 21
129.0023157715236
 31
0.0
 11
-19.27220846913051
 21
129.2403369294501
 31
0.0
 11
-19.45160980388212
 21
129.5159657813747
 31
0.0
 11
-19.6006485965043
 21
129.8261361998896
 31
0.0
 11
-19.71823990538311
 21
130.1685902708737
 31
0.0
 11
-19.83285301252435
 21
130.7345624376005
 31
0.0
 11
-19.87133667981371
 21
131.3524698177955
 31
0.0
 11
-19.84358004475335
 21
131.9078718930858
 31
0.0
 11
-19.76096019738053
 21
132.4811779655163
 31
0.0
 11
-19.62445222440768
 21
133.0656218263472
 31
0.0
 11
-19.43630744349101
 21
133.650923225033
 31
0.0
 11
-19.19998650152009
 21
134.2267818275718
 31
0.0
 11
-18.91827847905746
 21
134.7864013000386
 31
0.0
 11
-18.59602165259068
 21
135.3198594503288
 31
0.0
 11
-18.23900394782096
 21
135.8178467820669
 31
0.0
 11
-17.85143891913138
 21
136.2744860049218
 31
0.0
 11
-17.44007609328453
 21
136.6815987080421
 31
0.0
 11
-17.01222233923628
 21
137.0321663870568
 31
0.0
 11
-16.57292722465955
 21
137.3220516113548
 31
0.0
 11
-16.12990889485181
 21
137.5459619395128
 31
0.0
 11
-15.69097269246451
 21
137.7001500560315
 31
0.0
 11
-15.26129898120161
 21
137.7827962191851
 31
0.0
 11
-14.84849661691934
 21
137.7922330937274
 31
0.0
 11
-14.45977933009879
 21
137.7285078991339
 31
0.0
 11
-14.09973479638117
 21
137.5923727257615
 31
0.0
 11
-14.07332187689354
 21
137.5789041960878
 31
0.0
 11
-14.04712108985123
 21
137.565017617349
 31
0.0
  0
SPLINE
  5
11F
330
1F
100
AcDbEntity
  8
0
  6
Continuous
 62
     7
100
AcDbSpline
210
0.0
220
0.0
230
1.0
 70
     8
 71
     3
 72
    25
 73
    21
 74
    19
 42
0.000000001
 43
0.0000000001
 44
0.00000001
 40
0.0
 40
0.0
 40
0.0
 40
0.0
 40
0.4538078225264146
 40
0.9233932835433079
 40
1.421777416909804
 40
1.957646759687914
 40
2.535107285428591
 40
3.154211900242107
 40
3.996756120052885
 40
4.888976957312718
 40
5.813970177522377
 40
6.752173944676398
 40
7.683013463072706
 40
8.586474886363597
 40
9.444717605454645
 40
10.24384361694368
 40
10.97595752951384
 40
11.64159794623275
 40
12.25220177628547
 40
12.83106325515434
 40
12.83106325515434
 40
12.83106325515434
 40
12.83106325515434
 10
-18.87239113338507
 20
128.7983610067645
 30
0.0
 10
-19.00316285590409
 20
128.8758253535818
 30
0.0
 10
-19.26925286209184
 20
129.0334472794373
 30
0.0
 10
-19.5917139289905
 20
129.3894226059322
 30
0.0
 10
-19.8505765256259
 20
129.8212959401928
 30
0.0
 10
-20.03666272707154
 20
130.3284661200732
 30
0.0
 10
-20.14869442688691
 20
130.896946034134
 30
0.0
 10
-20.18815886721409
 20
131.5773382672615
 30
0.0
 10
-20.12620233586985
 20
132.3622822396278
 30
0.0
 10
-19.93970305787064
 20
133.2313785377763
 30
0.0
 10
-19.63938801389081
 20
134.1016165579133
 30
0.0
 10
-19.2356113630592
 20
134.9431253324936
 30
0.0
 10
-18.74223565774462
 20
135.7270389941633
 30
0.0
 10
-18.17616993948251
 20
136.4264092201006
 30
0.0
 10
-17.55652441831887
 20
137.0174593684214
 30
0.0
 10
-16.90411924478587
 20
137.4795269434425
 30
0.0
 10
-16.23911211882729
 20
137.7980817471855
 30
0.0
 10
-15.58475206811908
 20
137.9553518659926
 30
0.0
 10
-14.95360296918078
 20
137.958456862378
 30
0.0
 10
-14.58139348407765
 20
137.8132828541946
 30
0.0
 10
-14.40025517838546
 20
137.7426329167637
 30
0.0
 11
-18.87239113338507
 21
128.7983610067645
 31
0.0
 11
-19.25102047013879
 21
129.0485236958166
 31
0.0
 11
-19.57272885113482
 21
129.3905971204522
 31
0.0
 11
-19.83051270881456
 21
129.817134605443
 31
0.0
 11
-20.01876028738739
 21
130.3188504618757
 31
0.0
 11
-20.13337339452862
 21
130.8848226286027
 31
0.0
 11
-20.171857061818
 21
131.5027300087977
 31
0.0
 11
-20.10958746169074
 21
132.342970008707
 31
0.0
 11
-19.92497260641193
 21
133.2158820173494
 31
0.0
 11
-19.62451505710644
 21
134.0907178376933
 31
0.0
 11
-19.21879886106172
 21
134.9366614910407
 31
0.0
 11
-18.72211494484901
 21
135.7239144901647
 31
0.0
 11
-18.15195930113568
 21
136.4247461959239
 31
0.0
 11
-17.52841536631033
 21
137.014469455978
 31
0.0
 11
-16.87344760666383
 21
137.472311802357
 31
0.0
 11
-16.2101271370034
 21
137.782145199087
 31
0.0
 11
-15.56181936320591
 21
137.9330564101871
 31
0.0
 11
-14.95136099110308
 21
137.9197289404275
 31
0.0
 11
-14.40025517838546
 21
137.7426329167637
 31
0.0
  0
SPLINE
  5
120
330
1F
100
AcDbEntity
  8
0
  6
Continuous
 62
     7
100
AcDbSpline
210
0.0
220
0.0
230
1.0
 70
     8
 71
     3
 72
    37
 73
    33
 74
    31
 42
0.000000001
 43
0.0000000001
 44
0.00000001
 40
0.0
 40
0.0
 40
0.0
 40
0.0
 40
0.8056160737100425
 40
1.555191172594828
 40
2.243187950977561
 40
2.871448094065419
 40
3.451085860986225
 40
4.003009433814217
 40
4.456817262233495
 40
4.926402727977617
 40
5.424786859643909
 40
5.960656200714102
 40
6.538116724981091
 40
7.15722133844573
 40
7.999765556536413
 40
8.891986391659781
 40
9.81697960817396
 40
10.75518336830421
 40
11.6860228799168
 40
12.58948429962093
 40
13.44772701647247
 40
14.24685302602093
 40
14.97896693654473
 40
15.64460735150652
 40
16.2552111874599
 40
16.8340726713753
 40
17.3859962442033
 40
17.96563401112411
 40
18.59389415421196
 40
19.28189093259466
 40
20.03146603147948
 40
20.83708210518954
 40
20.83708210518954
 40
20.83708210518954
 40
20.83708210518954
 10
-14.22785492145894
 20
129.4109321212699
 30
0.0
 10
-14.42417583631711
 20
129.2270947322715
 30
0.0
 10
-14.80316101862197
 20
128.8722082138672
 30
0.0
 10
-15.43354269281551
 20
128.4625653788135
 30
0.0
 10
-16.0665309759911
 20
128.1828462943421
 30
0.0
 10
-16.68958927775162
 20
128.048847884017
 30
0.0
 10
-17.28265698754739
 20
128.0673021208827
 30
0.0
 10
-17.79271404418274
 20
128.2330355971626
 30
0.0
 10
-18.20623617412028
 20
128.5077624565664
 30
0.0
 10
-18.53173637110136
 20
128.8577469174126
 30
0.0
 10
-18.78971365898067
 20
129.2913654058783
 30
0.0
 10
-18.97606317144957
 20
129.7980165304819
 30
0.0
 10
-19.08801631966704
 20
130.3666512843665
 30
0.0
 10
-19.12750562326257
 20
131.0469945018765
 30
0.0
 10
-19.06553993126003
 20
131.831956527356
 30
0.0
 10
-18.87904345420167
 20
132.7010473001241
 30
0.0
 10
-18.57872784620917
 20
133.5712864190183
 30
0.0
 10
-18.1749504698714
 20
134.4127966389411
 30
0.0
 10
-17.68157819964233
 20
135.1967034588321
 30
0.0
 10
-17.115500082074
 20
135.8960984117511
 30
0.0
 10
-16.49589740643737
 20
136.4870631511635
 30
0.0
 10
-15.84334858218462
 20
136.9494171078207
 30
0.0
 10
-15.17881262533867
 20
137.2670326160996
 30
0.0
 10
-14.52291963319953
 20
137.4273587450739
 30
0.0
 10
-13.89684299112564
 20
137.4203515227514
 30
0.0
 10
-13.33453617745518
 20
137.2424802350472
 30
0.0
 10
-12.86163692018789
 20
136.9094668333135
 30
0.0
 10
-12.49094289359161
 20
136.4461035093341
 30
0.0
 10
-12.22433362783436
 20
135.8672523345295
 30
0.0
 10
-12.06830769338883
 20
135.1930319311202
 30
0.0
 10
-12.0177954151788
 20
134.4429403909011
 30
0.0
 10
-12.07431316481261
 20
133.9268204063395
 30
0.0
 10
-12.10359034283417
 20
133.6594612785195
 30
0.0
 11
-14.22785492145894
 21
129.4109321212699
 31
0.0
 11
-14.83239635900881
 21
128.8784408775902
 31
0.0
 11
-15.46077013611789
 21
128.4697732554322
 31
0.0
 11
-16.09282788680812
 21
128.1980333668484
 31
0.0
 11
-16.70830309611528
 21
128.0719339045334
 31
0.0
 11
-17.28746084682794
 21
128.0955186674621
 31
0.0
 11
-17.81173096160531
 21
128.2680309208746
 31
0.0
 11
-18.19036029835902
 21
128.5181936099268
 31
0.0
 11
-18.51206867935503
 21
128.8602670345624
 31
0.0
 11
-18.76985253703479
 21
129.2868045195531
 31
0.0
 11
-18.95810011560763
 21
129.7885203759859
 31
0.0
 11
-19.07271322274887
 21
130.3544925427128
 31
0.0
 11
-19.11119689003826
 21
130.9723999229078
 31
0.0
 11
-19.048927289911
 21
131.8126399228171
 31
0.0
 11
-18.86431243463218
 21
132.6855519314595
 31
0.0
 11
-18.56385488532666
 21
133.5603877518034
 31
0.0
 11
-18.15813868928196
 21
134.4063314051509
 31
0.0
 11
-17.66145477306924
 21
135.1935844042748
 31
0.0
 11
-17.0912991293559
 21
135.8944161100339
 31
0.0
 11
-16.46775519453057
 21
136.4841393700881
 31
0.0
 11
-15.81278743488409
 21
136.9419817164671
 31
0.0
 11
-15.14946696522364
 21
137.2518151131972
 31
0.0
 11
-14.50115919142614
 21
137.4027263242973
 31
0.0
 11
-13.8907008193233
 21
137.3893988545375
 31
0.0
 11
-13.33959500660572
 21
137.2123028308738
 31
0.0
 11
-12.88702313500927
 21
136.8963940910994
 31
0.0
 11
-12.52066067423872
 21
136.4472187482865
 31
0.0
 11
-12.25225511850644
 21
135.8791789034518
 31
0.0
 11
-12.09041237895937
 21
135.2104887697493
 31
0.0
 11
-12.04032221042026
 21
134.4625891747673
 31
0.0
 11
-12.10359034283417
 21
133.6594612785195
 31
0.0
  0
SPLINE
  5
121
330
1F
100
AcDbEntity
  8
0
  6
Continuous
 62
     7
100
AcDbSpline
210
0.0
220
0.0
230
1.0
 70
     8
 71
     3
 72
    21
 73
    17
 74
    15
 42
0.000000001
 43
0.0000000001
 44
0.00000001
 40
0.0
 40
0.0
 40
0.0
 40
0.0
 40
0.5571039399633609
 40
1.156900631948247
 40
1.826719889541915
 40
2.574571791619311
 40
3.392801195112233
 40
4.263005846178791
 40
5.160222060581052
 40
6.056419412065579
 40
6.923679437146801
 40
7.737385668705461
 40
8.467213477949205
 40
9.121732674020437
 40
9.709289729961416
 40
10.25627561954271
 40
10.25627561954271
 40
10.25627561954271
 40
10.25627561954271
 10
-20.50432302337781
 20
139.6766328505099
 30
0.0
 10
-20.68052382475333
 20
139.7413230908508
 30
0.0
 10
-21.04642829203052
 20
139.8756609871323
 30
0.0
 10
-21.66971757701327
 20
139.817442035332
 30
0.0
 10
-22.30526130475094
 20
139.5868095143215
 30
0.0
 10
-22.93676321394452
 20
139.1799268173975
 30
0.0
 10
-23.5334438127695
 20
138.6242415342746
 30
0.0
 10
-24.06870958117333
 20
137.9446752727124
 30
0.0
 10
-24.51657927661769
 20
137.1748307692353
 30
0.0
 10
-24.85531133136286
 20
136.3521624176338
 30
0.0
 10
-25.06838838005942
 20
135.5166592572357
 30
0.0
 10
-25.14457800530085
 20
134.7133219003508
 30
0.0
 10
-25.08274219817466
 20
133.977488211164
 30
0.0
 10
-24.88309010594747
 20
133.3475224932085
 30
0.0
 10
-24.55784500831134
 20
132.8283810353706
 30
0.0
 10
-24.23680946237697
 20
132.6211335044701
 30
0.0
 10
-24.0820317873775
 20
132.5212153225106
 30
0.0
 11
-20.50432302337781
 21
139.6766328505099
 31
0.0
 11
-21.03961263277665
 21
139.8310020183805
 31
0.0
 11
-21.63840530119338
 21
139.7963116575002
 31
0.0
 11
-22.27036767993446
 21
139.5743175402397
 31
0.0
 11
-22.90348555328791
 21
139.1762670113552
 31
0.0
 11
-23.50568618941423
 21
138.622323198787
 31
0.0
 11
-24.04646357996499
 21
137.9405490847817
 31
0.0
 11
-24.49842228970282
 21
137.1654811860711
 31
0.0
 11
-24.83866774847909
 21
136.3363836592794
 31
0.0
 11
-25.04996272696683
 21
135.4952568093198
 31
0.0
 11
-25.12160453012385
 21
134.6847105241372
 31
0.0
 11
-25.05249099588297
 21
133.9581625571445
 31
0.0
 11
-24.84852906965691
 21
133.3362341777377
 31
0.0
 11
-24.51968544985531
 21
132.8493202464221
 31
0.0
 11
-24.0820317873775
 21
132.5212153225106
 31
0.0
  0
SPLINE
  5
122
330
1F
100
AcDbEntity
  8
0
  6
Continuous
 62
     7
100
AcDbSpline
210
0.0
220
0.0
230
1.0
 70
     8
 71
     3
 72
    23
 73
    19
 74
    17
 42
0.000000001
 43
0.0000000001
 44
0.00000001
 40
0.0
 40
0.0
 40
0.0
 40
0.0
 40
0.3212672072186806
 40
0.6573200865588946
 40
1.019592581315586
 40
1.414582157149031
 40
1.931846436651277
 40
2.493873202239101
 40
3.090639617052189
 40
3.708437361946812
 40
4.331560577771688
 40
4.943821040538899
 40
5.530023877539039
 40
6.077526450367005
 40
6.578018906007257
 40
7.02966149970859
 40
7.439434562376342
 40
7.824473943762647
 40
7.824473943762647
 40
7.824473943762647
 40
7.824473943762647
 10
-19.6574565866789
 20
138.191067342848
 30
0.0
 10
-19.75751852664015
 20
138.2310997810422
 30
0.0
 10
-19.96224755859038
 20
138.3130070547172
 30
0.0
 10
-20.30786348815864
 20
138.3252320507904
 30
0.0
 10
-20.66808008953452
 20
138.258847988522
 30
0.0
 10
-21.06430871929786
 20
138.098299813642
 30
0.0
 10
-21.4809363021563
 20
137.832760655747
 30
0.0
 10
-21.89812987253666
 20
137.4579410171219
 30
0.0
 10
-22.27918497298184
 20
137.0022749099748
 30
0.0
 10
-22.60891063145349
 20
136.484091228014
 30
0.0
 10
-22.8740134656271
 20
135.9243747238713
 30
0.0
 10
-23.06372615657338
 20
135.3458362511821
 30
0.0
 10
-23.1703817983386
 20
134.7717003886017
 30
0.0
 10
-23.18932119462485
 20
134.2251956338276
 30
0.0
 10
-23.1197296505964
 20
133.726446129435
 30
0.0
 10
-22.96057246811467
 20
133.2986699370541
 30
0.0
 10
-22.72076843602752
 20
132.9472733509758
 30
0.0
 10
-22.49488609205135
 20
132.8043158722383
 30
0.0
 10
-22.38545951922862
 20
132.7350614777486
 30
0.0
 11
-19.6574565866789
 21
138.191067342848
 31
0.0
 11
-19.96196272843991
 21
138.2934813654878
 31
0.0
 11
-20.29743897786301
 21
138.3131594705613
 31
0.0
 11
-20.65407908817797
 21
138.2495262134633
 31
0.0
 11
-21.02145805295376
 21
138.1044418918409
 31
0.0
 11
-21.45993620801392
 21
137.8300348197505
 31
0.0
 11
-21.88009829703273
 21
137.4567548942761
 31
0.0
 11
-22.26439314583647
 21
137.0001942514157
 31
0.0
 11
-22.59676823311141
 21
136.4794247731571
 31
0.0
 11
-22.86333924349314
 21
135.9161997478505
 31
0.0
 11
-23.05297137530848
 21
135.334046398128
 31
0.0
 11
-23.15774284884992
 21
134.7572824068319
 31
0.0
 11
-23.17327764559649
 21
134.2100002714437
 31
0.0
 11
-23.09892633374166
 21
133.7150613062983
 31
0.0
 11
-22.93779522273254
 21
133.2931397535914
 31
0.0
 11
-22.69661460778329
 21
132.9618605967511
 31
0.0
 11
-22.38545951922862
 21
132.7350614777486
 31
0.0
  0
SPLINE
  5
123
330
1F
100
AcDbEntity
  8
0
  6
Continuous
 62
     7
100
AcDbSpline
210
0.0
220
0.0
230
1.0
 70
     8
 71
     3
 72
    29
 73
    25
 74
    23
 42
0.000000001
 43
0.0000000001
 44
0.00000001
 40
0.0
 40
0.0
 40
0.0
 40
0.0
 40
0.5367648063356857
 40
1.027804602081998
 40
1.481869757646414
 40
1.914954894048479
 40
2.472058838419128
 40
3.071855537010495
 40
3.741674792506487
 40
4.489526692398844
 40
5.307756093701478
 40
6.177960741277536
 40
7.075176948907181
 40
7.971374294055826
 40
8.838634315981402
 40
9.652340545446247
 40
10.38216835255886
 40
11.03668754653929
 40
11.6242446089539
 40
12.17123050304046
 40
12.60431563944251
 40
13.05838079500694
 40
13.54942059075326
 40
14.08618539708891
 40
14.08618539708891
 40
14.08618539708891
 40
14.08618539708891
 10
-18.62781230402825
 20
137.6762452015227
 30
0.0
 10
-18.66478784192917
 20
137.8518409100261
 30
0.0
 10
-18.73558911260909
 20
138.1880739761429
 30
0.0
 10
-18.95293614867375
 20
138.6374720423445
 30
0.0
 10
-19.24510460794481
 20
138.9980400860642
 30
0.0
 10
-19.64501838217171
 20
139.2779982628213
 30
0.0
 10
-20.16722620523033
 20
139.4244796591141
 30
0.0
 10
-20.78437750930733
 20
139.3783751383842
 30
0.0
 10
-21.42183783976667
 20
139.1439598409902
 30
0.0
 10
-22.05273759944917
 20
138.7382655877666
 30
0.0
 10
-22.64960241228146
 20
138.1822167299926
 30
0.0
 10
-23.18481488567296
 20
137.5027555953503
 30
0.0
 10
-23.63269587846554
 20
136.7328889904257
 30
0.0
 10
-23.9714386211522
 20
135.9101988011288
 30
0.0
 10
-24.18446434164901
 20
135.074799613211
 30
0.0
 10
-24.26083015527849
 20
134.2711055676506
 30
0.0
 10
-24.19842853901997
 20
133.536417334023
 30
0.0
 10
-24.00057280882898
 20
132.9028149978025
 30
0.0
 10
-23.66955447308755
 20
132.3953611150633
 30
0.0
 10
-23.24429149485382
 20
132.0719132702917
 30
0.0
 10
-22.78362647011392
 20
131.9209897908644
 30
0.0
 10
-22.31987103272729
 20
131.9036042187727
 30
0.0
 10
-21.82994433664125
 20
131.9993629714889
 30
0.0
 10
-21.51847712448091
 20
132.1444621539706
 30
0.0
 10
-21.35581523657799
 20
132.2202393364232
 30
0.0
 11
-18.62781230402825
 21
137.6762452015227
 31
0.0
 11
-18.76054375292005
 21
138.1963402219018
 31
0.0
 11
-18.97502492299268
 21
138.6380617512544
 31
0.0
 11
-19.26463640809978
 21
138.9877764259226
 31
0.0
 11
-19.6204395468946
 21
139.2346911122683
 31
0.0
 11
-20.15572915629345
 21
139.3890602801389
 31
0.0
 11
-20.75452182471018
 21
139.3543699192585
 31
0.0
 11
-21.38648420345125
 21
139.1323758019981
 31
0.0
 11
-22.0196020768047
 21
138.7343252731136
 31
0.0
 11
-22.62180271293103
 21
138.1803814605454
 31
0.0
 11
-23.16258010348176
 21
137.49860734654
 31
0.0
 11
-23.61453881321958
 21
136.7235394478295
 31
0.0
 11
-23.95478427199587
 21
135.8944419210378
 31
0.0
 11
-24.1660792504836
 21
135.0533150710782
 31
0.0
 11
-24.2377210536406
 21
134.2427687858956
 31
0.0
 11
-24.16860751939972
 21
133.5162208189029
 31
0.0
 11
-23.96464559317366
 21
132.8942924394961
 31
0.0
 11
-23.63580197337206
 21
132.4073785081805
 31
0.0
 11
-23.19814831089425
 21
132.079273584269
 31
0.0
 11
-22.78713467854079
 21
131.9427798850406
 31
0.0
 11
-22.33359604774203
 21
131.9209195017557
 31
0.0
 11
-21.85153012221632
 21
132.0143674833093
 31
0.0
 11
-21.35581523657799
 21
132.2202393364232
 31
0.0
  0
SPLINE
  5
124
102
{ACAD_REACTORS
330
17D
102
}
330
1F
100
AcDbEntity
  8
1
  6
Continuous
 62
     2
100
AcDbSpline
210
0.0
220
0.0
230
1.0
 70
     8
 71
     3
 72
    20
 73
    16
 74
    14
 42
0.000000001
 43
0.0000000001
 44
0.00000001
 40
0.0
 40
0.0
 40
0.0
 40
0.0
 40
1.452645157541695
 40
2.929101717814708
 40
4.3544748132854
 40
5.446957588191532
 40
6.559605255264793
 40
7.592446829303443
 40
8.646584082336766
 40
9.854143116874146
 40
10.9847985198537
 40
11.42100350637233
 40
11.87125483738951
 40
13.24237398830082
 40
14.53823660375232
 40
14.53823660375232
 40
14.53823660375232
 40
14.53823660375232
 10
-36.48661235283248
 20
94.7560321654043
 30
0.0
 10
-36.10197118504573
 20
94.4607024817128
 30
0.0
 10
-35.32638389686232
 20
93.86520215393696
 30
0.0
 10
-34.29708573614705
 20
92.84358059564426
 30
0.0
 10
-33.16246661704632
 20
92.09516300157219
 30
0.0
 10
-31.96206084191147
 20
91.84395281720886
 30
0.0
 10
-30.88343281453324
 20
91.801759869325
 30
0.0
 10
-29.81689218494929
 20
91.80794184783278
 30
0.0
 10
-28.71804046623383
 20
91.8411169165981
 30
0.0
 10
-27.59253003044248
 20
91.8667354643395
 30
0.0
 10
-26.66371688706003
 20
92.1129580165912
 30
0.0
 10
-26.14184564843735
 20
92.54715388972373
 30
0.0
 10
-25.65312971271541
 20
93.12258995252304
 30
0.0
 10
-25.19116444526398
 20
94.06773589607911
 30
0.0
 10
-24.58588124533344
 20
94.72425077266814
 30
0.0
 10
-24.29177955101363
 20
95.0432454909048
 30
0.0
 11
-36.48661235283248
 21
94.7560321654043
 31
0.0
 11
-35.35315565756049
 21
93.84748724119801
 31
0.0
 11
-34.24919123848932
 21
92.86708602916514
 31
0.0
 11
-33.0303156279446
 21
92.12814712049543
 31
0.0
 11
-31.96738923162423
 21
91.8757464626004
 31
0.0
 11
-30.8567241890961
 21
91.80935370946422
 31
0.0
 11
-29.8238861595469
 21
91.81206024920559
 31
0.0
 11
-28.77007640780158
 21
91.83833492864892
 31
0.0
 11
-27.56514495189445
 21
91.91795283775983
 31
0.0
 11
-26.49328320465991
 21
92.27780563821138
 31
0.0
 11
-26.15454722812566
 21
92.55263782133335
 31
0.0
 11
-25.86007750645857
 21
92.89324587237562
 31
0.0
 11
-25.12449534141003
 21
94.05034854894323
 31
0.0
 11
-24.29177955101363
 21
95.0432454909048
 31
0.0
  0
ARC
  5
125
102
{ACAD_REACTORS
330
179
102
}
330
1F
100
AcDbEntity
  8
1
  6
Continuous
 62
     7
100
AcDbCircle
 10
-7.82851632229534
 20
5.03874991991631
 30
0.0
 40
0.1666666666666252
100
AcDbArc
 50
180.0
 51
299.9816393688506
  0
ARC
  5
126
102
{ACAD_REACTORS
330
179
102
}
330
1F
100
AcDbEntity
  8
1
  6
Continuous
 62
     7
100
AcDbCircle
 10
-7.82851632229534
 20
7.46125008008369
 30
0.0
 40
0.1666666666666874
100
AcDbArc
 50
60.01836063114941
 51
180.0
  0
ARC
  5
127
330
1F
100
AcDbEntity
  8
1
  6
Continuous
 62
     7
100
AcDbCircle
 10
-4.99527555584871
 20
6.25
 30
0.0
 40
0.0833333333333293
100
AcDbArc
 50
299.9816393688334
 51
60.01836063114615
  0
ARC
  5
128
330
1F
100
AcDbEntity
  8
1
  6
Continuous
 62
     7
100
AcDbCircle
 10
-13.32842375540861
 20
6.25
 30
0.0
 40
0.0833333333333053
100
AcDbArc
 50
119.9816393688866
 51
240.0183606311338
  0
ARC
  5
129
102
{ACAD_REACTORS
330
17B
102
}
330
1F
100
AcDbEntity
  8
1
  6
Continuous
 62
     7
100
AcDbCircle
 10
-10.32851632229534
 20
5.13501057401635
 30
0.0
 40
0.3333333333333215
100
AcDbArc
 50
180.0000000000104
 51
240.0183606311564
  0
ARC
  5
12A
102
{ACAD_REACTORS
330
17C
102
}
330
1F
100
AcDbEntity
  8
1
  6
Continuous
 62
     7
100
AcDbCircle
 10
-9.16184965562866
 20
6.41666666666663
 30
0.0
 40
0.0833333333333545
100
AcDbArc
 50
209.9999999999622
 51
330.0000000000177
  0
MTEXT
  5
12C
330
1F
100
AcDbEntity
  8
1
 62
     4
100
AcDbMText
 10
-22.59999999999936
 20
44.03876067704486
 30
0.0
 40
1.0
 41
0.0
 71
     5
 72
     1
  1
15
  7
CONVERTER_11
 73
     1
 44
1.32052821128451
  0
MTEXT
  5
12D
330
1F
100
AcDbEntity
  8
1
 62
     4
100
AcDbMText
 10
-43.09999999999982
 20
39.23876067704473
 30
0.0
 40
1.0
 41
0.0
 71
     5
 72
     1
  1
2/0
  7
CONVERTER_11
 73
     1
 44
1.32052821128451
  0
MTEXT
  5
12E
330
1F
100
AcDbEntity
  8
1
 62
     4
100
AcDbMText
 10
-52.10000000000004
 20
39.23876067704473
 30
0.0
 40
1.0
 41
0.0
 71
     5
 72
     1
  1
70
  7
CONVERTER_11
 73
     1
 44
1.32052821128451
  0
MTEXT
  5
12F
330
1F
100
AcDbEntity
  8
1
 62
     4
100
AcDbMText
 10
-60.10000000000027
 20
39.23876067704473
 30
0.0
 40
1.0
 41
0.0
 71
     5
 72
     1
  1
3,5
  7
CONVERTER_11
 73
     1
 44
1.32052821128451
  0
MTEXT
  5
130
330
1F
100
AcDbEntity
  8
1
 62
     4
100
AcDbMText
 10
-70.10000000000046
 20
39.23876067704473
 30
0.0
 40
1.0
 41
0.0
 71
     5
 72
     1
  1
CYMA 70
  7
CONVERTER_11
 73
     1
 44
1.32052821128451
  0
MTEXT
  5
131
330
1F
100
AcDbEntity
  8
1
 62
     4
100
AcDbMText
 10
-70.10000000000046
 20
42.43876067704478
 30
0.0
 40
1.0
 41
0.0
 71
     5
 72
     1
  1
CYMA 50
  7
CONVERTER_11
 73
     1
 44
1.32052821128451
  0
MTEXT
  5
132
330
1F
100
AcDbEntity
  8
1
 62
     4
100
AcDbMText
 10
-60.10000000000027
 20
42.43876067704478
 30
0.0
 40
1.0
 41
0.0
 71
     5
 72
     1
  1
9,8
  7
CONVERTER_11
 73
     1
 44
1.32052821128451
  0
MTEXT
  5
133
330
1F
100
AcDbEntity
  8
1
 62
     4
100
AcDbMText
 10
-52.10000000000004
 20
42.43876067704478
 30
0.0
 40
1.0
 41
0.0
 71
     5
 72
     1
  1
50
  7
CONVERTER_11
 73
     1
 44
1.32052821128451
  0
MTEXT
  5
134
330
1F
100
AcDbEntity
  8
1
 62
     4
100
AcDbMText
 10
-43.09999999999982
 20
42.43876067704478
 30
0.0
 40
1.0
 41
0.0
 71
     5
 72
     1
  1
1
  7
CONVERTER_11
 73
     1
 44
1.32052821128451
  0
MTEXT
  5
136
330
1F
100
AcDbEntity
  8
1
 62
     7
100
AcDbMText
 10
-20.16184965562864
 20
5.03031971037803
 30
0.0
 40
2.25
 41
0.0
 71
     5
 72
     1
  1
2:1
  7
CONVERTER_12
 73
     1
 44
1.32052821128451
  0
MTEXT
  5
137
330
1F
100
AcDbEntity
  8
1
 62
     7
100
AcDbMText
 10
-20.16184965562864
 20
8.13031971037799
 30
0.0
 40
1.5
 41
0.0
 71
     5
 72
     1
  1
Scale
  7
CONVERTER_12
 73
     1
 44
1.32052821128451
  0
MTEXT
  5
139
330
1F
100
AcDbEntity
  8
1
 62
     7
100
AcDbMText
 10
-76.36184965562863
 20
6.25
 30
0.0
 40
2.25
 41
0.0
 71
     4
 72
     1
  1
CYMA\Pmale crimp contact 200A
  7
CONVERTER_13
 73
     1
 44
0.90036014405762
  0
MTEXT
  5
13A
330
1F
100
AcDbEntity
  8
1
 62
     7
100
AcDbMText
 10
-88.2
 20
4.375
 30
0.0
 40
1.5
 41
0.0
 71
     4
 72
     1
  1
T.Tedeschi
  7
CONVERTER_12
 73
     1
 44
1.32052821128451
  0
MTEXT
  5
13B
330
1F
100
AcDbEntity
  8
1
 62
     7
100
AcDbMText
 10
-93.49999999999999
 20
4.375
 30
0.0
 40
1.5
 41
0.0
 71
     4
 72
     1
  1
Sign.
  7
CONVERTER_12
 73
     1
 44
1.32052821128451
  0
MTEXT
  5
13C
330
1F
100
AcDbEntity
  8
1
 62
     7
100
AcDbMText
 10
-88.2
 20
8.13031971037799
 30
0.0
 40
1.5
 41
0.0
 71
     4
 72
     1
  1
12/02/09
  7
CONVERTER_12
 73
     1
 44
1.32052821128451
  0
MTEXT
  5
13D
330
1F
100
AcDbEntity
  8
1
 62
     7
100
AcDbMText
 10
-93.49999999999999
 20
8.13031971037799
 30
0.0
 40
1.5
 41
0.0
 71
     4
 72
     1
  1
Date
  7
CONVERTER_12
 73
     1
 44
1.32052821128451
  0
MTEXT
  5
13E
330
1F
100
AcDbEntity
  8
1
 62
     7
100
AcDbMText
 10
-97.00000000000004
 20
75.7499999999999
 30
0.0
 40
2.0
 41
0.0
 71
     5
 72
     1
  1
Diritti riservati      All rights reserved
  7
CONVERTER_12
 11
0.0
 21
1.0
 31
0.0
 73
     1
 44
1.32052821128451
  0
MTEXT
  5
13F
330
1F
100
AcDbEntity
  8
1
 62
     4
100
AcDbMText
 10
-60.10000000000027
 20
51.93876067704496
 30
0.0
 40
1.0
 41
0.0
 71
     5
 72
     1
  1
mm
  7
CONVERTER_11
 73
     1
 44
1.32052821128451
  0
TEXT
  5
140
330
1F
100
AcDbEntity
  8
1
 62
     4
100
AcDbText
 10
-50.5417214336504
 20
52.09885249203532
 30
0.0
 40
0.75
  1
2
 41
0.95
  7
CONVERTER_11
100
AcDbText
  0
MTEXT
  5
141
330
1F
100
AcDbEntity
  8
1
 62
     4
100
AcDbMText
 10
-22.59999999999935
 20
53.43876067704495
 30
0.0
 40
1.0
 41
0.0
 71
     5
 72
     1
  1
STRIPPING\P LENGTH\P   mm
  7
CONVERTER_11
 73
     1
 44
1.02040816326531
  0
MTEXT
  5
142
330
1F
100
AcDbEntity
  8
1
 62
     4
100
AcDbMText
 10
-43.09999999999982
 20
51.93876067704496
 30
0.0
 40
1.0
 41
0.0
 71
     5
 72
     1
  1
AWG
  7
CONVERTER_11
 73
     1
 44
1.32052821128451
  0
MTEXT
  5
143
330
1F
100
AcDbEntity
  8
1
 62
     4
100
AcDbMText
 10
-70.10000000000046
 20
51.93876067704496
 30
0.0
 40
1.0
 41
0.0
 71
     5
 72
     1
  1
SILVER PLATED
  7
CONVERTER_11
 73
     1
 44
1.32052821128451
  0
MTEXT
  5
144
330
1F
100
AcDbEntity
  8
1
 62
     4
100
AcDbMText
 10
-47.6
 20
54.93876067704495
 30
0.0
 40
1.0
 41
0.0
 71
     5
 72
     1
  1
WIRE GAUGE
  7
CONVERTER_11
 73
     1
 44
1.32052821128451
  0
MTEXT
  5
145
330
1F
100
AcDbEntity
  8
1
 62
     4
100
AcDbMText
 10
-43.09999999999982
 20
45.63876067704484
 30
0.0
 40
1.0
 41
0.0
 71
     5
 72
     1
  1
2
  7
CONVERTER_11
 73
     1
 44
1.32052821128451
  0
MTEXT
  5
146
330
1F
100
AcDbEntity
  8
1
 62
     4
100
AcDbMText
 10
-43.09999999999982
 20
48.83876067704486
 30
0.0
 40
1.0
 41
0.0
 71
     5
 72
     1
  1
4
  7
CONVERTER_11
 73
     1
 44
1.32052821128451
  0
MTEXT
  5
147
330
1F
100
AcDbEntity
  8
1
 62
     4
100
AcDbMText
 10
-52.10000000000004
 20
51.93876067704496
 30
0.0
 40
1.0
 41
0.0
 71
     5
 72
     1
  1
mm
  7
CONVERTER_11
 73
     1
 44
1.32052821128451
  0
MTEXT
  5
148
330
1F
100
AcDbEntity
  8
1
 62
     4
100
AcDbMText
 10
-52.10000000000004
 20
48.83876067704486
 30
0.0
 40
1.0
 41
0.0
 71
     5
 72
     1
  1
25
  7
CONVERTER_11
 73
     1
 44
1.32052821128451
  0
MTEXT
  5
149
330
1F
100
AcDbEntity
  8
1
 62
     4
100
AcDbMText
 10
-52.10000000000004
 20
45.63876067704484
 30
0.0
 40
1.0
 41
0.0
 71
     5
 72
     1
  1
35
  7
CONVERTER_11
 73
     1
 44
1.32052821128451
  0
MTEXT
  5
14A
330
1F
100
AcDbEntity
  8
1
 62
     4
100
AcDbMText
 10
-60.10000000000027
 20
54.93876067704495
 30
0.0
 40
1.0
 41
0.0
 71
     5
 72
     1
  1
\U+00f8A
  7
CONVERTER_11
 73
     1
 44
1.32052821128451
  0
MTEXT
  5
14B
330
1F
100
AcDbEntity
  8
1
 62
     4
100
AcDbMText
 10
-60.10000000000027
 20
48.83876067704486
 30
0.0
 40
1.0
 41
0.0
 71
     5
 72
     1
  1
7,0
  7
CONVERTER_11
 73
     1
 44
1.32052821128451
  0
MTEXT
  5
14C
330
1F
100
AcDbEntity
  8
1
 62
     4
100
AcDbMText
 10
-60.10000000000027
 20
45.63876067704484
 30
0.0
 40
1.0
 41
0.0
 71
     5
 72
     1
  1
8,2
  7
CONVERTER_11
 73
     1
 44
1.32052821128451
  0
MTEXT
  5
14D
330
1F
100
AcDbEntity
  8
1
 62
     4
100
AcDbMText
 10
-70.10000000000046
 20
45.63876067704484
 30
0.0
 40
1.0
 41
0.0
 71
     5
 72
     1
  1
CYMA 35
  7
CONVERTER_11
 73
     1
 44
1.32052821128451
  0
MTEXT
  5
14E
330
1F
100
AcDbEntity
  8
1
 62
     4
100
AcDbMText
 10
-70.10000000000046
 20
48.83876067704486
 30
0.0
 40
1.0
 41
0.0
 71
     5
 72
     1
  1
CYMA 25
  7
CONVERTER_11
 73
     1
 44
1.32052821128451
  0
MTEXT
  5
14F
330
1F
100
AcDbEntity
  8
1
 62
     4
100
AcDbMText
 10
-70.10000000000046
 20
54.93876067704495
 30
0.0
 40
1.0
 41
0.0
 71
     5
 72
     1
  1
PART NUMBERS
  7
CONVERTER_11
 73
     1
 44
1.32052821128451
  0
MTEXT
  5
151
330
1F
100
AcDbEntity
  8
1
 62
     4
100
AcDbMText
 10
-33.09999999999958
 20
53.43876067704495
 30
0.0
 40
1.0
 41
0.0
 71
     5
 72
     1
  1
IDENTIFICATION
  7
CONVERTER_14
 73
     1
 44
1.32052821128451
  0
MTEXT
  5
152
330
1F
100
AcDbEntity
  8
1
 62
     4
100
AcDbMText
 10
-33.09999999999958
 20
48.83876067704493
 30
0.0
 40
1.0
 41
0.0
 71
     5
 72
     1
  1
without groove
  7
CONVERTER_11
 73
     1
 44
1.32052821128451
  0
MTEXT
  5
153
330
1F
100
AcDbEntity
  8
1
 62
     4
100
AcDbMText
 10
-33.09999999999958
 20
45.63876067704499
 30
0.0
 40
1.0
 41
0.0
 71
     5
 72
     1
  1
1
  7
CONVERTER_11
 73
     1
 44
1.32052821128451
  0
MTEXT
  5
154
330
1F
100
AcDbEntity
  8
1
 62
     4
100
AcDbMText
 10
-33.09999999999958
 20
42.43876067704497
 30
0.0
 40
1.0
 41
0.0
 71
     5
 72
     1
  1
2
  7
CONVERTER_11
 73
     1
 44
1.32052821128451
  0
MTEXT
  5
155
330
1F
100
AcDbEntity
  8
1
 62
     4
100
AcDbMText
 10
-33.09999999999958
 20
39.2387606770449
 30
0.0
 40
1.0
 41
0.0
 71
     5
 72
     1
  1
without groove
  7
CONVERTER_11
 73
     1
 44
1.32052821128451
  0
DIMENSION
  5
161
330
1F
100
AcDbEntity
  8
1
100
AcDbDimension
  2
*D1
 10
-80.9004084014003
 20
110.043245967742
 30
0.0
 11
-80.9004084014003
 21
90.04324572927837
 31
0.0
 70
    32
  1
<>
 71
     5
 42
-1.0
 53
0.00013888888889
  3
ME10_DIM_10
100
AcDbAlignedDimension
 13
-66.5439516129033
 23
70.04324549081475
 33
0.0
 14
-71.7939516129033
 24
110.043245967742
 34
0.0
 50
90.0
100
AcDbRotatedDimension
  0
DIMENSION
  5
16C
330
1F
100
AcDbEntity
  8
1
100
AcDbDimension
  2
*D2
 10
-34.49177945564617
 20
114.823101043151
 30
0.0
 11
-30.39177945564617
 21
116.698101043151
 31
0.0
 70
    32
  1
 {\Fgdt;n}A
 71
     5
 42
-1.0
 53
0.00013888888889
  3
ME10_DIM_11
100
AcDbAlignedDimension
 13
-26.29177945564618
 23
107.098759594875
 33
0.0
 14
-34.49177945564617
 24
107.098759594875
 34
0.0
100
AcDbRotatedDimension
  0
DIMENSION
  5
178
330
1F
100
AcDbEntity
  8
1
100
AcDbDimension
  2
*D3
 10
-73.7939516129033
 20
114.836629505685
 30
0.0
 11
-63.7939516129033
 21
116.586629505685
 31
0.0
 70
    32
  1
<>
 71
     5
 42
-1.0
 53
0.00013888888889
  3
ME10_DIM_12
100
AcDbAlignedDimension
 13
-53.79395161290331
 23
94.0432454909048
 33
0.0
 14
-73.7939516129033
 24
94.0432454909048
 34
0.0
100
AcDbRotatedDimension
  0
HATCH
  5
179
330
1F
100
AcDbEntity
  8
1
  6
Continuous
 62
     7
100
AcDbHatch
 10
0.0
 20
0.0
 30
0.0
210
0.0
220
0.0
230
1.0
  2
SOLID
 70
     1
 71
     1
 91
        1
 92
        1
 93
       14
 72
     1
 10
-7.245136731210265
 20
6.93227043112688
 11
-7.661849655628655
 21
7.17268173367597
 72
     1
 10
-7.661849655628655
 20
7.17268173367597
 11
-7.661849655628655
 21
6.41666666666663
 72
     1
 10
-7.661849655628655
 20
6.41666666666663
 11
-7.161849655628655
 21
6.41666666666663
 72
     2
 10
-7.161849655628655
 20
6.25
 40
0.1666666666666847
 50
270.0
 51
450.0
 73
     0
 72
     1
 10
-7.161849655628655
 20
6.083333333333315
 11
-7.661849655628655
 21
6.083333333333315
 72
     1
 10
-7.661849655628655
 20
6.083333333333315
 11
-7.661849655628655
 21
5.32731826632397
 72
     1
 10
-7.661849655628655
 20
5.32731826632397
 11
-7.245136731210265
 21
5.56772956887312
 72
     2
 10
-7.161849655628655
 20
5.423365304531615
 40
0.1666666666666572
 50
240.0183606311588
 51
420.0183606311674
 73
     0
 72
     1
 10
-7.078562580047105
 20
5.279001040190165
 11
-7.745229246713735
 21
4.894385655574865
 72
     2
 10
-7.828516322295345
 20
5.038749919916315
 40
0.1666666666666252
 50
60.01836063114943
 51
180.0
 73
     0
 72
     1
 10
-7.99518298896197
 20
5.038749919916315
 11
-7.99518298896197
 21
7.461250080083685
 72
     2
 10
-7.828516322295345
 20
7.461250080083685
 40
0.1666666666666874
 50
180.0
 51
299.9816393688506
 73
     0
 72
     1
 10
-7.745229246713735
 20
7.605614344425135
 11
-7.078562580047105
 21
7.22099895980972
 72
     2
 10
-7.161849655628655
 20
7.07663469546833
 40
0.1666666666666886
 50
299.9816393688428
 51
479.9816393688507
 73
     0
 97
       14
330
75
330
126
330
8C
330
125
330
6E
330
10C
330
6F
330
70
330
71
330
10D
330
72
330
73
330
74
330
10E
 75
     0
 76
     1
 98
        1
 10
0.0
 20
0.0
  0
HATCH
  5
17A
330
1F
100
AcDbEntity
  8
1
  6
Continuous
 62
     7
100
AcDbHatch
 10
0.0
 20
0.0
 30
0.0
210
0.0
220
0.0
230
1.0
  2
SOLID
 70
     1
 71
     1
 91
        1
 92
        1
 93
        5
 72
     1
 10
-10.99518298896203
 20
7.07663469546833
 11
-10.99518298896203
 21
5.51962595863165
 72
     1
 10
-10.99518298896203
 20
5.51962595863165
 11
-10.99518298896203
 21
5.423365304531615
 72
     2
 10
-11.16184965562866
 20
5.423365304531615
 40
0.1666666666666785
 50
0.0
 51
180.0
 73
     0
 72
     1
 10
-11.32851632229534
 20
5.423365304531615
 11
-11.32851632229534
 21
7.07663469546833
 72
     2
 10
-11.16184965562866
 20
7.07663469546833
 40
0.1666666666666305
 50
180.0
 51
360.0
 73
     0
 97
        5
330
78
330
77
330
10F
330
76
330
110
 75
     0
 76
     1
 98
        1
 10
0.0
 20
0.0
  0
HATCH
  5
17B
330
1F
100
AcDbEntity
  8
1
  6
Continuous
 62
     7
100
AcDbHatch
 10
0.0
 20
0.0
 30
0.0
210
0.0
220
0.0
230
1.0
  2
SOLID
 70
     1
 71
     1
 91
        1
 92
        1
 93
        7
 72
     1
 10
-10.32851632229534
 20
7.461250080083685
 11
-10.32851632229534
 21
5.13501057401635
 72
     1
 10
-10.32851632229534
 20
5.13501057401635
 11
-9.245229246713736
 21
4.510037261180798
 72
     2
 10
-9.328516322295345
 20
4.365672996839351
 40
0.1666666666666837
 50
299.9816393688506
 51
479.9816393688495
 73
     0
 72
     1
 10
-9.41180339787695
 20
4.221308732497903
 11
-10.49509047345851
 21
4.846282045333453
 72
     2
 10
-10.32851632229534
 20
5.13501057401635
 40
0.3333333333333215
 50
119.9816393688436
 51
179.9999999999896
 73
     0
 72
     1
 10
-10.66184965562866
 20
5.13501057401629
 11
-10.66184965562866
 21
7.461250080083685
 72
     2
 10
-10.49518298896203
 20
7.461250080083685
 40
0.1666666666666909
 50
180.0
 51
360.0
 73
     0
 97
        7
330
7B
330
7A
330
111
330
79
330
129
330
7C
330
112
 75
     0
 76
     1
 98
        1
 10
0.0
 20
0.0
  0
HATCH
  5
17C
330
1F
100
AcDbEntity
  8
1
  6
Continuous
 62
     7
100
AcDbHatch
 10
0.0
 20
0.0
 30
0.0
210
0.0
220
0.0
230
1.0
  2
SOLID
 70
     1
 71
     1
 91
        1
 92
        1
 93
       16
 72
     2
 10
-9.86269988272437
 20
7.865608656017285
 40
0.1324831062376642
 50
30.00000000001384
 51
180.0
 73
     1
 72
     1
 10
-9.99518298896203
 20
7.865608656017285
 11
-9.99518298896203
 21
6.25
 72
     1
 10
-9.99518298896203
 20
6.25
 11
-9.99518298896203
 21
5.423792536316455
 72
     2
 10
-9.828516322295345
 20
5.423792536316455
 40
0.1666666666666856
 50
180.0
 51
360.0
 73
     1
 72
     1
 10
-9.661849655628655
 20
5.423792536316455
 11
-9.661849655628655
 21
6.25
 72
     1
 10
-9.661849655628655
 20
6.25
 11
-9.661849655628655
 21
7.11602540378442
 72
     1
 10
-9.661849655628655
 20
7.11602540378442
 11
-9.234018439277405
 21
6.375
 72
     2
 10
-9.161849655628655
 20
6.41666666666663
 40
0.0833333333333545
 50
209.9999999999622
 51
330.0000000000177
 73
     1
 72
     1
 10
-9.089680871979965
 20
6.375
 11
-8.661849655628655
 21
7.11602540378442
 72
     1
 10
-8.661849655628655
 20
7.11602540378442
 11
-8.661849655628655
 21
6.25
 72
     1
 10
-8.661849655628655
 20
6.25
 11
-8.661849655628655
 21
4.654134535300898
 72
     2
 10
-8.49518298896197
 20
4.654134535300898
 40
0.1666666666666856
 50
180.0
 51
360.0
 73
     1
 72
     1
 10
-8.328516322295345
 20
4.654134535300898
 11
-8.328516322295345
 21
7.865608656017285
 72
     2
 10
-8.460999428533
 20
7.865608656017285
 40
0.1324831062376557
 50
0.0
 51
149.9999999999743
 73
     1
 72
     1
 10
-8.57573316410702
 20
7.931850209136145
 11
-9.161849655628655
 21
6.91666666666663
 72
     1
 10
-9.161849655628655
 20
6.91666666666663
 11
-9.747966147150295
 21
7.931850209136145
 97
       16
330
7D
330
113
330
7E
330
114
330
7F
330
8B
330
8A
330
12A
330
89
330
88
330
80
330
115
330
81
330
83
330
116
330
82
 75
     0
 76
     1
 98
        1
 10
0.0
 20
0.0
  0
HATCH
  5
17D
330
1F
100
AcDbEntity
  8
1
  6
Continuous
 62
     3
100
AcDbHatch
 10
0.0
 20
0.0
 30
0.0
210
0.0
220
0.0
230
1.0
  2
_USER
 70
     0
 71
     1
 91
        1
 92
        1
 93
       16
 72
     1
 10
-22.39177993248336
 20
110.043245967742
 11
-24.59177945564602
 21
110.043245967742
 72
     1
 10
-24.59177945564602
 20
110.043245967742
 11
-26.29177945564618
 21
107.098759594875
 72
     1
 10
-26.29177945564618
 20
107.098759594875
 11
-26.29177945564618
 21
94.54324596774195
 72
     1
 10
-26.29177945564618
 20
94.54324596774195
 11
-30.3917794556462
 21
93.05096800725057
 72
     1
 10
-30.3917794556462
 20
93.05096800725057
 11
-34.49177945564617
 21
94.54324596774195
 72
     1
 10
-34.49177945564617
 20
94.54324596774195
 11
-34.49177945564617
 21
107.098759594875
 72
     1
 10
-34.49177945564617
 20
107.098759594875
 11
-36.19177945564616
 21
110.043245967742
 72
     1
 10
-36.19177945564616
 20
110.043245967742
 11
-38.3917794556462
 21
110.043245967742
 72
     1
 10
-38.3917794556462
 20
110.043245967742
 11
-38.3917794556462
 21
107.543245967742
 72
     1
 10
-38.3917794556462
 20
107.543245967742
 11
-36.49177936027878
 21
106.446280177947
 72
     1
 10
-36.49177936027878
 20
106.446280177947
 11
-36.49177936027878
 21
95.0432454909048
 72
     1
 10
-36.49177936027878
 20
95.0432454909048
 11
-36.48661235283248
 21
94.7560321654043
 72
     4
 94
        3
 73
     0
 74
     0
 95
       20
 96
       16
 40
0.0
 40
0.0
 40
0.0
 40
0.0
 40
1.452645157541695
 40
2.929101717814708
 40
4.3544748132854
 40
5.446957588191532
 40
6.559605255264793
 40
7.592446829303443
 40
8.646584082336766
 40
9.854143116874146
 40
10.9847985198537
 40
11.42100350637233
 40
11.87125483738951
 40
13.24237398830082
 40
14.53823660375232
 40
14.53823660375232
 40
14.53823660375232
 40
14.53823660375232
 10
-36.48661235283248
 20
94.7560321654043
 10
-36.10197118504573
 20
94.4607024817128
 10
-35.32638389686232
 20
93.86520215393696
 10
-34.29708573614705
 20
92.84358059564426
 10
-33.16246661704632
 20
92.09516300157219
 10
-31.96206084191147
 20
91.84395281720886
 10
-30.88343281453324
 20
91.801759869325
 10
-29.81689218494929
 20
91.80794184783278
 10
-28.71804046623383
 20
91.8411169165981
 10
-27.59253003044248
 20
91.8667354643395
 10
-26.66371688706003
 20
92.1129580165912
 10
-26.14184564843735
 20
92.54715388972373
 10
-25.65312971271541
 20
93.12258995252304
 10
-25.19116444526398
 20
94.06773589607911
 10
-24.58588124533344
 20
94.72425077266814
 10
-24.29177955101363
 20
95.0432454909048
 72
     1
 10
-24.29177955101363
 20
95.0432454909048
 11
-24.29177955101363
 21
106.446280177947
 72
     1
 10
-24.29177955101363
 20
106.446280177947
 11
-22.39177993248336
 21
107.543245967742
 72
     1
 10
-22.39177993248336
 20
107.543245967742
 11
-22.39177993248336
 21
110.043245967742
 97
       16
330
E5
330
ED
330
EC
330
EB
330
F2
330
F1
330
EE
330
101
330
D7
330
D9
330
DB
330
DA
330
124
330
DC
330
D8
330
D6
 75
     1
 76
     0
 52
45.00000000000005
 41
1.0
 77
     0
 78
     1
 53
45.00000000000005
 43
0.0
 44
0.0
 45
-0.7071067811865481
 46
0.7071067811865469
 79
     0
 98
        1
 10
0.0
 20
0.0
  0
ENDSEC
  0
SECTION
  2
OBJECTS
  0
DICTIONARY
  5
C
330
0
100
AcDbDictionary
281
     1
  3
ACAD_GROUP
350
D
  3
ACAD_LAYOUT
350
1A
  3
ACAD_MATERIAL
350
3B
  3
ACAD_MLEADERSTYLE
350
180
  3
ACAD_MLINESTYLE
350
17
  3
ACAD_PLOTSETTINGS
350
19
  3
ACAD_PLOTSTYLENAME
350
E
  3
ACAD_VISUALSTYLE
350
2A
  3
AcDbVariableDictionary
350
17E
  0
DICTIONARY
  5
D
102
{ACAD_REACTORS
330
C
102
}
330
C
100
AcDbDictionary
281
     1
  0
DICTIONARY
  5
1A
102
{ACAD_REACTORS
330
C
102
}
330
C
100
AcDbDictionary
281
     1
  3
Layout1
350
1E
  3
Layout2
350
26
  3
Model
350
22
  0
DICTIONARY
  5
3B
102
{ACAD_REACTORS
330
C
102
}
330
C
100
AcDbDictionary
281
     1
  3
ByBlock
350
3D
  3
ByLayer
350
3C
  3
Global
350
3E
  0
DICTIONARY
  5
180
102
{ACAD_REACTORS
330
C
102
}
330
C
100
AcDbDictionary
281
     1
  0
DICTIONARY
  5
17
102
{ACAD_REACTORS
330
C
102
}
330
C
100
AcDbDictionary
281
     1
  3
Standard
350
18
  0
DICTIONARY
  5
19
102
{ACAD_REACTORS
330
C
102
}
330
C
100
AcDbDictionary
281
     1
  0
ACDBDICTIONARYWDFLT
  5
E
102
{ACAD_REACTORS
330
C
102
}
330
C
100
AcDbDictionary
281
     1
  3
Normal
350
F
100
AcDbDictionaryWithDefault
340
F
  0
DICTIONARY
  5
2A
102
{ACAD_REACTORS
330
C
102
}
330
C
100
AcDbDictionary
281
     1
  3
2dWireframe
350
2F
  3
3D Hidden
350
31
  3
3dWireframe
350
30
  3
Basic
350
32
  3
Brighten
350
36
  3
ColorChange
350
3A
  3
Conceptual
350
34
  3
Dim
350
35
  3
Facepattern
350
39
  3
Flat
350
2B
  3
FlatWithEdges
350
2C
  3
Gouraud
350
2D
  3
GouraudWithEdges
350
2E
  3
Linepattern
350
38
  3
Realistic
350
33
  3
Thicken
350
37
  0
DICTIONARY
  5
17E
102
{ACAD_REACTORS
330
C
102
}
330
C
100
AcDbDictionary
281
     1
  3
DIMASSOC
350
181
  3
HIDETEXT
350
182
  0
LAYOUT
  5
1E
102
{ACAD_REACTORS
330
1A
102
}
330
1A
100
AcDbPlotSettings
  1

  2
none_device
  4

  6

 40
0.0
 41
0.0
 42
0.0
 43
0.0
 44
0.0
 45
0.0
 46
0.0
 47
0.0
 48
0.0
 49
0.0
140
0.0
141
0.0
142
1.0
143
1.0
 70
   688
 72
     0
 73
     0
 74
     5
  7

 75
    16
147
1.0
148
0.0
149
0.0
100
AcDbLayout
  1
Layout1
 70
     1
 71
     1
 10
0.0
 20
0.0
 11
12.0
 21
9.0
 12
0.0
 22
0.0
 32
0.0
 14
1.00000000000000E+20
 24
1.00000000000000E+20
 34
1.00000000000000E+20
 15
-1.00000000000000E+20
 25
-1.00000000000000E+20
 35
-1.00000000000000E+20
146
0.0
 13
0.0
 23
0.0
 33
0.0
 16
1.0
 26
0.0
 36
0.0
 17
0.0
 27
1.0
 37
0.0
 76
     0
330
1B
  0
LAYOUT
  5
26
102
{ACAD_REACTORS
330
1A
102
}
330
1A
100
AcDbPlotSettings
  1

  2
none_device
  4

  6

 40
0.0
 41
0.0
 42
0.0
 43
0.0
 44
0.0
 45
0.0
 46
0.0
 47
0.0
 48
0.0
 49
0.0
140
0.0
141
0.0
142
1.0
143
1.0
 70
   688
 72
     0
 73
     0
 74
     5
  7

 75
    16
147
1.0
148
0.0
149
0.0
100
AcDbLayout
  1
Layout2
 70
     1
 71
     2
 10
0.0
 20
0.0
 11
0.0
 21
0.0
 12
0.0
 22
0.0
 32
0.0
 14
0.0
 24
0.0
 34
0.0
 15
0.0
 25
0.0
 35
0.0
146
0.0
 13
0.0
 23
0.0
 33
0.0
 16
1.0
 26
0.0
 36
0.0
 17
0.0
 27
1.0
 37
0.0
 76
     0
330
23
  0
LAYOUT
  5
22
102
{ACAD_REACTORS
330
1A
102
}
330
1A
100
AcDbPlotSettings
  1

  2
none_device
  4

  6

 40
0.0
 41
0.0
 42
0.0
 43
0.0
 44
0.0
 45
0.0
 46
0.0
 47
0.0
 48
0.0
 49
0.0
140
0.0
141
0.0
142
1.0
143
1.0
 70
  1712
 72
     0
 73
     0
 74
     0
  7

 75
     0
147
1.0
148
0.0
149
0.0
100
AcDbLayout
  1
Model
 70
     1
 71
     0
 10
0.0
 20
0.0
 11
12.0
 21
9.0
 12
0.0
 22
0.0
 32
0.0
 14
-105.0000000000001
 24
0.0
 34
0.0
 15
0.0
 25
148.5000000000001
 35
0.0
146
0.0
 13
0.0
 23
0.0
 33
0.0
 16
1.0
 26
0.0
 36
0.0
 17
0.0
 27
1.0
 37
0.0
 76
     0
330
1F
331
29
  0
MATERIAL
  5
3D
102
{ACAD_REACTORS
330
3B
102
}
102
{ACAD_XDICTIONARY
360
1A5
102
}
330
3B
100
AcDbMaterial
  1
ByBlock
  0
MATERIAL
  5
3C
102
{ACAD_REACTORS
330
3B
102
}
102
{ACAD_XDICTIONARY
360
1A3
102
}
330
3B
100
AcDbMaterial
  1
ByLayer
  0
MATERIAL
  5
3E
102
{ACAD_REACTORS
330
3B
102
}
102
{ACAD_XDICTIONARY
360
1A7
102
}
330
3B
100
AcDbMaterial
  1
Global
  0
MLINESTYLE
  5
18
102
{ACAD_REACTORS
330
17
102
}
330
17
100
AcDbMlineStyle
  2
Standard
 70
     0
  3

 62
   256
 51
90.0
 52
90.0
 71
     2
 49
0.5
 62
   256
  6
BYLAYER
 49
-0.5
 62
   256
  6
BYLAYER
  0
ACDBPLACEHOLDER
  5
F
102
{ACAD_REACTORS
330
E
102
}
330
E
  0
VISUALSTYLE
  5
2F
102
{ACAD_REACTORS
330
2A
102
}
102
{ACAD_XDICTIONARY
360
18B
102
}
330
2A
100
AcDbVisualStyle
  2
2dWireframe
 70
     4
 71
     0
 72
     2
 73
     0
 90
        0
 40
-0.6
 41
-30.0
 62
     5
 63
     7
 74
     1
 91
        4
 64
     7
 65
   257
 75
     1
175
     1
 42
1.0
 92
        0
 66
   257
 43
1.0
 76
     1
 77
     6
 78
     2
 67
     7
 79
     5
170
     0
171
     0
290
     0
174
     0
 93
        1
 44
0.0
173
     0
291
     0
 45
0.0
1001
ACAD
1000
AcDbSavedByObjectVersion
1070
     0
  0
VISUALSTYLE
  5
31
102
{ACAD_REACTORS
330
2A
102
}
102
{ACAD_XDICTIONARY
360
18F
102
}
330
2A
100
AcDbVisualStyle
  2
3D Hidden
 70
     6
 71
     1
 72
     2
 73
     2
 90
        0
 40
-0.6
 41
-30.0
 62
     5
 63
     7
 74
     2
 91
        2
 64
     7
 65
   257
 75
     2
175
     1
 42
40.0
 92
        0
 66
   257
 43
1.0
 76
     1
 77
     6
 78
     2
 67
     7
 79
     3
170
     0
171
     0
290
     0
174
     0
 93
        1
 44
0.0
173
     0
291
     0
 45
0.0
1001
ACAD
1000
AcDbSavedByObjectVersion
1070
     0
  0
VISUALSTYLE
  5
30
102
{ACAD_REACTORS
330
2A
102
}
102
{ACAD_XDICTIONARY
360
18D
102
}
330
2A
100
AcDbVisualStyle
  2
3dWireframe
 70
     5
 71
     0
 72
     2
 73
     0
 90
        0
 40
-0.6
 41
-30.0
 62
     5
 63
     7
 74
     1
 91
        4
 64
     7
 65
   257
 75
     1
175
     1
 42
1.0
 92
        0
 66
   257
 43
1.0
 76
     1
 77
     6
 78
     2
 67
     7
 79
     5
170
     0
171
     0
290
     0
174
     0
 93
        1
 44
0.0
173
     0
291
     0
 45
0.0
1001
ACAD
1000
AcDbSavedByObjectVersion
1070
     0
  0
VISUALSTYLE
  5
32
102
{ACAD_REACTORS
330
2A
102
}
102
{ACAD_XDICTIONARY
360
191
102
}
330
2A
100
AcDbVisualStyle
  2
Basic
 70
     7
 71
     1
 72
     0
 73
     1
 90
        0
 40
-0.6
 41
-30.0
 62
     5
 63
     7
 74
     0
 91
        4
 64
     7
 65
   257
 75
     1
175
     1
 42
1.0
 92
        8
 66
     7
 43
1.0
 76
     1
 77
     6
 78
     2
 67
     7
 79
     5
170
     0
171
     0
290
     0
174
     0
 93
        1
 44
0.0
173
     0
291
     1
 45
0.0
1001
ACAD
1000
AcDbSavedByObjectVersion
1070
     0
  0
VISUALSTYLE
  5
36
102
{ACAD_REACTORS
330
2A
102
}
102
{ACAD_XDICTIONARY
360
199
102
}
330
2A
100
AcDbVisualStyle
  2
Brighten
 70
    12
 71
     2
 72
     2
 73
     0
 90
        0
 40
-0.6
 41
-30.0
 62
     5
 63
     7
 74
     1
 91
        4
 64
     7
 65
   257
 75
     1
175
     1
 42
1.0
 92
        8
 66
     7
 43
1.0
 76
     1
 77
     6
 78
     2
 67
     7
 79
     5
170
     0
171
     0
290
     0
174
     0
 93
        1
 44
50.0
173
     0
291
     1
 45
0.0
1001
ACAD
1000
AcDbSavedByObjectVersion
1070
     0
  0
VISUALSTYLE
  5
3A
102
{ACAD_REACTORS
330
2A
102
}
102
{ACAD_XDICTIONARY
360
1A1
102
}
330
2A
100
AcDbVisualStyle
  2
ColorChange
 70
    16
 71
     2
 72
     2
 73
     3
 90
        0
 40
-0.6
 41
-30.0
 62
     5
 63
     8
 74
     1
 91
        4
 64
     7
 65
   257
 75
     1
175
     1
 42
1.0
 92
        8
 66
     8
 43
1.0
 76
     1
 77
     6
 78
     2
 67
     7
 79
     5
170
     0
171
     0
290
     0
174
     0
 93
        1
 44
0.0
173
     0
291
     1
 45
0.0
1001
ACAD
1000
AcDbSavedByObjectVersion
1070
     0
  0
VISUALSTYLE
  5
34
102
{ACAD_REACTORS
330
2A
102
}
102
{ACAD_XDICTIONARY
360
195
102
}
330
2A
100
AcDbVisualStyle
  2
Conceptual
 70
     9
 71
     3
 72
     2
 73
     0
 90
        0
 40
-0.6
 41
-30.0
 62
     5
 63
     7
 74
     2
 91
        2
 64
     7
 65
   257
 75
     1
175
     1
 42
40.0
 92
        8
 66
     7
 43
1.0
 76
     1
 77
     6
 78
     2
 67
     7
 79
     3
170
     0
171
     0
290
     0
174
     0
 93
        1
 44
0.0
173
     0
291
     0
 45
0.0
1001
ACAD
1000
AcDbSavedByObjectVersion
1070
     0
  0
VISUALSTYLE
  5
35
102
{ACAD_REACTORS
330
2A
102
}
102
{ACAD_XDICTIONARY
360
197
102
}
330
2A
100
AcDbVisualStyle
  2
Dim
 70
    11
 71
     2
 72
     2
 73
     0
 90
        0
 40
-0.6
 41
-30.0
 62
     5
 63
     7
 74
     1
 91
        4
 64
     7
 65
   257
 75
     1
175
     1
 42
1.0
 92
        8
 66
     7
 43
1.0
 76
     1
 77
     6
 78
     2
 67
     7
 79
     5
170
     0
171
     0
290
     0
174
     0
 93
        1
 44
-50.0
173
     0
291
     1
 45
0.0
1001
ACAD
1000
AcDbSavedByObjectVersion
1070
     0
  0
VISUALSTYLE
  5
39
102
{ACAD_REACTORS
330
2A
102
}
102
{ACAD_XDICTIONARY
360
19F
102
}
330
2A
100
AcDbVisualStyle
  2
Facepattern
 70
    15
 71
     2
 72
     2
 73
     0
 90
        0
 40
-0.6
 41
-30.0
 62
     5
 63
     7
 74
     1
 91
        4
 64
     7
 65
   257
 75
     1
175
     1
 42
1.0
 92
        8
 66
     7
 43
1.0
 76
     1
 77
     6
 78
     2
 67
     7
 79
     5
170
     0
171
     0
290
     0
174
     0
 93
        1
 44
0.0
173
     0
291
     1
 45
0.0
1001
ACAD
1000
AcDbSavedByObjectVersion
1070
     0
  0
VISUALSTYLE
  5
2B
102
{ACAD_REACTORS
330
2A
102
}
102
{ACAD_XDICTIONARY
360
183
102
}
330
2A
100
AcDbVisualStyle
  2
Flat
 70
     0
 71
     2
 72
     1
 73
     1
 90
        2
 40
-0.6
 41
30.0
 62
     5
 63
     7
 74
     0
 91
        4
 64
     7
 65
   257
 75
     1
175
     1
 42
1.0
 92
        8
 66
     7
 43
1.0
 76
     1
 77
     6
 78
     2
 67
     7
 79
     5
170
     0
171
     0
290
     0
174
     0
 93
       13
 44
0.0
173
     0
291
     1
 45
0.0
1001
ACAD
1000
AcDbSavedByObjectVersion
1070
     0
  0
VISUALSTYLE
  5
2C
102
{ACAD_REACTORS
330
2A
102
}
102
{ACAD_XDICTIONARY
360
185
102
}
330
2A
100
AcDbVisualStyle
  2
FlatWithEdges
 70
     1
 71
     2
 72
     1
 73
     1
 90
        2
 40
-0.6
 41
30.0
 62
     5
 63
     7
 74
     1
 91
        4
 64
     7
 65
   257
 75
     1
175
     1
 42
1.0
 92
        0
 66
   257
 43
1.0
 76
     1
 77
     6
 78
     2
 67
     7
 79
     5
170
     0
171
     0
290
     0
174
     0
 93
       13
 44
0.0
173
     0
291
     1
 45
0.0
1001
ACAD
1000
AcDbSavedByObjectVersion
1070
     0
  0
VISUALSTYLE
  5
2D
102
{ACAD_REACTORS
330
2A
102
}
102
{ACAD_XDICTIONARY
360
187
102
}
330
2A
100
AcDbVisualStyle
  2
Gouraud
 70
     2
 71
     2
 72
     2
 73
     1
 90
        2
 40
-0.6
 41
30.0
 62
     5
 63
     7
 74
     0
 91
        4
 64
     7
 65
   257
 75
     1
175
     1
 42
1.0
 92
        0
 66
     7
 43
1.0
 76
     1
 77
     6
 78
     2
 67
     7
 79
     5
170
     0
171
     0
290
     0
174
     0
 93
       13
 44
0.0
173
     0
291
     1
 45
0.0
1001
ACAD
1000
AcDbSavedByObjectVersion
1070
     0
  0
VISUALSTYLE
  5
2E
102
{ACAD_REACTORS
330
2A
102
}
102
{ACAD_XDICTIONARY
360
189
102
}
330
2A
100
AcDbVisualStyle
  2
GouraudWithEdges
 70
     3
 71
     2
 72
     2
 73
     1
 90
        2
 40
-0.6
 41
30.0
 62
     5
 63
     7
 74
     1
 91
        4
 64
     7
 65
   257
 75
     1
175
     1
 42
1.0
 92
        0
 66
   257
 43
1.0
 76
     1
 77
     6
 78
     2
 67
     7
 79
     5
170
     0
171
     0
290
     0
174
     0
 93
       13
 44
0.0
173
     0
291
     1
 45
0.0
1001
ACAD
1000
AcDbSavedByObjectVersion
1070
     0
  0
VISUALSTYLE
  5
38
102
{ACAD_REACTORS
330
2A
102
}
102
{ACAD_XDICTIONARY
360
19D
102
}
330
2A
100
AcDbVisualStyle
  2
Linepattern
 70
    14
 71
     2
 72
     2
 73
     0
 90
        0
 40
-0.6
 41
-30.0
 62
     5
 63
     7
 74
     1
 91
        4
 64
     7
 65
   257
 75
     7
175
     7
 42
1.0
 92
        8
 66
     7
 43
1.0
 76
     1
 77
     6
 78
     2
 67
     7
 79
     5
170
     0
171
     0
290
     0
174
     0
 93
        1
 44
0.0
173
     0
291
     1
 45
0.0
1001
ACAD
1000
AcDbSavedByObjectVersion
1070
     0
  0
VISUALSTYLE
  5
33
102
{ACAD_REACTORS
330
2A
102
}
102
{ACAD_XDICTIONARY
360
193
102
}
330
2A
100
AcDbVisualStyle
  2
Realistic
 70
     8
 71
     2
 72
     2
 73
     0
 90
        0
 40
-0.6
 41
-30.0
 62
     5
 63
     7
 74
     1
 91
        0
 64
     7
 65
   257
 75
     1
175
     1
 42
1.0
 92
        8
 66
     8
 43
1.0
 76
     1
 77
     6
 78
     2
 67
     7
 79
     5
170
     0
171
     0
290
     0
174
     0
 93
       13
 44
0.0
173
     0
291
     0
 45
0.0
1001
ACAD
1000
AcDbSavedByObjectVersion
1070
     0
  0
VISUALSTYLE
  5
37
102
{ACAD_REACTORS
330
2A
102
}
102
{ACAD_XDICTIONARY
360
19B
102
}
330
2A
100
AcDbVisualStyle
  2
Thicken
 70
    13
 71
     2
 72
     2
 73
     0
 90
        0
 40
-0.6
 41
-30.0
 62
     5
 63
     7
 74
     1
 91
        4
 64
     7
 65
   257
 75
     1
175
     1
 42
1.0
 92
       12
 66
     7
 43
1.0
 76
     1
 77
     6
 78
     2
 67
     7
 79
     5
170
     0
171
     0
290
     0
174
     0
 93
        1
 44
0.0
173
     0
291
     1
 45
0.0
1001
ACAD
1000
AcDbSavedByObjectVersion
1070
     0
  0
DICTIONARYVAR
  5
181
102
{ACAD_REACTORS
330
17E
102
}
330
17E
100
DictionaryVariables
280
     0
  1
2
  0
DICTIONARYVAR
  5
182
102
{ACAD_REACTORS
330
17E
102
}
330
17E
100
DictionaryVariables
280
     0
  1
1
  0
DICTIONARY
  5
1A5
330
3D
100
AcDbDictionary
280
     1
281
     1
  3
ACAD_XREC_ROUNDTRIP
360
1A6
  0
DICTIONARY
  5
1A3
330
3C
100
AcDbDictionary
280
     1
281
     1
  3
ACAD_XREC_ROUNDTRIP
360
1A4
  0
DICTIONARY
  5
1A7
330
3E
100
AcDbDictionary
280
     1
281
     1
  3
ACAD_XREC_ROUNDTRIP
360
1A8
  0
DICTIONARY
  5
18B
330
2F
100
AcDbDictionary
280
     1
281
     1
  3
ACAD_XREC_ROUNDTRIP
360
18C
  0
DICTIONARY
  5
18F
330
31
100
AcDbDictionary
280
     1
281
     1
  3
ACAD_XREC_ROUNDTRIP
360
190
  0
DICTIONARY
  5
18D
330
30
100
AcDbDictionary
280
     1
281
     1
  3
ACAD_XREC_ROUNDTRIP
360
18E
  0
DICTIONARY
  5
191
330
32
100
AcDbDictionary
280
     1
281
     1
  3
ACAD_XREC_ROUNDTRIP
360
192
  0
DICTIONARY
  5
199
330
36
100
AcDbDictionary
280
     1
281
     1
  3
ACAD_XREC_ROUNDTRIP
360
19A
  0
DICTIONARY
  5
1A1
330
3A
100
AcDbDictionary
280
     1
281
     1
  3
ACAD_XREC_ROUNDTRIP
360
1A2
  0
DICTIONARY
  5
195
330
34
100
AcDbDictionary
280
     1
281
     1
  3
ACAD_XREC_ROUNDTRIP
360
196
  0
DICTIONARY
  5
197
330
35
100
AcDbDictionary
280
     1
281
     1
  3
ACAD_XREC_ROUNDTRIP
360
198
  0
DICTIONARY
  5
19F
330
39
100
AcDbDictionary
280
     1
281
     1
  3
ACAD_XREC_ROUNDTRIP
360
1A0
  0
DICTIONARY
  5
183
330
2B
100
AcDbDictionary
280
     1
281
     1
  3
ACAD_XREC_ROUNDTRIP
360
184
  0
DICTIONARY
  5
185
330
2C
100
AcDbDictionary
280
     1
281
     1
  3
ACAD_XREC_ROUNDTRIP
360
186
  0
DICTIONARY
  5
187
330
2D
100
AcDbDictionary
280
     1
281
     1
  3
ACAD_XREC_ROUNDTRIP
360
188
  0
DICTIONARY
  5
189
330
2E
100
AcDbDictionary
280
     1
281
     1
  3
ACAD_XREC_ROUNDTRIP
360
18A
  0
DICTIONARY
  5
19D
330
38
100
AcDbDictionary
280
     1
281
     1
  3
ACAD_XREC_ROUNDTRIP
360
19E
  0
DICTIONARY
  5
193
330
33
100
AcDbDictionary
280
     1
281
     1
  3
ACAD_XREC_ROUNDTRIP
360
194
  0
DICTIONARY
  5
19B
330
37
100
AcDbDictionary
280
     1
281
     1
  3
ACAD_XREC_ROUNDTRIP
360
19C
  0
XRECORD
  5
1A6
102
{ACAD_REACTORS
330
1A5
102
}
330
1A5
100
AcDbXrecord
280
     1
102
MATERIAL
148
0.0
149
0.0
149
0.0
 93
        0
 94
      127
282
     0
 72
     1
 77
     1
171
     1
175
     1
179
     1
273
     0
  0
XRECORD
  5
1A4
102
{ACAD_REACTORS
330
1A3
102
}
330
1A3
100
AcDbXrecord
280
     1
102
MATERIAL
148
0.0
149
0.0
149
0.0
 93
        0
 94
      127
282
     0
 72
     1
 77
     1
171
     1
175
     1
179
     1
273
     0
  0
XRECORD
  5
1A8
102
{ACAD_REACTORS
330
1A7
102
}
330
1A7
100
AcDbXrecord
280
     1
102
MATERIAL
148
0.0
149
0.0
149
0.0
 93
        0
 94
      127
282
     0
 72
     1
 77
     1
171
     1
175
     1
179
     1
273
     0
  0
XRECORD
  5
18C
102
{ACAD_REACTORS
330
18B
102
}
330
18B
100
AcDbXrecord
280
     1
102
RTVSPropertyOp0
 70
     1
102
RTVSPropertyOp1
 70
     1
102
RTVSPropertyOp2
 70
     1
102
RTVSPropertyOp3
 70
     1
102
RTVSPropertyOp4
 70
     1
102
RTVSPropertyOp5
 70
     1
102
RTVSPropertyOp6
 70
     1
102
RTVSPropertyOp7
 70
     1
102
RTVSPropertyOp8
 70
     1
102
RTVSPropertyOp9
 70
     1
102
RTVSPropertyOp10
 70
     1
102
RTVSPropertyOp11
 70
     1
102
RTVSPropertyOp12
 70
     1
102
RTVSPropertyOp13
 70
     1
102
RTVSPropertyOp14
 70
     1
102
RTVSPropertyOp15
 70
     1
102
RTVSPropertyOp16
 70
     1
102
RTVSPropertyOp17
 70
     1
102
RTVSPropertyOp18
 70
     1
102
RTVSPropertyOp19
 70
     1
102
RTVSPropertyOp20
 70
     1
102
RTVSPropertyOp21
 70
     1
102
RTVSPropertyOp22
 70
     1
102
RTVSPropertyOp23
 70
     1
102
RTVSPropertyOp24
 70
     1
102
RTVSPropertyOp25
 70
     1
102
RTVSPropertyOp26
 70
     1
102
RTVSPropertyOp27
 70
     1
102
RTVSPropertyOp28
 70
     1
102
RTVSPropertyOp29
 70
     1
102
RTVSPropertyOp30
 70
     1
102
RTVSPropertyOp31
 70
     1
102
RTVSPropertyOp32
 70
     1
  0
XRECORD
  5
190
102
{ACAD_REACTORS
330
18F
102
}
330
18F
100
AcDbXrecord
280
     1
102
RTVSPropertyOp0
 70
     1
102
RTVSPropertyOp1
 70
     1
102
RTVSPropertyOp2
 70
     1
102
RTVSPropertyOp3
 70
     1
102
RTVSPropertyOp4
 70
     1
102
RTVSPropertyOp5
 70
     1
102
RTVSPropertyOp6
 70
     1
102
RTVSPropertyOp7
 70
     1
102
RTVSPropertyOp8
 70
     1
102
RTVSPropertyOp9
 70
     1
102
RTVSPropertyOp10
 70
     1
102
RTVSPropertyOp11
 70
     1
102
RTVSPropertyOp12
 70
     1
102
RTVSPropertyOp13
 70
     1
102
RTVSPropertyOp14
 70
     1
102
RTVSPropertyOp15
 70
     1
102
RTVSPropertyOp16
 70
     1
102
RTVSPropertyOp17
 70
     1
102
RTVSPropertyOp18
 70
     1
102
RTVSPropertyOp19
 70
     1
102
RTVSPropertyOp20
 70
     1
102
RTVSPropertyOp21
 70
     1
102
RTVSPropertyOp22
 70
     1
102
RTVSPropertyOp23
 70
     1
102
RTVSPropertyOp24
 70
     1
102
RTVSPropertyOp25
 70
     1
102
RTVSPropertyOp26
 70
     1
102
RTVSPropertyOp27
 70
     1
102
RTVSPropertyOp28
 70
     1
102
RTVSPropertyOp29
 70
     1
102
RTVSPropertyOp30
 70
     1
102
RTVSPropertyOp31
 70
     1
102
RTVSPropertyOp32
 70
     1
  0
XRECORD
  5
18E
102
{ACAD_REACTORS
330
18D
102
}
330
18D
100
AcDbXrecord
280
     1
102
RTVSPropertyOp0
 70
     1
102
RTVSPropertyOp1
 70
     1
102
RTVSPropertyOp2
 70
     1
102
RTVSPropertyOp3
 70
     1
102
RTVSPropertyOp4
 70
     1
102
RTVSPropertyOp5
 70
     1
102
RTVSPropertyOp6
 70
     1
102
RTVSPropertyOp7
 70
     1
102
RTVSPropertyOp8
 70
     1
102
RTVSPropertyOp9
 70
     1
102
RTVSPropertyOp10
 70
     1
102
RTVSPropertyOp11
 70
     1
102
RTVSPropertyOp12
 70
     1
102
RTVSPropertyOp13
 70
     1
102
RTVSPropertyOp14
 70
     1
102
RTVSPropertyOp15
 70
     1
102
RTVSPropertyOp16
 70
     1
102
RTVSPropertyOp17
 70
     1
102
RTVSPropertyOp18
 70
     1
102
RTVSPropertyOp19
 70
     1
102
RTVSPropertyOp20
 70
     1
102
RTVSPropertyOp21
 70
     1
102
RTVSPropertyOp22
 70
     1
102
RTVSPropertyOp23
 70
     1
102
RTVSPropertyOp24
 70
     1
102
RTVSPropertyOp25
 70
     1
102
RTVSPropertyOp26
 70
     1
102
RTVSPropertyOp27
 70
     1
102
RTVSPropertyOp28
 70
     1
102
RTVSPropertyOp29
 70
     1
102
RTVSPropertyOp30
 70
     1
102
RTVSPropertyOp31
 70
     1
102
RTVSPropertyOp32
 70
     1
  0
XRECORD
  5
192
102
{ACAD_REACTORS
330
191
102
}
330
191
100
AcDbXrecord
280
     1
102
RTVSPropertyOp0
 70
     1
102
RTVSPropertyOp1
 70
     1
102
RTVSPropertyOp2
 70
     1
102
RTVSPropertyOp3
 70
     1
102
RTVSPropertyOp4
 70
     1
102
RTVSPropertyOp5
 70
     1
102
RTVSPropertyOp6
 70
     1
102
RTVSPropertyOp7
 70
     1
102
RTVSPropertyOp8
 70
     1
102
RTVSPropertyOp9
 70
     1
102
RTVSPropertyOp10
 70
     1
102
RTVSPropertyOp11
 70
     1
102
RTVSPropertyOp12
 70
     1
102
RTVSPropertyOp13
 70
     1
102
RTVSPropertyOp14
 70
     1
102
RTVSPropertyOp15
 70
     1
102
RTVSPropertyOp16
 70
     1
102
RTVSPropertyOp17
 70
     1
102
RTVSPropertyOp18
 70
     1
102
RTVSPropertyOp19
 70
     1
102
RTVSPropertyOp20
 70
     1
102
RTVSPropertyOp21
 70
     1
102
RTVSPropertyOp22
 70
     1
102
RTVSPropertyOp23
 70
     1
102
RTVSPropertyOp24
 70
     1
102
RTVSPropertyOp25
 70
     1
102
RTVSPropertyOp26
 70
     1
102
RTVSPropertyOp27
 70
     1
102
RTVSPropertyOp28
 70
     1
102
RTVSPropertyOp29
 70
     1
102
RTVSPropertyOp30
 70
     1
102
RTVSPropertyOp31
 70
     1
102
RTVSPropertyOp32
 70
     1
  0
XRECORD
  5
19A
102
{ACAD_REACTORS
330
199
102
}
330
199
100
AcDbXrecord
280
     1
102
RTVSPropertyOp0
 70
     1
102
RTVSPropertyOp1
 70
     1
102
RTVSPropertyOp2
 70
     1
102
RTVSPropertyOp3
 70
     1
102
RTVSPropertyOp4
 70
     1
102
RTVSPropertyOp5
 70
     1
102
RTVSPropertyOp6
 70
     1
102
RTVSPropertyOp7
 70
     1
102
RTVSPropertyOp8
 70
     1
102
RTVSPropertyOp9
 70
     1
102
RTVSPropertyOp10
 70
     1
102
RTVSPropertyOp11
 70
     1
102
RTVSPropertyOp12
 70
     1
102
RTVSPropertyOp13
 70
     1
102
RTVSPropertyOp14
 70
     1
102
RTVSPropertyOp15
 70
     1
102
RTVSPropertyOp16
 70
     1
102
RTVSPropertyOp17
 70
     1
102
RTVSPropertyOp18
 70
     1
102
RTVSPropertyOp19
 70
     1
102
RTVSPropertyOp20
 70
     1
102
RTVSPropertyOp21
 70
     1
102
RTVSPropertyOp22
 70
     1
102
RTVSPropertyOp23
 70
     1
102
RTVSPropertyOp24
 70
     1
102
RTVSPropertyOp25
 70
     1
102
RTVSPropertyOp26
 70
     1
102
RTVSPropertyOp27
 70
     1
102
RTVSPropertyOp28
 70
     1
102
RTVSPropertyOp29
 70
     1
102
RTVSPropertyOp30
 70
     1
102
RTVSPropertyOp31
 70
     1
102
RTVSPropertyOp32
 70
     1
  0
XRECORD
  5
1A2
102
{ACAD_REACTORS
330
1A1
102
}
330
1A1
100
AcDbXrecord
280
     1
102
RTVSPropertyOp0
 70
     1
102
RTVSPropertyOp1
 70
     1
102
RTVSPropertyOp2
 70
     1
102
RTVSPropertyOp3
 70
     1
102
RTVSPropertyOp4
 70
     1
102
RTVSPropertyOp5
 70
     1
102
RTVSPropertyOp6
 70
     1
102
RTVSPropertyOp7
 70
     1
102
RTVSPropertyOp8
 70
     1
102
RTVSPropertyOp9
 70
     1
102
RTVSPropertyOp10
 70
     1
102
RTVSPropertyOp11
 70
     1
102
RTVSPropertyOp12
 70
     1
102
RTVSPropertyOp13
 70
     1
102
RTVSPropertyOp14
 70
     1
102
RTVSPropertyOp15
 70
     1
102
RTVSPropertyOp16
 70
     1
102
RTVSPropertyOp17
 70
     1
102
RTVSPropertyOp18
 70
     1
102
RTVSPropertyOp19
 70
     1
102
RTVSPropertyOp20
 70
     1
102
RTVSPropertyOp21
 70
     1
102
RTVSPropertyOp22
 70
     1
102
RTVSPropertyOp23
 70
     1
102
RTVSPropertyOp24
 70
     1
102
RTVSPropertyOp25
 70
     1
102
RTVSPropertyOp26
 70
     1
102
RTVSPropertyOp27
 70
     1
102
RTVSPropertyOp28
 70
     1
102
RTVSPropertyOp29
 70
     1
102
RTVSPropertyOp30
 70
     1
102
RTVSPropertyOp31
 70
     1
102
RTVSPropertyOp32
 70
     1
  0
XRECORD
  5
196
102
{ACAD_REACTORS
330
195
102
}
330
195
100
AcDbXrecord
280
     1
102
RTVSPropertyOp0
 70
     1
102
RTVSPropertyOp1
 70
     1
102
RTVSPropertyOp2
 70
     1
102
RTVSPropertyOp3
 70
     1
102
RTVSPropertyOp4
 70
     1
102
RTVSPropertyOp5
 70
     1
102
RTVSPropertyOp6
 70
     1
102
RTVSPropertyOp7
 70
     1
102
RTVSPropertyOp8
 70
     1
102
RTVSPropertyOp9
 70
     1
102
RTVSPropertyOp10
 70
     1
102
RTVSPropertyOp11
 70
     1
102
RTVSPropertyOp12
 70
     1
102
RTVSPropertyOp13
 70
     1
102
RTVSPropertyOp14
 70
     1
102
RTVSPropertyOp15
 70
     1
102
RTVSPropertyOp16
 70
     1
102
RTVSPropertyOp17
 70
     1
102
RTVSPropertyOp18
 70
     1
102
RTVSPropertyOp19
 70
     1
102
RTVSPropertyOp20
 70
     1
102
RTVSPropertyOp21
 70
     1
102
RTVSPropertyOp22
 70
     1
102
RTVSPropertyOp23
 70
     1
102
RTVSPropertyOp24
 70
     1
102
RTVSPropertyOp25
 70
     1
102
RTVSPropertyOp26
 70
     1
102
RTVSPropertyOp27
 70
     1
102
RTVSPropertyOp28
 70
     1
102
RTVSPropertyOp29
 70
     1
102
RTVSPropertyOp30
 70
     1
102
RTVSPropertyOp31
 70
     1
102
RTVSPropertyOp32
 70
     1
  0
XRECORD
  5
198
102
{ACAD_REACTORS
330
197
102
}
330
197
100
AcDbXrecord
280
     1
102
RTVSPropertyOp0
 70
     1
102
RTVSPropertyOp1
 70
     1
102
RTVSPropertyOp2
 70
     1
102
RTVSPropertyOp3
 70
     1
102
RTVSPropertyOp4
 70
     1
102
RTVSPropertyOp5
 70
     1
102
RTVSPropertyOp6
 70
     1
102
RTVSPropertyOp7
 70
     1
102
RTVSPropertyOp8
 70
     1
102
RTVSPropertyOp9
 70
     1
102
RTVSPropertyOp10
 70
     1
102
RTVSPropertyOp11
 70
     1
102
RTVSPropertyOp12
 70
     1
102
RTVSPropertyOp13
 70
     1
102
RTVSPropertyOp14
 70
     1
102
RTVSPropertyOp15
 70
     1
102
RTVSPropertyOp16
 70
     1
102
RTVSPropertyOp17
 70
     1
102
RTVSPropertyOp18
 70
     1
102
RTVSPropertyOp19
 70
     1
102
RTVSPropertyOp20
 70
     1
102
RTVSPropertyOp21
 70
     1
102
RTVSPropertyOp22
 70
     1
102
RTVSPropertyOp23
 70
     1
102
RTVSPropertyOp24
 70
     1
102
RTVSPropertyOp25
 70
     1
102
RTVSPropertyOp26
 70
     1
102
RTVSPropertyOp27
 70
     1
102
RTVSPropertyOp28
 70
     1
102
RTVSPropertyOp29
 70
     1
102
RTVSPropertyOp30
 70
     1
102
RTVSPropertyOp31
 70
     1
102
RTVSPropertyOp32
 70
     1
  0
XRECORD
  5
1A0
102
{ACAD_REACTORS
330
19F
102
}
330
19F
100
AcDbXrecord
280
     1
102
RTVSPropertyOp0
 70
     1
102
RTVSPropertyOp1
 70
     1
102
RTVSPropertyOp2
 70
     1
102
RTVSPropertyOp3
 70
     1
102
RTVSPropertyOp4
 70
     1
102
RTVSPropertyOp5
 70
     1
102
RTVSPropertyOp6
 70
     1
102
RTVSPropertyOp7
 70
     1
102
RTVSPropertyOp8
 70
     1
102
RTVSPropertyOp9
 70
     1
102
RTVSPropertyOp10
 70
     1
102
RTVSPropertyOp11
 70
     1
102
RTVSPropertyOp12
 70
     1
102
RTVSPropertyOp13
 70
     1
102
RTVSPropertyOp14
 70
     1
102
RTVSPropertyOp15
 70
     1
102
RTVSPropertyOp16
 70
     1
102
RTVSPropertyOp17
 70
     1
102
RTVSPropertyOp18
 70
     1
102
RTVSPropertyOp19
 70
     1
102
RTVSPropertyOp20
 70
     1
102
RTVSPropertyOp21
 70
     1
102
RTVSPropertyOp22
 70
     1
102
RTVSPropertyOp23
 70
     1
102
RTVSPropertyOp24
 70
     1
102
RTVSPropertyOp25
 70
     1
102
RTVSPropertyOp26
 70
     1
102
RTVSPropertyOp27
 70
     1
102
RTVSPropertyOp28
 70
     1
102
RTVSPropertyOp29
 70
     1
102
RTVSPropertyOp30
 70
     1
102
RTVSPropertyOp31
 70
     1
102
RTVSPropertyOp32
 70
     1
  0
XRECORD
  5
184
102
{ACAD_REACTORS
330
183
102
}
330
183
100
AcDbXrecord
280
     1
102
RTVSPropertyOp0
 70
     1
102
RTVSPropertyOp1
 70
     1
102
RTVSPropertyOp2
 70
     1
102
RTVSPropertyOp3
 70
     1
102
RTVSPropertyOp4
 70
     1
102
RTVSPropertyOp5
 70
     1
102
RTVSPropertyOp6
 70
     1
102
RTVSPropertyOp7
 70
     1
102
RTVSPropertyOp8
 70
     1
102
RTVSPropertyOp9
 70
     1
102
RTVSPropertyOp10
 70
     1
102
RTVSPropertyOp11
 70
     1
102
RTVSPropertyOp12
 70
     1
102
RTVSPropertyOp13
 70
     1
102
RTVSPropertyOp14
 70
     1
102
RTVSPropertyOp15
 70
     1
102
RTVSPropertyOp16
 70
     1
102
RTVSPropertyOp17
 70
     1
102
RTVSPropertyOp18
 70
     1
102
RTVSPropertyOp19
 70
     1
102
RTVSPropertyOp20
 70
     1
102
RTVSPropertyOp21
 70
     1
102
RTVSPropertyOp22
 70
     1
102
RTVSPropertyOp23
 70
     1
102
RTVSPropertyOp24
 70
     1
102
RTVSPropertyOp25
 70
     1
102
RTVSPropertyOp26
 70
     1
102
RTVSPropertyOp27
 70
     1
102
RTVSPropertyOp28
 70
     1
102
RTVSPropertyOp29
 70
     1
102
RTVSPropertyOp30
 70
     1
102
RTVSPropertyOp31
 70
     1
102
RTVSPropertyOp32
 70
     1
  0
XRECORD
  5
186
102
{ACAD_REACTORS
330
185
102
}
330
185
100
AcDbXrecord
280
     1
102
RTVSPropertyOp0
 70
     1
102
RTVSPropertyOp1
 70
     1
102
RTVSPropertyOp2
 70
     1
102
RTVSPropertyOp3
 70
     1
102
RTVSPropertyOp4
 70
     1
102
RTVSPropertyOp5
 70
     1
102
RTVSPropertyOp6
 70
     1
102
RTVSPropertyOp7
 70
     1
102
RTVSPropertyOp8
 70
     1
102
RTVSPropertyOp9
 70
     1
102
RTVSPropertyOp10
 70
     1
102
RTVSPropertyOp11
 70
     1
102
RTVSPropertyOp12
 70
     1
102
RTVSPropertyOp13
 70
     1
102
RTVSPropertyOp14
 70
     1
102
RTVSPropertyOp15
 70
     1
102
RTVSPropertyOp16
 70
     1
102
RTVSPropertyOp17
 70
     1
102
RTVSPropertyOp18
 70
     1
102
RTVSPropertyOp19
 70
     1
102
RTVSPropertyOp20
 70
     1
102
RTVSPropertyOp21
 70
     1
102
RTVSPropertyOp22
 70
     1
102
RTVSPropertyOp23
 70
     1
102
RTVSPropertyOp24
 70
     1
102
RTVSPropertyOp25
 70
     1
102
RTVSPropertyOp26
 70
     1
102
RTVSPropertyOp27
 70
     1
102
RTVSPropertyOp28
 70
     1
102
RTVSPropertyOp29
 70
     1
102
RTVSPropertyOp30
 70
     1
102
RTVSPropertyOp31
 70
     1
102
RTVSPropertyOp32
 70
     1
  0
XRECORD
  5
188
102
{ACAD_REACTORS
330
187
102
}
330
187
100
AcDbXrecord
280
     1
102
RTVSPropertyOp0
 70
     1
102
RTVSPropertyOp1
 70
     1
102
RTVSPropertyOp2
 70
     1
102
RTVSPropertyOp3
 70
     1
102
RTVSPropertyOp4
 70
     1
102
RTVSPropertyOp5
 70
     1
102
RTVSPropertyOp6
 70
     1
102
RTVSPropertyOp7
 70
     1
102
RTVSPropertyOp8
 70
     1
102
RTVSPropertyOp9
 70
     1
102
RTVSPropertyOp10
 70
     1
102
RTVSPropertyOp11
 70
     1
102
RTVSPropertyOp12
 70
     1
102
RTVSPropertyOp13
 70
     1
102
RTVSPropertyOp14
 70
     1
102
RTVSPropertyOp15
 70
     1
102
RTVSPropertyOp16
 70
     1
102
RTVSPropertyOp17
 70
     1
102
RTVSPropertyOp18
 70
     1
102
RTVSPropertyOp19
 70
     1
102
RTVSPropertyOp20
 70
     1
102
RTVSPropertyOp21
 70
     1
102
RTVSPropertyOp22
 70
     1
102
RTVSPropertyOp23
 70
     1
102
RTVSPropertyOp24
 70
     1
102
RTVSPropertyOp25
 70
     1
102
RTVSPropertyOp26
 70
     1
102
RTVSPropertyOp27
 70
     1
102
RTVSPropertyOp28
 70
     1
102
RTVSPropertyOp29
 70
     1
102
RTVSPropertyOp30
 70
     1
102
RTVSPropertyOp31
 70
     1
102
RTVSPropertyOp32
 70
     1
  0
XRECORD
  5
18A
102
{ACAD_REACTORS
330
189
102
}
330
189
100
AcDbXrecord
280
     1
102
RTVSPropertyOp0
 70
     1
102
RTVSPropertyOp1
 70
     1
102
RTVSPropertyOp2
 70
     1
102
RTVSPropertyOp3
 70
     1
102
RTVSPropertyOp4
 70
     1
102
RTVSPropertyOp5
 70
     1
102
RTVSPropertyOp6
 70
     1
102
RTVSPropertyOp7
 70
     1
102
RTVSPropertyOp8
 70
     1
102
RTVSPropertyOp9
 70
     1
102
RTVSPropertyOp10
 70
     1
102
RTVSPropertyOp11
 70
     1
102
RTVSPropertyOp12
 70
     1
102
RTVSPropertyOp13
 70
     1
102
RTVSPropertyOp14
 70
     1
102
RTVSPropertyOp15
 70
     1
102
RTVSPropertyOp16
 70
     1
102
RTVSPropertyOp17
 70
     1
102
RTVSPropertyOp18
 70
     1
102
RTVSPropertyOp19
 70
     1
102
RTVSPropertyOp20
 70
     1
102
RTVSPropertyOp21
 70
     1
102
RTVSPropertyOp22
 70
     1
102
RTVSPropertyOp23
 70
     1
102
RTVSPropertyOp24
 70
     1
102
RTVSPropertyOp25
 70
     1
102
RTVSPropertyOp26
 70
     1
102
RTVSPropertyOp27
 70
     1
102
RTVSPropertyOp28
 70
     1
102
RTVSPropertyOp29
 70
     1
102
RTVSPropertyOp30
 70
     1
102
RTVSPropertyOp31
 70
     1
102
RTVSPropertyOp32
 70
     1
  0
XRECORD
  5
19E
102
{ACAD_REACTORS
330
19D
102
}
330
19D
100
AcDbXrecord
280
     1
102
RTVSPropertyOp0
 70
     1
102
RTVSPropertyOp1
 70
     1
102
RTVSPropertyOp2
 70
     1
102
RTVSPropertyOp3
 70
     1
102
RTVSPropertyOp4
 70
     1
102
RTVSPropertyOp5
 70
     1
102
RTVSPropertyOp6
 70
     1
102
RTVSPropertyOp7
 70
     1
102
RTVSPropertyOp8
 70
     1
102
RTVSPropertyOp9
 70
     1
102
RTVSPropertyOp10
 70
     1
102
RTVSPropertyOp11
 70
     1
102
RTVSPropertyOp12
 70
     1
102
RTVSPropertyOp13
 70
     1
102
RTVSPropertyOp14
 70
     1
102
RTVSPropertyOp15
 70
     1
102
RTVSPropertyOp16
 70
     1
102
RTVSPropertyOp17
 70
     1
102
RTVSPropertyOp18
 70
     1
102
RTVSPropertyOp19
 70
     1
102
RTVSPropertyOp20
 70
     1
102
RTVSPropertyOp21
 70
     1
102
RTVSPropertyOp22
 70
     1
102
RTVSPropertyOp23
 70
     1
102
RTVSPropertyOp24
 70
     1
102
RTVSPropertyOp25
 70
     1
102
RTVSPropertyOp26
 70
     1
102
RTVSPropertyOp27
 70
     1
102
RTVSPropertyOp28
 70
     1
102
RTVSPropertyOp29
 70
     1
102
RTVSPropertyOp30
 70
     1
102
RTVSPropertyOp31
 70
     1
102
RTVSPropertyOp32
 70
     1
  0
XRECORD
  5
194
102
{ACAD_REACTORS
330
193
102
}
330
193
100
AcDbXrecord
280
     1
102
RTVSPropertyOp0
 70
     1
102
RTVSPropertyOp1
 70
     1
102
RTVSPropertyOp2
 70
     1
102
RTVSPropertyOp3
 70
     1
102
RTVSPropertyOp4
 70
     1
102
RTVSPropertyOp5
 70
     1
102
RTVSPropertyOp6
 70
     1
102
RTVSPropertyOp7
 70
     1
102
RTVSPropertyOp8
 70
     1
102
RTVSPropertyOp9
 70
     1
102
RTVSPropertyOp10
 70
     1
102
RTVSPropertyOp11
 70
     1
102
RTVSPropertyOp12
 70
     1
102
RTVSPropertyOp13
 70
     1
102
RTVSPropertyOp14
 70
     1
102
RTVSPropertyOp15
 70
     1
102
RTVSPropertyOp16
 70
     1
102
RTVSPropertyOp17
 70
     1
102
RTVSPropertyOp18
 70
     1
102
RTVSPropertyOp19
 70
     1
102
RTVSPropertyOp20
 70
     1
102
RTVSPropertyOp21
 70
     1
102
RTVSPropertyOp22
 70
     1
102
RTVSPropertyOp23
 70
     1
102
RTVSPropertyOp24
 70
     1
102
RTVSPropertyOp25
 70
     1
102
RTVSPropertyOp26
 70
     1
102
RTVSPropertyOp27
 70
     1
102
RTVSPropertyOp28
 70
     1
102
RTVSPropertyOp29
 70
     1
102
RTVSPropertyOp30
 70
     1
102
RTVSPropertyOp31
 70
     1
102
RTVSPropertyOp32
 70
     1
  0
XRECORD
  5
19C
102
{ACAD_REACTORS
330
19B
102
}
330
19B
100
AcDbXrecord
280
     1
102
RTVSPropertyOp0
 70
     1
102
RTVSPropertyOp1
 70
     1
102
RTVSPropertyOp2
 70
     1
102
RTVSPropertyOp3
 70
     1
102
RTVSPropertyOp4
 70
     1
102
RTVSPropertyOp5
 70
     1
102
RTVSPropertyOp6
 70
     1
102
RTVSPropertyOp7
 70
     1
102
RTVSPropertyOp8
 70
     1
102
RTVSPropertyOp9
 70
     1
102
RTVSPropertyOp10
 70
     1
102
RTVSPropertyOp11
 70
     1
102
RTVSPropertyOp12
 70
     1
102
RTVSPropertyOp13
 70
     1
102
RTVSPropertyOp14
 70
     1
102
RTVSPropertyOp15
 70
     1
102
RTVSPropertyOp16
 70
     1
102
RTVSPropertyOp17
 70
     1
102
RTVSPropertyOp18
 70
     1
102
RTVSPropertyOp19
 70
     1
102
RTVSPropertyOp20
 70
     1
102
RTVSPropertyOp21
 70
     1
102
RTVSPropertyOp22
 70
     1
102
RTVSPropertyOp23
 70
     1
102
RTVSPropertyOp24
 70
     1
102
RTVSPropertyOp25
 70
     1
102
RTVSPropertyOp26
 70
     1
102
RTVSPropertyOp27
 70
     1
102
RTVSPropertyOp28
 70
     1
102
RTVSPropertyOp29
 70
     1
102
RTVSPropertyOp30
 70
     1
102
RTVSPropertyOp31
 70
     1
102
RTVSPropertyOp32
 70
     1
  0
ENDSEC
  0
EOF
