  0
SECTION
  2
HEADER
  9
$ACADVER
  1
AC1015
  9
$ACADMAINTVER
 70
     6
  9
$DWGCODEPAGE
  3
ANSI_1252
  9
$INSBASE
 10
0.0
 20
0.0
 30
0.0
  9
$EXTMIN
 10
-42.00000000000004
 20
0.0
 30
0.0
  9
$EXTMAX
 10
0.0
 20
59.40000000000003
 30
0.0
  9
$LIMMIN
 10
0.0
 20
0.0
  9
$LIMMAX
 10
12.0
 20
9.0
  9
$ORTHOMODE
 70
     0
  9
$REGENMODE
 70
     1
  9
$FILLMODE
 70
     1
  9
$QTEXTMODE
 70
     0
  9
$MIRRTEXT
 70
     1
  9
$LTSCALE
 40
1.0
  9
$ATTMODE
 70
     1
  9
$TEXTSIZE
 40
0.2
  9
$TRACEWID
 40
0.05
  9
$TEXTSTYLE
  7
Standard
  9
$CLAYER
  8
0
  9
$CELTYPE
  6
ByLayer
  9
$CECOLOR
 62
   256
  9
$CELTSCALE
 40
1.0
  9
$DISPSILH
 70
     0
  9
$DIMSCALE
 40
1.0
  9
$DIMASZ
 40
0.18
  9
$DIMEXO
 40
0.0625
  9
$DIMDLI
 40
0.38
  9
$DIMRND
 40
0.0
  9
$DIMDLE
 40
0.0
  9
$DIMEXE
 40
0.18
  9
$DIMTP
 40
0.0
  9
$DIMTM
 40
0.0
  9
$DIMTXT
 40
0.18
  9
$DIMCEN
 40
0.09
  9
$DIMTSZ
 40
0.0
  9
$DIMTOL
 70
     0
  9
$DIMLIM
 70
     0
  9
$DIMTIH
 70
     1
  9
$DIMTOH
 70
     1
  9
$DIMSE1
 70
     0
  9
$DIMSE2
 70
     0
  9
$DIMTAD
 70
     0
  9
$DIMZIN
 70
     0
  9
$DIMBLK
  1

  9
$DIMASO
 70
     1
  9
$DIMSHO
 70
     1
  9
$DIMPOST
  1

  9
$DIMAPOST
  1

  9
$DIMALT
 70
     0
  9
$DIMALTD
 70
     2
  9
$DIMALTF
 40
25.4
  9
$DIMLFAC
 40
1.0
  9
$DIMTOFL
 70
     0
  9
$DIMTVP
 40
0.0
  9
$DIMTIX
 70
     0
  9
$DIMSOXD
 70
     0
  9
$DIMSAH
 70
     0
  9
$DIMBLK1
  1

  9
$DIMBLK2
  1

  9
$DIMSTYLE
  2
Standard
  9
$DIMCLRD
 70
     0
  9
$DIMCLRE
 70
     0
  9
$DIMCLRT
 70
     0
  9
$DIMTFAC
 40
1.0
  9
$DIMGAP
 40
0.09
  9
$DIMJUST
 70
     0
  9
$DIMSD1
 70
     0
  9
$DIMSD2
 70
     0
  9
$DIMTOLJ
 70
     1
  9
$DIMTZIN
 70
     0
  9
$DIMALTZ
 70
     0
  9
$DIMALTTZ
 70
     0
  9
$DIMUPT
 70
     0
  9
$DIMDEC
 70
     4
  9
$DIMTDEC
 70
     4
  9
$DIMALTU
 70
     2
  9
$DIMALTTD
 70
     2
  9
$DIMTXSTY
  7
Standard
  9
$DIMAUNIT
 70
     0
  9
$DIMADEC
 70
     0
  9
$DIMALTRND
 40
0.0
  9
$DIMAZIN
 70
     0
  9
$DIMDSEP
 70
    46
  9
$DIMATFIT
 70
     3
  9
$DIMFRAC
 70
     0
  9
$DIMLDRBLK
  1

  9
$DIMLUNIT
 70
     2
  9
$DIMLWD
 70
    -2
  9
$DIMLWE
 70
    -2
  9
$DIMTMOVE
 70
     0
  9
$LUNITS
 70
     2
  9
$LUPREC
 70
     4
  9
$SKETCHINC
 40
0.1
  9
$FILLETRAD
 40
0.5
  9
$AUNITS
 70
     0
  9
$AUPREC
 70
     0
  9
$MENU
  1
.
  9
$ELEVATION
 40
0.0
  9
$PELEVATION
 40
0.0
  9
$THICKNESS
 40
0.0
  9
$LIMCHECK
 70
     0
  9
$CHAMFERA
 40
0.5
  9
$CHAMFERB
 40
0.5
  9
$CHAMFERC
 40
1.0
  9
$CHAMFERD
 40
0.0
  9
$SKPOLY
 70
     0
  9
$TDCREATE
 40
2456997.488645752
  9
$TDUCREATE
 40
2456997.446979085
  9
$TDUPDATE
 40
2456997.488645926
  9
$TDUUPDATE
 40
2456997.446979259
  9
$TDINDWG
 40
0.0000000116
  9
$TDUSRTIMER
 40
0.0000000116
  9
$USRTIMER
 70
     1
  9
$ANGBASE
 50
0.0
  9
$ANGDIR
 70
     0
  9
$PDMODE
 70
     0
  9
$PDSIZE
 40
0.0
  9
$PLINEWID
 40
0.0
  9
$SPLFRAME
 70
     0
  9
$SPLINETYPE
 70
     6
  9
$SPLINESEGS
 70
     8
  9
$HANDSEED
  5
1C6
  9
$SURFTAB1
 70
     6
  9
$SURFTAB2
 70
     6
  9
$SURFTYPE
 70
     6
  9
$SURFU
 70
     6
  9
$SURFV
 70
     6
  9
$UCSBASE
  2

  9
$UCSNAME
  2

  9
$UCSORG
 10
0.0
 20
0.0
 30
0.0
  9
$UCSXDIR
 10
1.0
 20
0.0
 30
0.0
  9
$UCSYDIR
 10
0.0
 20
1.0
 30
0.0
  9
$UCSORTHOREF
  2

  9
$UCSORTHOVIEW
 70
     0
  9
$UCSORGTOP
 10
0.0
 20
0.0
 30
0.0
  9
$UCSORGBOTTOM
 10
0.0
 20
0.0
 30
0.0
  9
$UCSORGLEFT
 10
0.0
 20
0.0
 30
0.0
  9
$UCSORGRIGHT
 10
0.0
 20
0.0
 30
0.0
  9
$UCSORGFRONT
 10
0.0
 20
0.0
 30
0.0
  9
$UCSORGBACK
 10
0.0
 20
0.0
 30
0.0
  9
$PUCSBASE
  2

  9
$PUCSNAME
  2

  9
$PUCSORG
 10
0.0
 20
0.0
 30
0.0
  9
$PUCSXDIR
 10
1.0
 20
0.0
 30
0.0
  9
$PUCSYDIR
 10
0.0
 20
1.0
 30
0.0
  9
$PUCSORTHOREF
  2

  9
$PUCSORTHOVIEW
 70
     0
  9
$PUCSORGTOP
 10
0.0
 20
0.0
 30
0.0
  9
$PUCSORGBOTTOM
 10
0.0
 20
0.0
 30
0.0
  9
$PUCSORGLEFT
 10
0.0
 20
0.0
 30
0.0
  9
$PUCSORGRIGHT
 10
0.0
 20
0.0
 30
0.0
  9
$PUCSORGFRONT
 10
0.0
 20
0.0
 30
0.0
  9
$PUCSORGBACK
 10
0.0
 20
0.0
 30
0.0
  9
$USERI1
 70
     0
  9
$USERI2
 70
     0
  9
$USERI3
 70
     0
  9
$USERI4
 70
     0
  9
$USERI5
 70
     0
  9
$USERR1
 40
18.1
  9
$USERR2
 40
0.0
  9
$USERR3
 40
0.0
  9
$USERR4
 40
0.0
  9
$USERR5
 40
0.0
  9
$WORLDVIEW
 70
     1
  9
$SHADEDGE
 70
     3
  9
$SHADEDIF
 70
    70
  9
$TILEMODE
 70
     1
  9
$MAXACTVP
 70
    64
  9
$PINSBASE
 10
0.0
 20
0.0
 30
0.0
  9
$PLIMCHECK
 70
     0
  9
$PEXTMIN
 10
1.00000000000000E+20
 20
1.00000000000000E+20
 30
1.00000000000000E+20
  9
$PEXTMAX
 10
-1.00000000000000E+20
 20
-1.00000000000000E+20
 30
-1.00000000000000E+20
  9
$PLIMMIN
 10
0.0
 20
0.0
  9
$PLIMMAX
 10
12.0
 20
9.0
  9
$UNITMODE
 70
     0
  9
$VISRETAIN
 70
     1
  9
$PLINEGEN
 70
     0
  9
$PSLTSCALE
 70
     1
  9
$TREEDEPTH
 70
  3020
  9
$CMLSTYLE
  2
Standard
  9
$CMLJUST
 70
     0
  9
$CMLSCALE
 40
1.0
  9
$PROXYGRAPHICS
 70
     1
  9
$MEASUREMENT
 70
     1
  9
$CELWEIGHT
370
    -1
  9
$ENDCAPS
280
     0
  9
$JOINSTYLE
280
     0
  9
$LWDISPLAY
290
     0
  9
$INSUNITS
 70
     4
  9
$HYPERLINKBASE
  1

  9
$STYLESHEET
  1

  9
$XEDIT
290
     1
  9
$CEPSNTYPE
380
     0
  9
$PSTYLEMODE
290
     1
  9
$FINGERPRINTGUID
  2
{6C6DD34F-FE47-49AD-A495-7C2F5CC79F13}
  9
$VERSIONGUID
  2
{FAEB1C32-E019-11D5-929B-00C0DF256EC4}
  9
$EXTNAMES
290
     1
  9
$PSVPSCALE
 40
0.0
  9
$OLESTARTUP
290
     0
  0
ENDSEC
  0
SECTION
  2
CLASSES
  0
CLASS
  1
ACDBDICTIONARYWDFLT
  2
AcDbDictionaryWithDefault
  3
ObjectDBX Classes
 90
        0
280
     0
281
     0
  0
CLASS
  1
VISUALSTYLE
  2
AcDbVisualStyle
  3
ObjectDBX Classes
 90
     4095
280
     0
281
     0
  0
CLASS
  1
MATERIAL
  2
AcDbMaterial
  3
ObjectDBX Classes
 90
     1153
280
     0
281
     0
  0
CLASS
  1
DICTIONARYVAR
  2
AcDbDictionaryVar
  3
ObjectDBX Classes
 90
        0
280
     0
281
     0
  0
CLASS
  1
ACDBPLACEHOLDER
  2
AcDbPlaceHolder
  3
ObjectDBX Classes
 90
        0
280
     0
281
     0
  0
CLASS
  1
LAYOUT
  2
AcDbLayout
  3
ObjectDBX Classes
 90
        0
280
     0
281
     0
  0
ENDSEC
  0
SECTION
  2
TABLES
  0
TABLE
  2
VPORT
  5
8
330
0
100
AcDbSymbolTable
 70
     1
  0
VPORT
  5
29
330
8
100
AcDbSymbolTableRecord
100
AcDbViewportTableRecord
  2
*Active
 70
     0
 10
0.0
 20
0.0
 11
1.0
 21
1.0
 12
-21.00000000000002
 22
29.70000000000001
 13
0.0
 23
0.0
 14
0.5
 24
0.5
 15
0.5
 25
0.5
 16
0.0
 26
0.0
 36
1.0
 17
0.0
 27
0.0
 37
0.0
 40
65.34000000000003
 41
1.60267857142857
 42
50.0
 43
0.0
 44
0.0
 50
0.0
 51
0.0
 71
     0
 72
   100
 73
     1
 74
     3
 75
     0
 76
     0
 77
     0
 78
     0
281
     0
 65
     1
110
0.0
120
0.0
130
0.0
111
1.0
121
0.0
131
0.0
112
0.0
122
1.0
132
0.0
 79
     0
146
0.0
  0
ENDTAB
  0
TABLE
  2
LTYPE
  5
5
330
0
100
AcDbSymbolTable
 70
     8
  0
LTYPE
  5
14
330
5
100
AcDbSymbolTableRecord
100
AcDbLinetypeTableRecord
  2
ByBlock
 70
     0
  3

 72
    65
 73
     0
 40
0.0
  0
LTYPE
  5
15
330
5
100
AcDbSymbolTableRecord
100
AcDbLinetypeTableRecord
  2
ByLayer
 70
     0
  3

 72
    65
 73
     0
 40
0.0
  0
LTYPE
  5
16
330
5
100
AcDbSymbolTableRecord
100
AcDbLinetypeTableRecord
  2
Continuous
 70
     0
  3
Solid line
 72
    65
 73
     0
 40
0.0
  0
LTYPE
  5
3F
330
5
100
AcDbSymbolTableRecord
100
AcDbLinetypeTableRecord
  2
DASHED
 70
     0
  3
Dashed
 72
    65
 73
     2
 40
15.0
 49
7.0
 74
     0
 49
-8.0
 74
     0
  0
LTYPE
  5
40
330
5
100
AcDbSymbolTableRecord
100
AcDbLinetypeTableRecord
  2
DOTTED
 70
     0
  3
Dotted
 72
    65
 73
     2
 40
1.0
 49
0.0
 74
     0
 49
-1.0
 74
     0
  0
LTYPE
  5
41
330
5
100
AcDbSymbolTableRecord
100
AcDbLinetypeTableRecord
  2
DOT_CENTER
 70
     0
  3
Dot_Center
 72
    65
 73
     4
 40
14.0
 49
12.0
 74
     0
 49
-1.0
 74
     0
 49
0.0
 74
     0
 49
-1.0
 74
     0
  0
LTYPE
  5
42
330
5
100
AcDbSymbolTableRecord
100
AcDbLinetypeTableRecord
  2
LONG_DASHED
 70
     0
  3
Long_Dashed
 72
    65
 73
     2
 40
15.0
 49
10.0
 74
     0
 49
-5.0
 74
     0
  0
LTYPE
  5
43
330
5
100
AcDbSymbolTableRecord
100
AcDbLinetypeTableRecord
  2
DASH_CENTER
 70
     0
  3
Dash_Center
 72
    65
 73
     4
 40
14.0
 49
11.0
 74
     0
 49
-1.0
 74
     0
 49
1.0
 74
     0
 49
-1.0
 74
     0
  0
LTYPE
  5
44
330
5
100
AcDbSymbolTableRecord
100
AcDbLinetypeTableRecord
  2
PHANTOM
 70
     0
  3
Phantom
 72
    65
 73
     6
 40
13.0
 49
10.0
 74
     0
 49
-1.0
 74
     0
 49
0.0
 74
     0
 49
-1.0
 74
     0
 49
0.0
 74
     0
 49
-1.0
 74
     0
  0
LTYPE
  5
45
330
5
100
AcDbSymbolTableRecord
100
AcDbLinetypeTableRecord
  2
CENTER_DASH_DASH
 70
     0
  3
Center_Dash_Dash
 72
    65
 73
     6
 40
14.0
 49
9.0
 74
     0
 49
-1.0
 74
     0
 49
1.0
 74
     0
 49
-1.0
 74
     0
 49
1.0
 74
     0
 49
-1.0
 74
     0
  0
ENDTAB
  0
TABLE
  2
LAYER
  5
2
330
0
100
AcDbSymbolTable
 70
     2
  0
LAYER
  5
10
330
2
100
AcDbSymbolTableRecord
100
AcDbLayerTableRecord
  2
0
 70
     0
 62
     7
  6
Continuous
370
    -3
390
F
  0
LAYER
  5
46
330
2
100
AcDbSymbolTableRecord
100
AcDbLayerTableRecord
  2
1
 70
     0
 62
     7
  6
Continuous
370
    -3
390
F
  0
ENDTAB
  0
TABLE
  2
STYLE
  5
3
330
0
100
AcDbSymbolTable
 70
     4
  0
STYLE
  5
11
330
3
100
AcDbSymbolTableRecord
100
AcDbTextStyleTableRecord
  2
Standard
 70
     0
 40
0.0
 41
1.0
 50
0.0
 71
     0
 42
0.2
  3
txt
  4

  0
STYLE
  5
13F
330
3
100
AcDbSymbolTableRecord
100
AcDbTextStyleTableRecord
  2
CONVERTER_11
 70
     0
 40
0.0
 41
0.95
 50
0.0
 71
     0
 42
0.2
  3
simplex.shx
  4

  0
STYLE
  5
150
330
3
100
AcDbSymbolTableRecord
100
AcDbTextStyleTableRecord
  2
CONVERTER_12
 70
     0
 40
0.0
 41
0.855
 50
0.0
 71
     0
 42
0.2
  3
simplex.shx
  4

  0
STYLE
  5
155
330
3
100
AcDbSymbolTableRecord
100
AcDbTextStyleTableRecord
  2
CONVERTER_13
 70
     0
 40
0.0
 41
1.2
 50
0.0
 71
     0
 42
0.2
  3
ARIAL.TTF
  4

  0
ENDTAB
  0
TABLE
  2
VIEW
  5
6
330
0
100
AcDbSymbolTable
 70
     0
  0
ENDTAB
  0
TABLE
  2
UCS
  5
7
330
0
100
AcDbSymbolTable
 70
     0
  0
ENDTAB
  0
TABLE
  2
APPID
  5
9
330
0
100
AcDbSymbolTable
 70
     1
  0
APPID
  5
12
330
9
100
AcDbSymbolTableRecord
100
AcDbRegAppTableRecord
  2
ACAD
 70
     0
  0
ENDTAB
  0
TABLE
  2
DIMSTYLE
  5
A
330
0
100
AcDbSymbolTable
 70
     5
100
AcDbDimStyleTable
  0
DIMSTYLE
105
27
330
A
100
AcDbSymbolTableRecord
100
AcDbDimStyleTableRecord
  2
Standard
 70
     0
178
     0
340
11
  0
DIMSTYLE
105
16E
102
{ACAD_REACTORS
330
16F
102
}
330
A
100
AcDbSymbolTableRecord
100
AcDbDimStyleTableRecord
  2
ME10_DIM_10
 70
     0
 41
0.6
 42
0.1
 44
0.2
 77
     1
 78
     8
140
0.6
147
0.4
172
     1
173
     1
174
     1
175
     1
176
     2
177
     2
271
     2
178
     4
271
     2
340
13F
  0
DIMSTYLE
105
17B
102
{ACAD_REACTORS
330
17C
102
}
330
A
100
AcDbSymbolTableRecord
100
AcDbDimStyleTableRecord
  2
ME10_DIM_11
 70
     0
  3
ø<>
 41
0.6
 42
0.1
 44
0.2
 77
     1
 78
     8
140
0.6
147
0.4
172
     1
173
     1
174
     1
175
     1
176
     2
177
     2
271
     2
178
     4
271
     2
340
13F
  0
DIMSTYLE
105
187
102
{ACAD_REACTORS
330
188
102
}
330
A
100
AcDbSymbolTableRecord
100
AcDbDimStyleTableRecord
  2
ME10_DIM_12
 70
     0
 41
0.6
 42
0.1
 44
0.2
 77
     1
 78
     8
140
0.6
147
0.4
172
     1
173
     1
174
     1
175
     1
176
     2
177
     2
271
     2
178
     4
271
     2
340
13F
  0
DIMSTYLE
105
193
102
{ACAD_REACTORS
330
194
102
}
330
A
100
AcDbSymbolTableRecord
100
AcDbDimStyleTableRecord
  2
ME10_DIM_13
 70
     0
  3
ø<>
 41
0.6
 42
0.1
 44
0.2
 77
     1
 78
     8
140
0.6
147
0.4
172
     1
173
     1
174
     1
175
     1
176
     2
177
     2
271
     2
178
     4
271
     2
340
13F
  0
ENDTAB
  0
TABLE
  2
BLOCK_RECORD
  5
1
330
0
100
AcDbSymbolTable
 70
     5
  0
BLOCK_RECORD
  5
1F
330
1
100
AcDbSymbolTableRecord
100
AcDbBlockTableRecord
  2
*Model_Space
340
22
  0
BLOCK_RECORD
  5
1B
330
1
100
AcDbSymbolTableRecord
100
AcDbBlockTableRecord
  2
*Paper_Space
340
1E
  0
BLOCK_RECORD
  5
23
330
1
100
AcDbSymbolTableRecord
100
AcDbBlockTableRecord
  2
*Paper_Space0
340
26
  0
BLOCK_RECORD
  5
164
330
1
100
AcDbSymbolTableRecord
100
AcDbBlockTableRecord
  2
*D1
340
0
  0
BLOCK_RECORD
  5
170
330
1
100
AcDbSymbolTableRecord
100
AcDbBlockTableRecord
  2
*D2
340
0
  0
BLOCK_RECORD
  5
17D
330
1
100
AcDbSymbolTableRecord
100
AcDbBlockTableRecord
  2
*D3
340
0
  0
BLOCK_RECORD
  5
189
330
1
100
AcDbSymbolTableRecord
100
AcDbBlockTableRecord
  2
*D4
340
0
  0
ENDTAB
  0
ENDSEC
  0
SECTION
  2
BLOCKS
  0
BLOCK
  5
20
330
1F
100
AcDbEntity
  8
0
100
AcDbBlockBegin
  2
*Model_Space
 70
     0
 10
0.0
 20
0.0
 30
0.0
  3
*Model_Space
  1

  0
ENDBLK
  5
21
330
1F
100
AcDbEntity
  8
0
100
AcDbBlockEnd
  0
BLOCK
  5
1C
330
1B
100
AcDbEntity
 67
     1
  8
0
100
AcDbBlockBegin
  2
*Paper_Space
 70
     0
 10
0.0
 20
0.0
 30
0.0
  3
*Paper_Space
  1

  0
ENDBLK
  5
1D
330
1B
100
AcDbEntity
 67
     1
  8
0
100
AcDbBlockEnd
  0
BLOCK
  5
24
330
23
100
AcDbEntity
  8
0
100
AcDbBlockBegin
  2
*Paper_Space0
 70
     0
 10
0.0
 20
0.0
 30
0.0
  3
*Paper_Space0
  1

  0
ENDBLK
  5
25
330
23
100
AcDbEntity
  8
0
100
AcDbBlockEnd
  0
BLOCK
  5
16C
330
164
100
AcDbEntity
  8
0
100
AcDbBlockBegin
  2
*D1
 70
     1
 10
0.0
 20
0.0
 30
0.0
  3
*D1
  1

  0
LINE
  5
165
330
164
100
AcDbEntity
  8
1
  6
Continuous
 62
     2
100
AcDbLine
 10
-30.37933542428015
 20
42.18331083308707
 30
0.0
 11
-30.37933542428015
 21
35.71331083308706
 31
0.0
  0
LINE
  5
166
330
164
100
AcDbEntity
  8
1
  6
Continuous
 62
     2
100
AcDbLine
 10
-30.37933542428015
 20
34.25331083308705
 30
0.0
 11
-30.37933542428015
 21
27.78331083308704
 31
0.0
  0
LINE
  5
167
330
164
100
AcDbEntity
  8
1
  6
Continuous
 62
     2
100
AcDbLine
 10
-26.24417968040908
 20
42.18331083308707
 30
0.0
 11
-30.57933542428015
 21
42.18331083308707
 31
0.0
  0
LINE
  5
168
330
164
100
AcDbEntity
  8
1
  6
Continuous
 62
     2
100
AcDbLine
 10
-26.32247478663825
 20
27.78331083308704
 30
0.0
 11
-30.57933542428015
 21
27.78331083308704
 31
0.0
  0
SOLID
  5
169
330
164
100
AcDbEntity
  8
1
 62
     2
100
AcDbTrace
 10
-30.30034392572771
 20
41.58331083308707
 30
0.0
 11
-30.45832692283259
 21
41.58331083308707
 31
0.0
 12
-30.37933542428015
 22
42.18331083308707
 32
0.0
 13
-30.37933542428015
 23
42.18331083308707
 33
0.0
  0
SOLID
  5
16A
330
164
100
AcDbEntity
  8
1
 62
     2
100
AcDbTrace
 10
-30.45832692283259
 20
28.38331083308704
 30
0.0
 11
-30.30034392572771
 21
28.38331083308704
 31
0.0
 12
-30.37933542428015
 22
27.78331083308704
 32
0.0
 13
-30.37933542428015
 23
27.78331083308704
 33
0.0
  0
MTEXT
  5
16B
330
164
100
AcDbEntity
  8
1
 62
     4
100
AcDbMText
 10
-31.11433542428015
 20
34.71331083308705
 30
0.0
 40
0.6
 41
0.0
 71
     7
 72
     1
  1
14,4
  7
CONVERTER_11
 11
0.9999999999970619
 21
2.424068405545306E-6
 31
0.0
 73
     1
 44
0.60024009603842
  0
ENDBLK
  5
16D
330
164
100
AcDbEntity
  8
0
100
AcDbBlockEnd
  0
BLOCK
  5
179
330
170
100
AcDbEntity
  8
0
100
AcDbBlockBegin
  2
*D2
 70
     1
 10
0.0
 20
0.0
 30
0.0
  3
*D2
  1

  0
LINE
  5
171
330
170
100
AcDbEntity
  8
1
  6
Continuous
 62
     2
100
AcDbLine
 10
-15.09006881250302
 20
44.3996424271353
 30
0.0
 11
-13.89006881250302
 21
44.3996424271353
 31
0.0
  0
LINE
  5
172
330
170
100
AcDbEntity
  8
1
  6
Continuous
 62
     2
100
AcDbLine
 10
-13.89006881250302
 20
44.3996424271353
 30
0.0
 11
-12.77006881250278
 21
44.3996424271353
 31
0.0
  0
LINE
  5
173
330
170
100
AcDbEntity
  8
1
  6
Continuous
 62
     2
100
AcDbLine
 10
-12.77006881250278
 20
44.3996424271353
 30
0.0
 11
-11.57006881250278
 21
44.3996424271353
 31
0.0
  0
LINE
  5
174
330
170
100
AcDbEntity
  8
1
  6
Continuous
 62
     2
100
AcDbLine
 10
-13.89006881250302
 20
42.13087240892146
 30
0.0
 11
-13.89006881250302
 21
44.5996424271353
 31
0.0
  0
LINE
  5
175
330
170
100
AcDbEntity
  8
1
  6
Continuous
 62
     2
100
AcDbLine
 10
-12.77006881250278
 20
42.13087240892146
 30
0.0
 11
-12.77006881250278
 21
44.5996424271353
 31
0.0
  0
SOLID
  5
176
330
170
100
AcDbEntity
  8
1
 62
     2
100
AcDbTrace
 10
-14.49006881250302
 20
44.32065092858286
 30
0.0
 11
-14.49006881250302
 21
44.47863392568774
 31
0.0
 12
-13.89006881250302
 22
44.3996424271353
 32
0.0
 13
-13.89006881250302
 23
44.3996424271353
 33
0.0
  0
SOLID
  5
177
330
170
100
AcDbEntity
  8
1
 62
     2
100
AcDbTrace
 10
-12.17006881250278
 20
44.47863392568774
 30
0.0
 11
-12.17006881250278
 21
44.32065092858286
 31
0.0
 12
-12.77006881250278
 22
44.3996424271353
 32
0.0
 13
-12.77006881250278
 23
44.3996424271353
 33
0.0
  0
MTEXT
  5
178
330
170
100
AcDbEntity
  8
1
 62
     4
100
AcDbMText
 10
-13.73206881250145
 20
44.79964123449365
 30
0.0
 40
0.6
 41
0.0
 71
     7
 72
     1
  1
\C4;\U+00f8\C4;A
  7
CONVERTER_11
 11
0.9999999999970619
 21
2.424068405545306E-6
 31
0.0
 73
     1
 44
0.60024009603842
  0
ENDBLK
  5
17A
330
170
100
AcDbEntity
  8
0
100
AcDbBlockEnd
  0
BLOCK
  5
185
330
17D
100
AcDbEntity
  8
0
100
AcDbBlockBegin
  2
*D3
 70
     1
 10
0.0
 20
0.0
 30
0.0
  3
*D3
  1

  0
LINE
  5
17E
330
17D
100
AcDbEntity
  8
1
  6
Continuous
 62
     2
100
AcDbLine
 10
-9.48543122037367
 20
42.18331083305728
 30
0.0
 11
-9.48543122037367
 21
40.88331083305723
 31
0.0
  0
LINE
  5
17F
330
17D
100
AcDbEntity
  8
1
  6
Continuous
 62
     2
100
AcDbLine
 10
-9.48543122037367
 20
39.48331083305722
 30
0.0
 11
-9.48543122037367
 21
38.18331083305717
 31
0.0
  0
LINE
  5
180
330
17D
100
AcDbEntity
  8
1
  6
Continuous
 62
     2
100
AcDbLine
 10
-12.40006881250292
 20
42.18331083305728
 30
0.0
 11
-9.28543122037367
 21
42.18331083305728
 31
0.0
  0
LINE
  5
181
330
17D
100
AcDbEntity
  8
1
  6
Continuous
 62
     2
100
AcDbLine
 10
-12.67006881250279
 20
38.18331083305717
 30
0.0
 11
-9.28543122037367
 21
38.18331083305717
 31
0.0
  0
SOLID
  5
182
330
17D
100
AcDbEntity
  8
1
 62
     2
100
AcDbTrace
 10
-9.40643972182123
 20
41.58331083305728
 30
0.0
 11
-9.56442271892611
 21
41.58331083305728
 31
0.0
 12
-9.48543122037367
 22
42.18331083305728
 32
0.0
 13
-9.48543122037367
 23
42.18331083305728
 33
0.0
  0
SOLID
  5
183
330
17D
100
AcDbEntity
  8
1
 62
     2
100
AcDbTrace
 10
-9.56442271892611
 20
38.78331083305717
 30
0.0
 11
-9.40643972182123
 21
38.78331083305717
 31
0.0
 12
-9.48543122037367
 22
38.18331083305717
 32
0.0
 13
-9.48543122037367
 23
38.18331083305717
 33
0.0
  0
MTEXT
  5
184
330
17D
100
AcDbEntity
  8
1
 62
     4
100
AcDbMText
 10
-9.66543122037367
 20
39.88331083305723
 30
0.0
 40
0.6
 41
0.0
 71
     7
 72
     1
  1
4
  7
CONVERTER_11
 11
0.9999999999970619
 21
2.424068405545306E-6
 31
0.0
 73
     1
 44
0.60024009603842
  0
ENDBLK
  5
186
330
17D
100
AcDbEntity
  8
0
100
AcDbBlockEnd
  0
BLOCK
  5
191
330
189
100
AcDbEntity
  8
0
100
AcDbBlockBegin
  2
*D4
 70
     1
 10
0.0
 20
0.0
 30
0.0
  3
*D4
  1

  0
LINE
  5
18A
330
189
100
AcDbEntity
  8
1
  6
Continuous
 62
     2
100
AcDbLine
 10
-26.38917968040897
 20
35.9700719760417
 30
0.0
 11
-24.23917968040899
 21
35.9700719760417
 31
0.0
  0
LINE
  5
18B
330
189
100
AcDbEntity
  8
1
  6
Continuous
 62
     2
100
AcDbLine
 10
-24.23917968040899
 20
35.9700719760417
 30
0.0
 11
-21.1508098627997
 21
35.9700719760417
 31
0.0
  0
LINE
  5
18C
330
189
100
AcDbEntity
  8
1
  6
Continuous
 62
     2
100
AcDbLine
 10
-26.38917968040897
 20
35.88331083308704
 30
0.0
 11
-26.38917968040897
 21
36.1700719760417
 31
0.0
  0
LINE
  5
18D
330
189
100
AcDbEntity
  8
1
  6
Continuous
 62
     2
100
AcDbLine
 10
-24.23917968040899
 20
35.88331083308704
 30
0.0
 11
-24.23917968040899
 21
36.1700719760417
 31
0.0
  0
SOLID
  5
18E
330
189
100
AcDbEntity
  8
1
 62
     2
100
AcDbTrace
 10
-25.78917968040896
 20
36.04906347459414
 30
0.0
 11
-25.78917968040896
 21
35.89108047748926
 31
0.0
 12
-26.38917968040897
 22
35.9700719760417
 32
0.0
 13
-26.38917968040897
 23
35.9700719760417
 33
0.0
  0
SOLID
  5
18F
330
189
100
AcDbEntity
  8
1
 62
     2
100
AcDbTrace
 10
-24.839179680409
 20
35.89108047748926
 30
0.0
 11
-24.839179680409
 21
36.04906347459414
 31
0.0
 12
-24.23917968040899
 22
35.9700719760417
 32
0.0
 13
-24.23917968040899
 23
35.9700719760417
 33
0.0
  0
MTEXT
  5
190
330
189
100
AcDbEntity
  8
1
 62
     4
100
AcDbMText
 10
-23.11280986279825
 20
36.43007078340004
 30
0.0
 40
0.6
 41
0.0
 71
     7
 72
     1
  1
\C4;\U+00f8\C4;2,15
  7
CONVERTER_11
 11
0.9999999999970619
 21
2.424068405545306E-6
 31
0.0
 73
     1
 44
0.60024009603842
  0
ENDBLK
  5
192
330
189
100
AcDbEntity
  8
0
100
AcDbBlockEnd
  0
ENDSEC
  0
SECTION
  2
ENTITIES
  0
LINE
  5
47
330
1F
100
AcDbEntity
  8
1
  6
Continuous
 62
     2
100
AcDbLine
 10
-12.40506881250278
 20
36.28331083308709
 30
0.0
 11
-14.255068812503
 21
36.28331083308709
 31
0.0
  0
LINE
  5
48
330
1F
100
AcDbEntity
  8
1
  6
Continuous
 62
     7
100
AcDbLine
 10
-14.40506881250286
 20
36.13331083308706
 30
0.0
 11
-12.25506881250291
 21
36.13331083308706
 31
0.0
  0
LINE
  5
49
330
1F
100
AcDbEntity
  8
0
  6
Continuous
 62
     7
100
AcDbLine
 10
-14.25506881250291
 20
35.48331083308714
 30
0.0
 11
-12.40506881250288
 21
35.48331083308714
 31
0.0
  0
LINE
  5
4A
330
1F
100
AcDbEntity
  8
0
  6
Continuous
 62
     7
100
AcDbLine
 10
-14.40506881250288
 20
35.78331083308704
 30
0.0
 11
-12.25506881250291
 21
35.78331083308704
 31
0.0
  0
LINE
  5
4B
330
1F
100
AcDbEntity
  8
0
  6
Continuous
 62
     7
100
AcDbLine
 10
-26.38917968040897
 20
37.38331083308709
 30
0.0
 11
-26.38917968040897
 21
37.03331083308706
 31
0.0
  0
LINE
  5
4C
330
1F
100
AcDbEntity
  8
0
  6
Continuous
 62
     7
100
AcDbLine
 10
-26.38917968040897
 20
37.38331083308709
 30
0.0
 11
-26.03917968040906
 21
37.38331083308695
 31
0.0
  0
LINE
  5
4D
330
1F
100
AcDbEntity
  8
0
  6
Continuous
 62
     7
100
AcDbLine
 10
-26.14417968040908
 20
42.18331083308707
 30
0.0
 11
-26.14417968040897
 21
38.18331083308716
 31
0.0
  0
LINE
  5
4E
330
1F
100
AcDbEntity
  8
0
  6
Continuous
 62
     7
100
AcDbLine
 10
-24.38917968040897
 20
35.48331083308714
 30
0.0
 11
-24.38917968040897
 21
32.78331083308704
 31
0.0
  0
LINE
  5
4F
330
1F
100
AcDbEntity
  8
0
  6
Continuous
 62
     7
100
AcDbLine
 10
-24.40588457417977
 20
32.78331083308704
 30
0.0
 11
-24.40588457417977
 21
27.78331083308704
 31
0.0
  0
LINE
  5
50
330
1F
100
AcDbEntity
  8
0
  6
Continuous
 62
     7
100
AcDbLine
 10
-24.40588457417977
 20
32.78331083308704
 30
0.0
 11
-24.38917968040897
 21
32.78331083308704
 31
0.0
  0
LINE
  5
51
330
1F
100
AcDbEntity
  8
0
  6
Continuous
 62
     7
100
AcDbLine
 10
-24.38917968040897
 20
35.48331083308714
 30
0.0
 11
-24.239179680409
 21
35.78331083308704
 31
0.0
  0
LINE
  5
52
330
1F
100
AcDbEntity
  8
0
  6
Continuous
 62
     7
100
AcDbLine
 10
-26.38917968040897
 20
35.78331083308704
 30
0.0
 11
-24.239179680409
 21
35.78331083308704
 31
0.0
  0
LINE
  5
53
330
1F
100
AcDbEntity
  8
0
  6
Continuous
 62
     7
100
AcDbLine
 10
-25.31417968040898
 20
38.18331083308696
 30
0.0
 11
-24.58917968040896
 21
38.18331083308707
 31
0.0
  0
LINE
  5
54
330
1F
100
AcDbEntity
  8
0
  6
Continuous
 62
     7
100
AcDbLine
 10
-24.58917968040896
 20
38.18331083308707
 30
0.0
 11
-24.484179680409
 21
38.18331083308716
 31
0.0
  0
LINE
  5
55
330
1F
100
AcDbEntity
  8
0
  6
Continuous
 62
     7
100
AcDbLine
 10
-24.58917968040896
 20
38.18331083308707
 30
0.0
 11
-24.58917968040896
 21
37.38331083308695
 31
0.0
  0
LINE
  5
56
330
1F
100
AcDbEntity
  8
0
  6
Continuous
 62
     7
100
AcDbLine
 10
-25.31417968040898
 20
37.38331083308695
 30
0.0
 11
-24.58917968040896
 21
37.38331083308695
 31
0.0
  0
LINE
  5
57
330
1F
100
AcDbEntity
  8
0
  6
Continuous
 62
     7
100
AcDbLine
 10
-26.22247478663826
 20
27.78331083308704
 30
0.0
 11
-26.22247478663826
 21
32.78331083308704
 31
0.0
  0
LINE
  5
58
330
1F
100
AcDbEntity
  8
0
  6
Continuous
 62
     7
100
AcDbLine
 10
-24.40588457417977
 20
27.78331083308704
 30
0.0
 11
-26.22247478663826
 21
27.78331083308704
 31
0.0
  0
LINE
  5
59
330
1F
100
AcDbEntity
  8
0
  6
Continuous
 62
     7
100
AcDbLine
 10
-26.239179680409
 20
32.78331083308704
 30
0.0
 11
-26.22247478663826
 21
32.78331083308704
 31
0.0
  0
LINE
  5
5A
330
1F
100
AcDbEntity
  8
0
  6
Continuous
 62
     7
100
AcDbLine
 10
-26.239179680409
 20
35.48331083308714
 30
0.0
 11
-26.239179680409
 21
32.78331083308704
 31
0.0
  0
LINE
  5
5B
330
1F
100
AcDbEntity
  8
0
  6
Continuous
 62
     7
100
AcDbLine
 10
-24.484179680409
 20
42.18331083308707
 30
0.0
 11
-26.14417968040908
 21
42.18331083308707
 31
0.0
  0
LINE
  5
5C
330
1F
100
AcDbEntity
  8
0
  6
Continuous
 62
     7
100
AcDbLine
 10
-24.58917968040896
 20
37.38331083308695
 30
0.0
 11
-24.239179680409
 21
37.38331083308709
 31
0.0
  0
LINE
  5
5D
330
1F
100
AcDbEntity
  8
0
  6
Continuous
 62
     7
100
AcDbLine
 10
-24.239179680409
 20
37.38331083308709
 30
0.0
 11
-24.23917968040905
 21
37.03331083308706
 31
0.0
  0
LINE
  5
5E
330
1F
100
AcDbEntity
  8
0
  6
Continuous
 62
     7
100
AcDbLine
 10
-24.484179680409
 20
42.18331083308707
 30
0.0
 11
-24.484179680409
 21
38.18331083308716
 31
0.0
  0
LINE
  5
5F
330
1F
100
AcDbEntity
  8
0
  6
Continuous
 62
     7
100
AcDbLine
 10
-26.239179680409
 20
35.48331083308714
 30
0.0
 11
-26.38917968040897
 21
35.78331083308704
 31
0.0
  0
LINE
  5
60
330
1F
100
AcDbEntity
  8
0
  6
Continuous
 62
     7
100
AcDbLine
 10
-26.03917968040906
 20
37.38331083308695
 30
0.0
 11
-25.31417968040898
 21
37.38331083308695
 31
0.0
  0
LINE
  5
61
330
1F
100
AcDbEntity
  8
0
  6
Continuous
 62
     7
100
AcDbLine
 10
-26.03917968040906
 20
38.18331083308707
 30
0.0
 11
-25.31417968040898
 21
38.18331083308696
 31
0.0
  0
LINE
  5
62
330
1F
100
AcDbEntity
  8
0
  6
Continuous
 62
     7
100
AcDbLine
 10
-26.14417968040897
 20
38.18331083308716
 30
0.0
 11
-26.03917968040906
 21
38.18331083308707
 31
0.0
  0
LINE
  5
63
330
1F
100
AcDbEntity
  8
0
  6
Continuous
 62
     7
100
AcDbLine
 10
-26.03917968040906
 20
38.18331083308707
 30
0.0
 11
-26.03917968040906
 21
37.38331083308695
 31
0.0
  0
LINE
  5
64
330
1F
100
AcDbEntity
  8
0
  6
Continuous
 62
     7
100
AcDbLine
 10
-26.239179680409
 20
35.48331083308714
 30
0.0
 11
-24.38917968040897
 21
35.48331083308714
 31
0.0
  0
LINE
  5
65
102
{ACAD_REACTORS
330
19A
102
}
330
1F
100
AcDbEntity
  8
0
  6
Continuous
 62
     7
100
AcDbLine
 10
-13.3300688125029
 20
37.86031083305719
 30
0.0
 11
-12.77006881250279
 21
38.18331083305717
 31
0.0
  0
LINE
  5
66
330
1F
100
AcDbEntity
  8
0
  6
Continuous
 62
     7
100
AcDbLine
 10
-13.37737510283395
 20
28.03331083305688
 30
0.0
 11
-13.50506881250291
 21
32.78331083305728
 31
0.0
  0
LINE
  5
67
330
1F
100
AcDbEntity
  8
0
  6
Continuous
 62
     7
100
AcDbLine
 10
-13.37737510283418
 20
27.78331083305728
 30
0.0
 11
-13.37737510283395
 21
28.03331083305688
 31
0.0
  0
LINE
  5
68
102
{ACAD_REACTORS
330
195
102
}
330
1F
100
AcDbEntity
  8
0
  6
Continuous
 62
     7
100
AcDbLine
 10
-12.50006881250292
 20
42.18331083305728
 30
0.0
 11
-12.50006881250286
 21
39.08331083305729
 31
0.0
  0
LINE
  5
69
102
{ACAD_REACTORS
330
195
102
}
330
1F
100
AcDbEntity
  8
0
  6
Continuous
 62
     7
100
AcDbLine
 10
-12.77006881250279
 20
42.03087240892146
 30
0.0
 11
-12.61763038836696
 21
42.18331083305728
 31
0.0
  0
LINE
  5
6A
102
{ACAD_REACTORS
330
195
102
}
330
1F
100
AcDbEntity
  8
0
  6
Continuous
 62
     7
100
AcDbLine
 10
-12.77006881250284
 20
39.08331083305729
 30
0.0
 11
-12.77006881250279
 21
42.03087240892146
 31
0.0
  0
LINE
  5
6B
102
{ACAD_REACTORS
330
195
102
}
330
1F
100
AcDbEntity
  8
0
  6
Continuous
 62
     7
100
AcDbLine
 10
-12.50006881250292
 20
42.18331083305728
 30
0.0
 11
-12.61763038836696
 21
42.18331083305728
 31
0.0
  0
LINE
  5
6C
102
{ACAD_REACTORS
330
19A
102
}
330
1F
100
AcDbEntity
  8
0
  6
Continuous
 62
     7
100
AcDbLine
 10
-12.60506881250288
 20
38.18331083305726
 30
0.0
 11
-12.50006881250292
 21
38.18331083305717
 31
0.0
  0
LINE
  5
6D
330
1F
100
AcDbEntity
  8
0
  6
Continuous
 62
     7
100
AcDbLine
 10
-12.682762522172
 20
27.78331083305728
 30
0.0
 11
-12.5327625221716
 21
27.78331083305728
 31
0.0
  0
LINE
  5
6E
330
1F
100
AcDbEntity
  8
0
  6
Continuous
 62
     7
100
AcDbLine
 10
-14.12737510283418
 20
27.78331083305728
 30
0.0
 11
-13.97737510283375
 21
27.78331083305728
 31
0.0
  0
LINE
  5
6F
330
1F
100
AcDbEntity
  8
0
  6
Continuous
 62
     7
100
AcDbLine
 10
-12.682762522172
 20
27.78331083305728
 30
0.0
 11
-13.28276252217158
 21
27.78331083305728
 31
0.0
  0
LINE
  5
70
330
1F
100
AcDbEntity
  8
0
  6
Continuous
 62
     7
100
AcDbLine
 10
-13.28276252217158
 20
28.03331083305697
 30
0.0
 11
-13.28276252217158
 21
27.78331083305728
 31
0.0
  0
LINE
  5
71
330
1F
100
AcDbEntity
  8
0
  6
Continuous
 62
     7
100
AcDbLine
 10
-14.25506881250291
 20
35.48331083305727
 30
0.0
 11
-14.25506881250291
 21
32.78331083305728
 31
0.0
  0
LINE
  5
72
330
1F
100
AcDbEntity
  8
0
  6
Continuous
 62
     7
100
AcDbLine
 10
-13.37737510283418
 20
27.78331083305728
 30
0.0
 11
-13.97737510283375
 21
27.78331083305728
 31
0.0
  0
LINE
  5
73
330
1F
100
AcDbEntity
  8
0
  6
Continuous
 62
     7
100
AcDbLine
 10
-12.61763038836696
 20
42.18331083305728
 30
0.0
 11
-14.04250723663861
 21
42.18331083305709
 31
0.0
  0
LINE
  5
74
102
{ACAD_REACTORS
330
19A
102
}
330
1F
100
AcDbEntity
  8
0
  6
Continuous
 62
     7
100
AcDbLine
 10
-13.3300688125029
 20
37.86031083305719
 30
0.0
 11
-13.89006881250302
 21
38.18331083305717
 31
0.0
  0
LINE
  5
75
330
1F
100
AcDbEntity
  8
0
  6
Continuous
 62
     7
100
AcDbLine
 10
-12.77006881250279
 20
42.03087240892146
 30
0.0
 11
-13.89006881250302
 21
42.03087240892146
 31
0.0
  0
LINE
  5
76
330
1F
100
AcDbEntity
  8
0
  6
Continuous
 62
     7
100
AcDbLine
 10
-12.77006881250279
 20
38.18331083305717
 30
0.0
 11
-13.89006881250302
 21
38.18331083305717
 31
0.0
  0
LINE
  5
77
102
{ACAD_REACTORS
330
19A
102
}
330
1F
100
AcDbEntity
  8
0
  6
Continuous
 62
     7
100
AcDbLine
 10
-14.16006881250289
 20
42.18331083305728
 30
0.0
 11
-14.16006881250289
 21
38.18331083305726
 31
0.0
  0
LINE
  5
78
102
{ACAD_REACTORS
330
19A
102
}
330
1F
100
AcDbEntity
  8
0
  6
Continuous
 62
     7
100
AcDbLine
 10
-13.89006881250302
 20
42.03087240892146
 30
0.0
 11
-14.04250723663861
 21
42.18331083305709
 31
0.0
  0
LINE
  5
79
102
{ACAD_REACTORS
330
19A
102
}
330
1F
100
AcDbEntity
  8
0
  6
Continuous
 62
     7
100
AcDbLine
 10
-13.89006881250302
 20
38.18331083305717
 30
0.0
 11
-13.89006881250302
 21
42.03087240892146
 31
0.0
  0
LINE
  5
7A
102
{ACAD_REACTORS
330
19A
102
}
330
1F
100
AcDbEntity
  8
0
  6
Continuous
 62
     7
100
AcDbLine
 10
-14.04250723663861
 20
42.18331083305709
 30
0.0
 11
-14.16006881250289
 21
42.18331083305728
 31
0.0
  0
LINE
  5
7B
102
{ACAD_REACTORS
330
19A
102
}
330
1F
100
AcDbEntity
  8
0
  6
Continuous
 62
     7
100
AcDbLine
 10
-14.16006881250289
 20
38.18331083305726
 30
0.0
 11
-14.05506881250298
 21
38.18331083305726
 31
0.0
  0
LINE
  5
7C
102
{ACAD_REACTORS
330
19A
102
}
330
1F
100
AcDbEntity
  8
0
  6
Continuous
 62
     7
100
AcDbLine
 10
-14.05506881250298
 20
38.18331083305726
 30
0.0
 11
-14.05506881250298
 21
37.38331083305719
 31
0.0
  0
LINE
  5
7D
102
{ACAD_REACTORS
330
19A
102
}
330
1F
100
AcDbEntity
  8
0
  6
Continuous
 62
     7
100
AcDbLine
 10
-14.05506881250298
 20
37.38331083305719
 30
0.0
 11
-14.405068812503
 21
37.38331083305719
 31
0.0
  0
LINE
  5
7E
330
1F
100
AcDbEntity
  8
0
  6
Continuous
 62
     7
100
AcDbLine
 10
-14.40506881250289
 20
35.9741493378862
 30
0.0
 11
-14.40506881250289
 21
35.78331083305728
 31
0.0
  0
LINE
  5
7F
330
1F
100
AcDbEntity
  8
0
  6
Continuous
 62
     7
100
AcDbLine
 10
-13.28276252217158
 20
28.03331083305697
 30
0.0
 11
-13.15506881250289
 21
32.78331083305728
 31
0.0
  0
LINE
  5
80
330
1F
100
AcDbEntity
  8
0
  6
Continuous
 62
     7
100
AcDbLine
 10
-13.50506881250291
 20
32.78331083305728
 30
0.0
 11
-13.15506881250289
 21
32.78331083305728
 31
0.0
  0
LINE
  5
81
330
1F
100
AcDbEntity
  8
0
  6
Continuous
 62
     7
100
AcDbLine
 10
-12.40506881250289
 20
35.48331083305727
 30
0.0
 11
-12.40506881250289
 21
32.78331083305728
 31
0.0
  0
LINE
  5
82
102
{ACAD_REACTORS
330
19A
102
}
330
1F
100
AcDbEntity
  8
0
  6
Continuous
 62
     7
100
AcDbLine
 10
-12.25506881250291
 20
37.38331083305719
 30
0.0
 11
-12.60506881250288
 21
37.38331083305719
 31
0.0
  0
LINE
  5
83
102
{ACAD_REACTORS
330
195
102
}
330
1F
100
AcDbEntity
  8
0
  6
Continuous
 62
     7
100
AcDbLine
 10
-12.50006881250286
 20
39.08331083305729
 30
0.0
 11
-12.77006881250284
 21
39.08331083305729
 31
0.0
  0
LINE
  5
84
102
{ACAD_REACTORS
330
19A
102
}
330
1F
100
AcDbEntity
  8
1
  6
Continuous
 62
     7
100
AcDbLine
 10
-12.77006881250284
 20
38.48327748255876
 30
0.0
 11
-12.77006881250279
 21
38.18331083305717
 31
0.0
  0
LINE
  5
85
102
{ACAD_REACTORS
330
19A
102
}
330
1F
100
AcDbEntity
  8
1
  6
Continuous
 62
     7
100
AcDbLine
 10
-12.50006881250286
 20
38.48327748255876
 30
0.0
 11
-12.50006881250292
 21
38.18331083305717
 31
0.0
  0
LINE
  5
86
102
{ACAD_REACTORS
330
19A
102
}
330
1F
100
AcDbEntity
  8
1
  6
Continuous
 62
     7
100
AcDbLine
 10
-12.50006881250286
 20
38.48327748255876
 30
0.0
 11
-12.77006881250284
 21
38.48327748255876
 31
0.0
  0
LINE
  5
87
330
1F
100
AcDbEntity
  8
1
  6
Continuous
 62
     7
100
AcDbLine
 10
-26.38917968040897
 20
36.13331083308706
 30
0.0
 11
-26.23917968040911
 21
36.28331083308709
 31
0.0
  0
LINE
  5
88
330
1F
100
AcDbEntity
  8
1
  6
Continuous
 62
     7
100
AcDbLine
 10
-26.23917968040911
 20
36.28331083308709
 30
0.0
 11
-26.38917968040897
 21
36.43331083308707
 31
0.0
  0
LINE
  5
89
330
1F
100
AcDbEntity
  8
1
  6
Continuous
 62
     7
100
AcDbLine
 10
-26.38917968040897
 20
36.73331083308708
 30
0.0
 11
-26.23917968040911
 21
36.88331083308706
 31
0.0
  0
LINE
  5
8A
330
1F
100
AcDbEntity
  8
1
  6
Continuous
 62
     7
100
AcDbLine
 10
-26.23917968040911
 20
36.88331083308706
 30
0.0
 11
-26.38917968040897
 21
37.03331083308706
 31
0.0
  0
LINE
  5
8B
330
1F
100
AcDbEntity
  8
1
  6
Continuous
 62
     7
100
AcDbLine
 10
-26.38917968040897
 20
37.03331083308706
 30
0.0
 11
-24.23917968040905
 21
37.03331083308706
 31
0.0
  0
LINE
  5
8C
330
1F
100
AcDbEntity
  8
1
  6
Continuous
 62
     7
100
AcDbLine
 10
-26.38917968040897
 20
36.73331083308708
 30
0.0
 11
-24.23917968040905
 21
36.73331083308708
 31
0.0
  0
LINE
  5
8D
330
1F
100
AcDbEntity
  8
1
  6
Continuous
 62
     7
100
AcDbLine
 10
-26.38917968040897
 20
36.43331083308707
 30
0.0
 11
-24.23917968040905
 21
36.43331083308707
 31
0.0
  0
LINE
  5
8E
330
1F
100
AcDbEntity
  8
1
  6
Continuous
 62
     7
100
AcDbLine
 10
-26.38917968040897
 20
36.13331083308706
 30
0.0
 11
-24.23917968040905
 21
36.13331083308706
 31
0.0
  0
LINE
  5
8F
330
1F
100
AcDbEntity
  8
1
  6
Continuous
 62
     7
100
AcDbLine
 10
-24.38917968040892
 20
36.28331083308709
 30
0.0
 11
-24.23917968040905
 21
36.13331083308706
 31
0.0
  0
LINE
  5
90
330
1F
100
AcDbEntity
  8
1
  6
Continuous
 62
     7
100
AcDbLine
 10
-24.23917968040905
 20
36.43331083308707
 30
0.0
 11
-24.38917968040892
 21
36.28331083308709
 31
0.0
  0
LINE
  5
91
330
1F
100
AcDbEntity
  8
1
  6
Continuous
 62
     7
100
AcDbLine
 10
-24.38917968040892
 20
36.88331083308706
 30
0.0
 11
-24.23917968040905
 21
36.73331083308708
 31
0.0
  0
LINE
  5
92
330
1F
100
AcDbEntity
  8
1
  6
Continuous
 62
     7
100
AcDbLine
 10
-24.23917968040905
 20
37.03331083308706
 30
0.0
 11
-24.38917968040892
 21
36.88331083308706
 31
0.0
  0
LINE
  5
93
330
1F
100
AcDbEntity
  8
1
  6
Continuous
 62
     2
100
AcDbLine
 10
-24.38917968040892
 20
36.88331083308706
 30
0.0
 11
-26.23917968040911
 21
36.88331083308706
 31
0.0
  0
LINE
  5
94
330
1F
100
AcDbEntity
  8
1
  6
Continuous
 62
     2
100
AcDbLine
 10
-24.38917968040892
 20
36.28331083308709
 30
0.0
 11
-26.23917968040911
 21
36.28331083308709
 31
0.0
  0
LINE
  5
95
330
1F
100
AcDbEntity
  8
0
  6
Continuous
 62
     7
100
AcDbLine
 10
-26.38917968040897
 20
36.13331083308706
 30
0.0
 11
-26.38917968040897
 21
35.78331083308704
 31
0.0
  0
LINE
  5
96
330
1F
100
AcDbEntity
  8
0
  6
Continuous
 62
     7
100
AcDbLine
 10
-26.38917968040897
 20
36.73331083308708
 30
0.0
 11
-26.38917968040897
 21
36.43331083308707
 31
0.0
  0
LINE
  5
97
330
1F
100
AcDbEntity
  8
0
  6
Continuous
 62
     7
100
AcDbLine
 10
-24.23917968040905
 20
36.73331083308708
 30
0.0
 11
-24.23917968040905
 21
36.43331083308707
 31
0.0
  0
LINE
  5
98
330
1F
100
AcDbEntity
  8
0
  6
Continuous
 62
     7
100
AcDbLine
 10
-24.23917968040905
 20
36.13331083308706
 30
0.0
 11
-24.239179680409
 21
35.78331083308704
 31
0.0
  0
LINE
  5
99
330
1F
100
AcDbEntity
  8
1
  6
Continuous
 62
     7
100
AcDbLine
 10
-12.25506881250291
 20
36.43331083308707
 30
0.0
 11
-12.40506881250278
 21
36.28331083308709
 31
0.0
  0
LINE
  5
9A
330
1F
100
AcDbEntity
  8
1
  6
Continuous
 62
     7
100
AcDbLine
 10
-12.40506881250278
 20
36.28331083308709
 30
0.0
 11
-12.25506881250291
 21
36.13331083308706
 31
0.0
  0
LINE
  5
9B
102
{ACAD_REACTORS
330
19A
102
}
330
1F
100
AcDbEntity
  8
1
  6
Continuous
 62
     7
100
AcDbLine
 10
-12.25506881250291
 20
37.03331083308706
 30
0.0
 11
-12.40506881250278
 21
36.88331083308706
 31
0.0
  0
LINE
  5
9C
102
{ACAD_REACTORS
330
19A
102
}
330
1F
100
AcDbEntity
  8
1
  6
Continuous
 62
     7
100
AcDbLine
 10
-14.255068812503
 20
36.88331083308706
 30
0.0
 11
-14.40506881250286
 21
37.03331083308706
 31
0.0
  0
LINE
  5
9D
102
{ACAD_REACTORS
330
19A
102
}
330
1F
100
AcDbEntity
  8
1
  6
Continuous
 62
     7
100
AcDbLine
 10
-14.40506881250286
 20
36.73331083308708
 30
0.0
 11
-14.255068812503
 21
36.88331083308706
 31
0.0
  0
LINE
  5
9E
330
1F
100
AcDbEntity
  8
1
  6
Continuous
 62
     7
100
AcDbLine
 10
-14.255068812503
 20
36.28331083308709
 30
0.0
 11
-14.40506881250286
 21
36.43331083308707
 31
0.0
  0
LINE
  5
9F
330
1F
100
AcDbEntity
  8
1
  6
Continuous
 62
     7
100
AcDbLine
 10
-14.40506881250286
 20
36.13331083308706
 30
0.0
 11
-14.255068812503
 21
36.28331083308709
 31
0.0
  0
LINE
  5
A0
102
{ACAD_REACTORS
330
19A
102
}
330
1F
100
AcDbEntity
  8
0
  6
Continuous
 62
     7
100
AcDbLine
 10
-12.25506881250291
 20
36.73331083308708
 30
0.0
 11
-12.25506881250291
 21
36.5814724666805
 31
0.0
  0
LINE
  5
A1
102
{ACAD_REACTORS
330
19A
102
}
330
1F
100
AcDbEntity
  8
0
  6
Continuous
 62
     7
100
AcDbLine
 10
-12.25506881250291
 20
37.38331083305719
 30
0.0
 11
-12.25506881250291
 21
37.03331083308706
 31
0.0
  0
LINE
  5
A2
102
{ACAD_REACTORS
330
19A
102
}
330
1F
100
AcDbEntity
  8
0
  6
Continuous
 62
     7
100
AcDbLine
 10
-14.405068812503
 20
37.38331083305719
 30
0.0
 11
-14.40506881250286
 21
37.03331083308706
 31
0.0
  0
LINE
  5
A3
102
{ACAD_REACTORS
330
19A
102
}
330
1F
100
AcDbEntity
  8
0
  6
Continuous
 62
     7
100
AcDbLine
 10
-14.40506881250286
 20
36.73331083308708
 30
0.0
 11
-14.40506881250286
 21
36.5433594072719
 31
0.0
  0
LINE
  5
A4
330
1F
100
AcDbEntity
  8
0
  6
Continuous
 62
     7
100
AcDbLine
 10
-14.25506881250291
 20
35.48331083305727
 30
0.0
 11
-14.40506881250289
 21
35.78331083305728
 31
0.0
  0
LINE
  5
A5
330
1F
100
AcDbEntity
  8
0
  6
Continuous
 62
     7
100
AcDbLine
 10
-12.40506881250289
 20
35.48331083305727
 30
0.0
 11
-12.25506881250291
 21
35.78331083305728
 31
0.0
  0
LINE
  5
A6
102
{ACAD_REACTORS
330
19A
102
}
330
1F
100
AcDbEntity
  8
1
  6
Continuous
 62
     7
100
AcDbLine
 10
-12.40506881250278
 20
36.88331083308706
 30
0.0
 11
-12.25506881250291
 21
36.73331083308708
 31
0.0
  0
LINE
  5
A7
330
1F
100
AcDbEntity
  8
0
  6
Continuous
 62
     7
100
AcDbLine
 10
-14.40506881250286
 20
36.13331083308706
 30
0.0
 11
-14.40506881250289
 21
35.9741493378862
 31
0.0
  0
LINE
  5
A8
330
1F
100
AcDbEntity
  8
0
  6
Continuous
 62
     7
100
AcDbLine
 10
-12.25506881250291
 20
36.13331083308706
 30
0.0
 11
-12.25506881250291
 21
35.78331083305728
 31
0.0
  0
LINE
  5
A9
102
{ACAD_REACTORS
330
19A
102
}
330
1F
100
AcDbEntity
  8
0
  6
Continuous
 62
     7
100
AcDbLine
 10
-12.60506881250288
 20
38.18331083305726
 30
0.0
 11
-12.60506881250288
 21
37.38331083305719
 31
0.0
  0
LINE
  5
AA
330
1F
100
AcDbEntity
  8
0
  6
Continuous
 62
     7
100
AcDbLine
 10
-12.40506881250289
 20
32.78331083305728
 30
0.0
 11
-12.5327625221716
 21
27.78331083305728
 31
0.0
  0
LINE
  5
AB
330
1F
100
AcDbEntity
  8
0
  6
Continuous
 62
     7
100
AcDbLine
 10
-14.25506881250291
 20
32.78331083305728
 30
0.0
 11
-14.12737510283418
 21
27.78331083305728
 31
0.0
  0
LINE
  5
AC
330
1F
100
AcDbEntity
  8
1
  6
Continuous
 62
     7
100
AcDbLine
 10
-7.79999999999974
 20
13.23575856997963
 30
0.0
 11
-31.00000000000035
 21
13.23575856997963
 31
0.0
  0
LINE
  5
AD
330
1F
100
AcDbEntity
  8
1
  6
Continuous
 62
     7
100
AcDbLine
 10
-11.39999999999985
 20
15.7957585699796
 30
0.0
 11
-31.00000000000032
 21
15.7957585699796
 31
0.0
  0
LINE
  5
AE
330
1F
100
AcDbEntity
  8
1
  6
Continuous
 62
     7
100
AcDbLine
 10
-31.00000000000032
 20
17.07575856997962
 30
0.0
 11
-7.79999999999977
 21
17.07575856997962
 31
0.0
  0
LINE
  5
AF
330
1F
100
AcDbEntity
  8
1
  6
Continuous
 62
     7
100
AcDbLine
 10
-31.00000000000035
 20
14.51575856997958
 30
0.0
 11
-11.39999999999985
 21
14.51575856997962
 31
0.0
  0
LINE
  5
B0
330
1F
100
AcDbEntity
  8
1
  6
Continuous
 62
     7
100
AcDbLine
 10
-31.00000000000026
 20
19.47575856997961
 30
0.0
 11
-7.79999999999974
 21
19.47575856997961
 31
0.0
  0
LINE
  5
B1
330
1F
100
AcDbEntity
  8
1
  6
Continuous
 62
     7
100
AcDbLine
 10
-25.8000000000002
 20
19.47575856997961
 30
0.0
 11
-25.8000000000002
 21
13.23575856997963
 31
0.0
  0
LINE
  5
B2
330
1F
100
AcDbEntity
  8
1
  6
Continuous
 62
     7
100
AcDbLine
 10
-23.0000000000001
 20
19.47575856997961
 30
0.0
 11
-23.0000000000001
 21
13.23575856997963
 31
0.0
  0
LINE
  5
B3
330
1F
100
AcDbEntity
  8
1
  6
Continuous
 62
     7
100
AcDbLine
 10
-19.40000000000002
 20
18.27575856997961
 30
0.0
 11
-19.40000000000002
 21
13.23575856997963
 31
0.0
  0
LINE
  5
B4
330
1F
100
AcDbEntity
  8
1
  6
Continuous
 62
     7
100
AcDbLine
 10
-11.39999999999985
 20
19.47575856997961
 30
0.0
 11
-11.39999999999985
 21
13.23575856997963
 31
0.0
  0
LINE
  5
B5
330
1F
100
AcDbEntity
  8
1
  6
Continuous
 62
     7
100
AcDbLine
 10
-7.79999999999974
 20
19.47575856997961
 30
0.0
 11
-7.79999999999974
 21
13.23575856997963
 31
0.0
  0
LINE
  5
B6
330
1F
100
AcDbEntity
  8
1
  6
Continuous
 62
     7
100
AcDbLine
 10
-15.79999999999994
 20
19.47575856997961
 30
0.0
 11
-15.79999999999994
 21
13.23575856997963
 31
0.0
  0
LINE
  5
B7
330
1F
100
AcDbEntity
  8
1
  6
Continuous
 62
     7
100
AcDbLine
 10
-31.00000000000026
 20
19.47575856997961
 30
0.0
 11
-31.00000000000035
 21
13.23575856997963
 31
0.0
  0
LINE
  5
B8
330
1F
100
AcDbEntity
  8
1
  6
Continuous
 62
     7
100
AcDbLine
 10
-37.80000000000001
 20
3.99999999999999
 30
0.0
 11
-37.80000000000001
 21
0.99999999999998
 31
0.0
  0
LINE
  5
B9
330
1F
100
AcDbEntity
  8
1
  6
Continuous
 62
     7
100
AcDbLine
 10
-9.8
 20
3.99999999999999
 30
0.0
 11
-9.8
 21
0.99999999999999
 31
0.0
  0
LINE
  5
BA
330
1F
100
AcDbEntity
  8
1
  6
Continuous
 62
     7
100
AcDbLine
 10
-6.32947972450293
 20
3.99999999999999
 30
0.0
 11
-6.32947972450293
 21
0.99999999999999
 31
0.0
  0
LINE
  5
BB
330
1F
100
AcDbEntity
  8
1
  6
Continuous
 62
     7
100
AcDbLine
 10
-31.80000000000001
 20
3.99999999999999
 30
0.0
 11
-31.80000000000001
 21
0.99999999999999
 31
0.0
  0
LINE
  5
BC
330
1F
100
AcDbEntity
  8
1
  6
Continuous
 62
     7
100
AcDbLine
 10
-37.80000000000001
 20
2.49999999999999
 30
0.0
 11
-31.80000000000001
 21
2.49999999999999
 31
0.0
  0
LINE
  5
BD
330
1F
100
AcDbEntity
  8
1
  6
Continuous
 62
     7
100
AcDbLine
 10
-42.00000000000004
 20
29.69999999999995
 30
0.0
 11
-39.00000000000004
 21
29.69999999999995
 31
0.0
  0
LINE
  5
BE
330
1F
100
AcDbEntity
  8
1
  6
Continuous
 62
     7
100
AcDbLine
 10
0.0
 20
0.0
 30
0.0
 11
0.0
 21
59.40000000000003
 31
0.0
  0
LINE
  5
BF
330
1F
100
AcDbEntity
  8
1
  6
Continuous
 62
     7
100
AcDbLine
 10
-42.00000000000004
 20
0.0
 30
0.0
 11
0.0
 21
0.0
 31
0.0
  0
LINE
  5
C0
330
1F
100
AcDbEntity
  8
1
  6
Continuous
 62
     7
100
AcDbLine
 10
-42.00000000000004
 20
59.40000000000003
 30
0.0
 11
-42.00000000000004
 21
0.0
 31
0.0
  0
LINE
  5
C1
330
1F
100
AcDbEntity
  8
1
  6
Continuous
 62
     7
100
AcDbLine
 10
0.0
 20
59.40000000000003
 30
0.0
 11
-42.00000000000004
 21
59.40000000000003
 31
0.0
  0
LINE
  5
C2
330
1F
100
AcDbEntity
  8
1
  6
Continuous
 62
     7
100
AcDbLine
 10
-1.0
 20
0.99999999999998
 30
0.0
 11
-1.0
 21
58.40000000000003
 31
0.0
  0
LINE
  5
C3
330
1F
100
AcDbEntity
  8
1
  6
Continuous
 62
     7
100
AcDbLine
 10
-1.0
 20
58.40000000000003
 30
0.0
 11
-37.80000000000001
 21
58.40000000000003
 31
0.0
  0
LINE
  5
C4
330
1F
100
AcDbEntity
  8
1
  6
Continuous
 62
     7
100
AcDbLine
 10
-37.80000000000001
 20
58.40000000000003
 30
0.0
 11
-37.80000000000001
 21
0.99999999999998
 31
0.0
  0
LINE
  5
C5
102
{ACAD_REACTORS
330
199
102
}
330
1F
100
AcDbEntity
  8
1
  6
Continuous
 62
     7
100
AcDbLine
 10
-3.1980731955848
 20
2.01549996796653
 30
0.0
 11
-3.1980731955848
 21
2.98450003203347
 31
0.0
  0
LINE
  5
C6
102
{ACAD_REACTORS
330
196
102
}
330
1F
100
AcDbEntity
  8
1
  6
Continuous
 62
     7
100
AcDbLine
 10
-3.46473986225146
 20
2.49999999999999
 30
0.0
 11
-3.46473986225146
 21
2.84641016151377
 31
0.0
  0
LINE
  5
C7
102
{ACAD_REACTORS
330
196
102
}
330
1F
100
AcDbEntity
  8
1
  6
Continuous
 62
     7
100
AcDbLine
 10
-3.46473986225146
 20
2.84641016151377
 30
0.0
 11
-3.63587234879199
 21
2.55
 31
0.0
  0
LINE
  5
C8
102
{ACAD_REACTORS
330
196
102
}
330
1F
100
AcDbEntity
  8
1
  6
Continuous
 62
     7
100
AcDbLine
 10
-3.69360737571097
 20
2.55
 30
0.0
 11
-3.86473986225147
 21
2.84641016151377
 31
0.0
  0
LINE
  5
C9
102
{ACAD_REACTORS
330
196
102
}
330
1F
100
AcDbEntity
  8
1
  6
Continuous
 62
     7
100
AcDbLine
 10
-3.86473986225147
 20
2.84641016151377
 30
0.0
 11
-3.86473986225147
 21
2.49999999999999
 31
0.0
  0
LINE
  5
CA
330
1F
100
AcDbEntity
  8
1
  6
Continuous
 62
     7
100
AcDbLine
 10
-5.34802691727978
 20
2.52887285286827
 30
0.0
 11
-3.66473986225147
 21
3.49999999999999
 31
0.0
  0
LINE
  5
CB
330
1F
100
AcDbEntity
  8
1
  6
Continuous
 62
     7
100
AcDbLine
 10
-3.66473986225147
 20
3.49999999999999
 30
0.0
 11
-1.98145280722318
 21
2.52887285286827
 31
0.0
  0
LINE
  5
CC
330
1F
100
AcDbEntity
  8
1
  6
Continuous
 62
     7
100
AcDbLine
 10
-1.98145280722318
 20
2.4711271471317
 30
0.0
 11
-3.66473986225147
 21
1.49999999999999
 31
0.0
  0
LINE
  5
CD
330
1F
100
AcDbEntity
  8
1
  6
Continuous
 62
     7
100
AcDbLine
 10
-3.66473986225147
 20
1.49999999999999
 30
0.0
 11
-5.34802691727978
 21
2.4711271471317
 31
0.0
  0
LINE
  5
CE
102
{ACAD_REACTORS
330
196
102
}
330
1F
100
AcDbEntity
  8
1
  6
Continuous
 62
     7
100
AcDbLine
 10
-3.99807319558481
 20
2.49999999999999
 30
0.0
 11
-3.99807319558481
 21
3.14624346240691
 31
0.0
  0
LINE
  5
CF
102
{ACAD_REACTORS
330
196
102
}
330
1F
100
AcDbEntity
  8
1
  6
Continuous
 62
     7
100
AcDbLine
 10
-3.89918645886012
 20
3.17274008365445
 30
0.0
 11
-3.66473986225147
 21
2.76666666666664
 31
0.0
  0
LINE
  5
D0
102
{ACAD_REACTORS
330
196
102
}
330
1F
100
AcDbEntity
  8
1
  6
Continuous
 62
     7
100
AcDbLine
 10
-3.99807319558481
 20
2.49999999999999
 30
0.0
 11
-3.99807319558481
 21
2.16951701452658
 31
0.0
  0
LINE
  5
D1
102
{ACAD_REACTORS
330
196
102
}
330
1F
100
AcDbEntity
  8
1
  6
Continuous
 62
     7
100
AcDbLine
 10
-3.86473986225147
 20
2.16951701452658
 30
0.0
 11
-3.86473986225147
 21
2.49999999999999
 31
0.0
  0
LINE
  5
D2
102
{ACAD_REACTORS
330
196
102
}
330
1F
100
AcDbEntity
  8
1
  6
Continuous
 62
     7
100
AcDbLine
 10
-3.46473986225146
 20
2.49999999999999
 30
0.0
 11
-3.46473986225146
 21
1.86165381412035
 31
0.0
  0
LINE
  5
D3
102
{ACAD_REACTORS
330
196
102
}
330
1F
100
AcDbEntity
  8
1
  6
Continuous
 62
     7
100
AcDbLine
 10
-3.33140652891814
 20
1.86165381412035
 30
0.0
 11
-3.33140652891814
 21
3.14624346240691
 31
0.0
  0
LINE
  5
D4
102
{ACAD_REACTORS
330
196
102
}
330
1F
100
AcDbEntity
  8
1
  6
Continuous
 62
     7
100
AcDbLine
 10
-3.43029326564282
 20
3.17274008365445
 30
0.0
 11
-3.66473986225147
 21
2.76666666666664
 31
0.0
  0
LINE
  5
D5
102
{ACAD_REACTORS
330
197
102
}
330
1F
100
AcDbEntity
  8
1
  6
Continuous
 62
     7
100
AcDbLine
 10
-4.26473986225146
 20
2.05400422960651
 30
0.0
 11
-4.26473986225146
 21
2.98450003203347
 31
0.0
  0
LINE
  5
D6
102
{ACAD_REACTORS
330
197
102
}
330
1F
100
AcDbEntity
  8
1
  6
Continuous
 62
     7
100
AcDbLine
 10
-4.13140652891813
 20
2.98450003203347
 30
0.0
 11
-4.13140652891813
 21
2.05400422960654
 31
0.0
  0
LINE
  5
D7
102
{ACAD_REACTORS
330
197
102
}
330
1F
100
AcDbEntity
  8
1
  6
Continuous
 62
     7
100
AcDbLine
 10
-4.13140652891813
 20
2.05400422960654
 30
0.0
 11
-3.6980916986855
 21
1.80401490447232
 31
0.0
  0
LINE
  5
D8
102
{ACAD_REACTORS
330
197
102
}
330
1F
100
AcDbEntity
  8
1
  6
Continuous
 62
     7
100
AcDbLine
 10
-3.76472135915078
 20
1.68852349299916
 30
0.0
 11
-4.1980361893834
 21
1.93851281813338
 31
0.0
  0
LINE
  5
D9
102
{ACAD_REACTORS
330
198
102
}
330
1F
100
AcDbEntity
  8
1
  6
Continuous
 62
     7
100
AcDbLine
 10
-4.39807319558481
 20
2.83065387818733
 30
0.0
 11
-4.39807319558481
 21
2.20785038345266
 31
0.0
  0
LINE
  5
DA
102
{ACAD_REACTORS
330
198
102
}
330
1F
100
AcDbEntity
  8
1
  6
Continuous
 62
     7
100
AcDbLine
 10
-4.39807319558481
 20
2.20785038345266
 30
0.0
 11
-4.39807319558481
 21
2.16934612181264
 31
0.0
  0
LINE
  5
DB
102
{ACAD_REACTORS
330
198
102
}
330
1F
100
AcDbEntity
  8
1
  6
Continuous
 62
     7
100
AcDbLine
 10
-4.53140652891814
 20
2.16934612181264
 30
0.0
 11
-4.53140652891814
 21
2.83065387818733
 31
0.0
  0
LINE
  5
DC
102
{ACAD_REACTORS
330
199
102
}
330
1F
100
AcDbEntity
  8
1
  6
Continuous
 62
     7
100
AcDbLine
 10
-3.09809169868549
 20
3.04224573777005
 30
0.0
 11
-2.83142503201884
 21
2.88839958392389
 31
0.0
  0
LINE
  5
DD
102
{ACAD_REACTORS
330
199
102
}
330
1F
100
AcDbEntity
  8
1
  6
Continuous
 62
     7
100
AcDbLine
 10
-2.89805469248411
 20
2.77290817245075
 30
0.0
 11
-3.06473986225147
 21
2.86907269347039
 31
0.0
  0
LINE
  5
DE
102
{ACAD_REACTORS
330
199
102
}
330
1F
100
AcDbEntity
  8
1
  6
Continuous
 62
     7
100
AcDbLine
 10
-3.06473986225147
 20
2.86907269347039
 30
0.0
 11
-3.06473986225147
 21
2.56666666666666
 31
0.0
  0
LINE
  5
DF
102
{ACAD_REACTORS
330
199
102
}
330
1F
100
AcDbEntity
  8
1
  6
Continuous
 62
     7
100
AcDbLine
 10
-3.06473986225147
 20
2.56666666666666
 30
0.0
 11
-2.86473986225147
 21
2.56666666666666
 31
0.0
  0
LINE
  5
E0
102
{ACAD_REACTORS
330
199
102
}
330
1F
100
AcDbEntity
  8
1
  6
Continuous
 62
     7
100
AcDbLine
 10
-2.86473986225147
 20
2.43333333333333
 30
0.0
 11
-3.06473986225147
 21
2.43333333333333
 31
0.0
  0
LINE
  5
E1
102
{ACAD_REACTORS
330
199
102
}
330
1F
100
AcDbEntity
  8
1
  6
Continuous
 62
     7
100
AcDbLine
 10
-3.06473986225147
 20
2.43333333333333
 30
0.0
 11
-3.06473986225147
 21
2.13092730652958
 31
0.0
  0
LINE
  5
E2
102
{ACAD_REACTORS
330
199
102
}
330
1F
100
AcDbEntity
  8
1
  6
Continuous
 62
     7
100
AcDbLine
 10
-3.06473986225147
 20
2.13092730652958
 30
0.0
 11
-2.89805469248411
 21
2.22709182754924
 31
0.0
  0
LINE
  5
E3
102
{ACAD_REACTORS
330
199
102
}
330
1F
100
AcDbEntity
  8
1
  6
Continuous
 62
     7
100
AcDbLine
 10
-2.83142503201884
 20
2.11160041607606
 30
0.0
 11
-3.09809169868549
 21
1.95775426222995
 31
0.0
  0
LINE
  5
E4
330
1F
100
AcDbEntity
  8
1
  6
Continuous
 62
     7
100
AcDbLine
 10
-37.80000000000001
 20
4.99999999999999
 30
0.0
 11
-1.0
 21
4.99999999999999
 31
0.0
  0
LINE
  5
E5
330
1F
100
AcDbEntity
  8
1
  6
Continuous
 62
     7
100
AcDbLine
 10
-36.40000000000001
 20
3.99999999999999
 30
0.0
 11
-36.40000000000001
 21
4.99999999999999
 31
0.0
  0
LINE
  5
E6
330
1F
100
AcDbEntity
  8
1
  6
Continuous
 62
     7
100
AcDbLine
 10
-32.79999999999998
 20
3.99999999999999
 30
0.0
 11
-32.79999999999998
 21
4.99999999999999
 31
0.0
  0
LINE
  5
E7
330
1F
100
AcDbEntity
  8
1
  6
Continuous
 62
     7
100
AcDbLine
 10
-37.80000000000001
 20
5.99999999999999
 30
0.0
 11
-1.0
 21
5.99999999999999
 31
0.0
  0
LINE
  5
E8
330
1F
100
AcDbEntity
  8
1
  6
Continuous
 62
     7
100
AcDbLine
 10
-36.40000000000001
 20
4.99999999999999
 30
0.0
 11
-36.40000000000001
 21
5.99999999999999
 31
0.0
  0
LINE
  5
E9
330
1F
100
AcDbEntity
  8
1
  6
Continuous
 62
     7
100
AcDbLine
 10
-32.79999999999998
 20
4.99999999999999
 30
0.0
 11
-32.79999999999998
 21
5.99999999999999
 31
0.0
  0
LINE
  5
EA
330
1F
100
AcDbEntity
  8
1
  6
Continuous
 62
     7
100
AcDbLine
 10
-37.80000000000001
 20
6.99999999999999
 30
0.0
 11
-1.0
 21
6.99999999999999
 31
0.0
  0
LINE
  5
EB
330
1F
100
AcDbEntity
  8
1
  6
Continuous
 62
     7
100
AcDbLine
 10
-36.40000000000001
 20
5.99999999999999
 30
0.0
 11
-36.40000000000001
 21
6.99999999999999
 31
0.0
  0
LINE
  5
EC
330
1F
100
AcDbEntity
  8
1
  6
Continuous
 62
     7
100
AcDbLine
 10
-32.79999999999998
 20
5.99999999999999
 30
0.0
 11
-32.79999999999998
 21
6.99999999999999
 31
0.0
  0
LINE
  5
ED
330
1F
100
AcDbEntity
  8
1
  6
Continuous
 62
     7
100
AcDbLine
 10
-37.80000000000001
 20
7.99999999999999
 30
0.0
 11
-1.0
 21
7.99999999999999
 31
0.0
  0
LINE
  5
EE
330
1F
100
AcDbEntity
  8
1
  6
Continuous
 62
     7
100
AcDbLine
 10
-36.40000000000001
 20
6.99999999999999
 30
0.0
 11
-36.40000000000001
 21
7.99999999999999
 31
0.0
  0
LINE
  5
EF
330
1F
100
AcDbEntity
  8
1
  6
Continuous
 62
     7
100
AcDbLine
 10
-32.79999999999998
 20
6.99999999999999
 30
0.0
 11
-32.79999999999998
 21
7.99999999999999
 31
0.0
  0
LINE
  5
F0
330
1F
100
AcDbEntity
  8
1
  6
Continuous
 62
     7
100
AcDbLine
 10
-37.80000000000001
 20
0.99999999999998
 30
0.0
 11
-1.0
 21
0.99999999999998
 31
0.0
  0
LINE
  5
F1
330
1F
100
AcDbEntity
  8
1
  6
Continuous
 62
     7
100
AcDbLine
 10
-37.80000000000001
 20
3.99999999999999
 30
0.0
 11
-1.0
 21
3.99999999999999
 31
0.0
  0
LINE
  5
F2
330
1F
100
AcDbEntity
  8
0
  6
Continuous
 62
     7
100
AcDbLine
 10
-12.25506881250291
 20
36.5814724666805
 30
0.0
 11
-12.25506881250291
 21
36.43331083308707
 31
0.0
  0
LINE
  5
F3
330
1F
100
AcDbEntity
  8
0
  6
Continuous
 62
     7
100
AcDbLine
 10
-14.40506881250286
 20
36.5433594072719
 30
0.0
 11
-14.40506881250286
 21
36.43331083308707
 31
0.0
  0
LINE
  5
F4
330
1F
100
AcDbEntity
  8
0
  6
Continuous
 62
     7
100
AcDbLine
 10
-6.31474141841374
 20
54.16643386660871
 30
0.0
 11
-3.59238031084549
 21
52.80525331282456
 31
0.0
  0
LINE
  5
F5
330
1F
100
AcDbEntity
  8
0
  6
Continuous
 62
     7
100
AcDbLine
 10
-8.70479178117491
 20
55.30835243352368
 30
0.0
 11
-7.21986754068316
 21
54.56589031327783
 31
0.0
  0
LINE
  5
F6
330
1F
100
AcDbEntity
  8
0
  6
Continuous
 62
     7
100
AcDbLine
 10
-5.50511170837679
 20
53.57595976650336
 30
0.0
 11
-5.50511170837679
 21
53.69970345321103
 31
0.0
  0
LINE
  5
F7
330
1F
100
AcDbEntity
  8
0
  6
Continuous
 62
     7
100
AcDbLine
 10
-6.26369386829744
 20
54.14091009155058
 30
0.0
 11
-6.29200582766719
 21
54.19201766988099
 31
0.0
  0
LINE
  5
F8
330
1F
100
AcDbEntity
  8
0
  6
Continuous
 62
     7
100
AcDbLine
 10
-6.95295184087839
 20
54.56939162699732
 30
0.0
 11
-6.38726641592921
 21
54.28654891452271
 31
0.0
  0
LINE
  5
F9
330
1F
100
AcDbEntity
  8
0
  6
Continuous
 62
     7
100
AcDbLine
 10
-7.4337064560409
 20
53.60788239667238
 30
0.0
 11
-6.86802103109163
 21
53.32503968419778
 31
0.0
  0
LINE
  5
FA
330
1F
100
AcDbEntity
  8
0
  6
Continuous
 62
     7
100
AcDbLine
 10
-6.67736644413491
 20
53.31356493987562
 30
0.0
 11
-6.7352396824211
 21
53.30554996037319
 31
0.0
  0
LINE
  5
FB
330
1F
100
AcDbEntity
  8
0
  6
Continuous
 62
     7
100
AcDbLine
 10
-9.07597906543988
 20
54.56597786499373
 30
0.0
 11
-7.59105482494814
 21
53.82351574474788
 31
0.0
  0
LINE
  5
FC
330
1F
100
AcDbEntity
  8
0
  6
Continuous
 62
     7
100
AcDbLine
 10
-6.7284139942512
 20
53.33908871493378
 30
0.0
 11
-4.00605288668298
 21
51.9779081611497
 31
0.0
  0
LINE
  5
FD
330
1F
100
AcDbEntity
  8
0
  6
Continuous
 62
     7
100
AcDbLine
 10
-5.50511170837679
 20
53.69970345321103
 30
0.0
 11
-3.73734475541044
 21
52.81581997672788
 31
0.0
  0
LINE
  5
FE
330
1F
100
AcDbEntity
  8
0
  6
Continuous
 62
     7
100
AcDbLine
 10
-3.86108844211809
 20
52.75394813337403
 30
0.0
 11
-5.62885539508445
 21
53.63783160985722
 31
0.0
  0
LINE
  5
FF
330
1F
100
AcDbEntity
  8
0
  6
Continuous
 62
     7
100
AcDbLine
 10
-3.73734475541044
 20
52.81581997672788
 30
0.0
 11
-3.73734475541075
 21
52.76053709073858
 31
0.0
  0
LINE
  5
100
330
1F
100
AcDbEntity
  8
0
  6
Continuous
 62
     7
100
AcDbLine
 10
-3.82573310305886
 20
52.24093093413592
 30
0.0
 11
-4.06862311227345
 21
52.36237593874319
 31
0.0
  0
LINE
  5
101
330
1F
100
AcDbEntity
  8
0
  6
Continuous
 62
     7
100
AcDbLine
 10
-3.86108844211809
 20
52.69866524738481
 30
0.0
 11
-3.86108844211809
 21
52.75394813337403
 31
0.0
  0
LINE
  5
102
330
1F
100
AcDbEntity
  8
0
  6
Continuous
 62
     7
100
AcDbLine
 10
-3.82573310305869
 20
52.69249073084046
 30
0.0
 11
-3.86108844211809
 21
52.71016840037024
 31
0.0
  0
LINE
  5
103
330
1F
100
AcDbEntity
  8
0
  6
Continuous
 62
     7
100
AcDbLine
 10
-3.94947678976646
 20
52.17905909078229
 30
0.0
 11
-4.05585282546766
 21
52.23224710863269
 31
0.0
  0
LINE
  5
104
330
1F
100
AcDbEntity
  8
0
  6
Continuous
 62
     7
100
AcDbLine
 10
-3.73734475541044
 20
52.08449622658949
 30
0.0
 11
-3.73734475541044
 21
52.02921334060023
 31
0.0
  0
LINE
  5
105
330
1F
100
AcDbEntity
  8
0
  6
Continuous
 62
     7
100
AcDbLine
 10
-3.73734475541044
 20
52.02921334060023
 30
0.0
 11
-3.91530543084194
 21
52.11819367831598
 31
0.0
  0
LINE
  5
106
330
1F
100
AcDbEntity
  8
0
  6
Continuous
 62
     7
100
AcDbLine
 10
-3.86108844211809
 20
51.96734149724642
 30
0.0
 11
-3.86108844211809
 21
52.02262438323567
 31
0.0
  0
ARC
  5
107
102
{ACAD_REACTORS
330
196
102
}
330
1F
100
AcDbEntity
  8
1
  6
Continuous
 62
     7
100
AcDbCircle
 10
-3.94507995308975
 20
3.14624346240691
 30
0.0
 40
0.0529932424950674
100
AcDbArc
 50
30.0000000000139
 51
180.0
  0
ARC
  5
108
102
{ACAD_REACTORS
330
196
102
}
330
1F
100
AcDbEntity
  8
1
  6
Continuous
 62
     7
100
AcDbCircle
 10
-3.93140652891815
 20
2.16951701452658
 30
0.0
 40
0.0666666666666629
100
AcDbArc
 50
180.0
 51
0.0
  0
ARC
  5
109
102
{ACAD_REACTORS
330
196
102
}
330
1F
100
AcDbEntity
  8
1
  6
Continuous
 62
     7
100
AcDbCircle
 10
-3.39807319558479
 20
1.86165381412035
 30
0.0
 40
0.0666666666666771
100
AcDbArc
 50
180.0
 51
0.0
  0
ARC
  5
10A
102
{ACAD_REACTORS
330
196
102
}
330
1F
100
AcDbEntity
  8
1
  6
Continuous
 62
     7
100
AcDbCircle
 10
-3.3843997714132
 20
3.14624346240691
 30
0.0
 40
0.052993242495063
100
AcDbArc
 50
0.0
 51
149.9999999999784
  0
ARC
  5
10B
102
{ACAD_REACTORS
330
197
102
}
330
1F
100
AcDbEntity
  8
1
  6
Continuous
 62
     7
100
AcDbCircle
 10
-4.19807319558481
 20
2.98450003203347
 30
0.0
 40
0.0666666666666771
100
AcDbArc
 50
0.0
 51
180.0
  0
ARC
  5
10C
102
{ACAD_REACTORS
330
197
102
}
330
1F
100
AcDbEntity
  8
1
  6
Continuous
 62
     7
100
AcDbCircle
 10
-3.73140652891814
 20
1.74626919873574
 30
0.0
 40
0.066666666666673
100
AcDbArc
 50
240.0183606311512
 51
60.01836063115137
  0
ARC
  5
10D
102
{ACAD_REACTORS
330
198
102
}
330
1F
100
AcDbEntity
  8
1
  6
Continuous
 62
     7
100
AcDbCircle
 10
-4.46473986225146
 20
2.83065387818733
 30
0.0
 40
0.0666666666666487
100
AcDbArc
 50
0.0
 51
180.0
  0
ARC
  5
10E
102
{ACAD_REACTORS
330
198
102
}
330
1F
100
AcDbEntity
  8
1
  6
Continuous
 62
     7
100
AcDbCircle
 10
-4.46473986225146
 20
2.16934612181264
 30
0.0
 40
0.0666666666666771
100
AcDbArc
 50
180.0
 51
0.0
  0
ARC
  5
10F
102
{ACAD_REACTORS
330
199
102
}
330
1F
100
AcDbEntity
  8
1
  6
Continuous
 62
     7
100
AcDbCircle
 10
-2.86473986225147
 20
2.83065387818733
 30
0.0
 40
0.0666666666666723
100
AcDbArc
 50
240.0183606311521
 51
60.01836063115563
  0
ARC
  5
110
102
{ACAD_REACTORS
330
199
102
}
330
1F
100
AcDbEntity
  8
1
  6
Continuous
 62
     7
100
AcDbCircle
 10
-2.86473986225147
 20
2.49999999999999
 30
0.0
 40
0.0666666666666629
100
AcDbArc
 50
270.0
 51
90.0
  0
ARC
  5
111
102
{ACAD_REACTORS
330
199
102
}
330
1F
100
AcDbEntity
  8
1
  6
Continuous
 62
     7
100
AcDbCircle
 10
-2.86473986225147
 20
2.16934612181264
 30
0.0
 40
0.0666666666666659
100
AcDbArc
 50
299.9816393688382
 51
119.9816393688414
  0
ARC
  5
112
330
1F
100
AcDbEntity
  8
0
  6
Continuous
 62
     7
100
AcDbCircle
 10
-7.99971530611355
 20
54.25414236154262
 30
0.0
 40
0.0840598574744307
100
AcDbArc
 50
63.2758911395325
 51
116.4062139670066
  0
CIRCLE
  5
113
330
1F
100
AcDbEntity
  8
0
  6
Continuous
 62
     7
100
AcDbCircle
 10
-25.31417968040898
 20
38.78331083308706
 30
0.0
 40
0.3000000000000114
  0
SPLINE
  5
114
330
1F
100
AcDbEntity
  8
0
  6
Continuous
 62
     7
100
AcDbSpline
210
0.0
220
0.0
230
1.0
 70
     8
 71
     3
 72
    33
 73
    29
 74
    27
 42
0.000000001
 43
0.0000000001
 44
0.00000001
 40
0.0
 40
0.0
 40
0.0
 40
0.0
 40
0.000225665026534
 40
0.0018053213961823
 40
0.003447174231024
 40
0.007147629507212
 40
0.0155301815020136
 40
0.0280285398435118
 40
0.0494735348951643
 40
0.0758685249860174
 40
0.1067136279731486
 40
0.1676798297400837
 40
0.2271055182016629
 40
0.2529839785672923
 40
0.283899408466981
 40
0.3195012762241902
 40
0.3594900618212659
 40
0.4023507123853391
 40
0.4402349578716139
 40
0.4726179354887864
 40
0.4823577251011696
 40
0.4972633305613061
 40
0.5170226786619204
 40
0.5413325339765511
 40
0.5698997366515235
 40
0.5900459235575727
 40
0.6048912475193635
 40
0.6134817414985567
 40
0.6134817414985567
 40
0.6134817414985567
 40
0.6134817414985567
 10
-12.50006881250286
 20
38.48330969645702
 30
0.0
 10
-12.50009541521003
 20
38.48338005682466
 30
0.0
 10
-12.50030819573296
 20
38.48394295575289
 30
0.0
 10
-12.50072034453602
 20
38.48501560904126
 30
0.0
 10
-12.5015009011542
 20
38.48718697982709
 30
0.0
 10
-12.50305113406535
 20
38.49149123605275
 30
0.0
 10
-12.50573698812672
 20
38.49923261094567
 30
0.0
 10
-12.51024167013846
 20
38.51260286428496
 30
0.0
 10
-12.51642825324648
 20
38.53174169462612
 30
0.0
 10
-12.52391364077042
 20
38.55688281515578
 30
0.0
 10
-12.53401146954051
 20
38.59497519227919
 30
0.0
 10
-12.54448415003556
 20
38.64432994513524
 30
0.0
 10
-12.55125819463824
 20
38.69265922245798
 30
0.0
 10
-12.55460514789587
 20
38.73125987089784
 30
0.0
 10
-12.55612975400915
 20
38.76202946548366
 30
0.0
 10
-12.55635031212727
 20
38.79754325781013
 30
0.0
 10
-12.55467941655229
 20
38.83700885682492
 30
0.0
 10
-12.550868093459
 20
38.87709237862956
 30
0.0
 10
-12.54542604604722
 20
38.91442072229708
 30
0.0
 10
-12.54044430999639
 20
38.94062708163547
 30
0.0
 10
-12.53647923986145
 20
38.95921862526116
 30
0.0
 10
-12.53315925722624
 20
38.97364402350923
 30
0.0
 10
-12.5283711904405
 20
38.99271178835822
 30
0.0
 10
-12.52195104902446
 20
39.01605943921408
 30
0.0
 10
-12.51493146389684
 20
39.03936940595873
 30
0.0
 10
-12.50838895602155
 20
39.05952097267223
 30
0.0
 10
-12.503695853131
 20
39.07327031827174
 30
0.0
 10
-12.50104170683102
 20
39.08061764348709
 30
0.0
 10
-12.50006881250286
 20
39.08331083305729
 30
0.0
 11
-12.50006881250286
 21
38.48330969645702
 31
0.0
 11
-12.50014866763311
 21
38.48352076030637
 31
0.0
 11
-12.50070765354485
 21
38.48499820725184
 31
0.0
 11
-12.50126884678143
 21
38.48654117291476
 31
0.0
 11
-12.50251810026416
 21
38.49002438047959
 31
0.0
 11
-12.50527772878277
 21
38.49793965872806
 31
0.0
 11
-12.50927155001173
 21
38.50978273093237
 31
0.0
 11
-12.51584957182688
 21
38.53019394078996
 31
0.0
 11
-12.52337216228703
 21
38.55549426437057
 31
0.0
 11
-12.53127071280281
 21
38.5853109260477
 31
0.0
 11
-12.54388275944884
 21
38.64495833661071
 31
0.0
 11
-12.55208682453676
 21
38.70381499061956
 31
0.0
 11
-12.55431509000603
 21
38.72959734009386
 31
0.0
 11
-12.55584509459698
 21
38.76047488691929
 31
0.0
 11
-12.55606998328916
 21
38.79607604456373
 31
0.0
 11
-12.5543829010621
 21
38.83602922649505
 31
0.0
 11
-12.55033476722364
 21
38.87869827855378
 31
0.0
 11
-12.54487217641408
 21
38.91618662577649
 31
0.0
 11
-12.53885362949592
 21
38.94800539927582
 31
0.0
 11
-12.53681825531539
 21
38.95753014362237
 31
0.0
 11
-12.53348100376608
 21
38.97205735358311
 31
0.0
 11
-12.52867686819338
 21
38.99122378580967
 31
0.0
 11
-12.52224084194267
 21
39.01466619695371
 31
0.0
 11
-12.51400791835934
 21
39.04202134366685
 31
0.0
 11
-12.50778824139426
 21
39.06118340182348
 31
0.0
 11
-12.50296996168057
 21
39.07522504799256
 31
0.0
 11
-12.50006881250286
 21
39.08331083305729
 31
0.0
  0
SPLINE
  5
115
330
1F
100
AcDbEntity
  8
0
  6
Continuous
 62
     7
100
AcDbSpline
210
0.0
220
0.0
230
1.0
 70
     8
 71
     3
 72
    32
 73
    28
 74
    26
 42
0.000000001
 43
0.0000000001
 44
0.00000001
 40
0.0
 40
0.0
 40
0.0
 40
0.0
 40
0.0212728936793531
 40
0.0350416177966839
 40
0.0416249314426497
 40
0.0705641988540626
 40
0.1048784765182849
 40
0.1433633829120342
 40
0.2005878080325967
 40
0.2591176054057693
 40
0.3025655361011777
 40
0.3423842784429738
 40
0.3783569406187546
 40
0.4189048379737094
 40
0.4563077308203078
 40
0.4901839867612773
 40
0.5129005073046211
 40
0.5340908777218454
 40
0.5528067849124136
 40
0.568087531478612
 40
0.5789641667467621
 40
0.5844620706798332
 40
0.6043986994423313
 40
0.6199428992124729
 40
0.6292987151422026
 40
0.6302534746101643
 40
0.6312082333990876
 40
0.6312082333990876
 40
0.6312082333990876
 40
0.6312082333990876
 10
-12.77006881250284
 20
39.08331083305729
 30
0.0
 10
-12.77339408254107
 20
39.07704776785447
 30
0.0
 10
-12.77887159767473
 20
39.06673097366735
 30
0.0
 10
-12.78515941591856
 20
39.05436156069676
 30
0.0
 10
-12.79239587851418
 20
39.03961046580024
 30
0.0
 10
-12.80224263977797
 20
39.0185113224341
 30
0.0
 10
-12.81537210297605
 20
38.98723137094591
 30
0.0
 10
-12.83025421691172
 20
38.94650673820951
 30
0.0
 10
-12.84457817232106
 20
38.89705983897464
 30
0.0
 10
-12.85418005727446
 20
38.84474118644899
 30
0.0
 10
-12.85754989485019
 20
38.79752714051808
 30
0.0
 10
-12.85691646708229
 20
38.75774072710724
 30
0.0
 10
-12.85329601615493
 20
38.71909763956407
 30
0.0
 10
-12.846919553687
 20
38.68162214687531
 30
0.0
 10
-12.83801839882063
 20
38.64539679812701
 30
0.0
 10
-12.82868082114523
 20
38.61547035776964
 30
0.0
 10
-12.81983105433792
 20
38.59109482972259
 30
0.0
 10
-12.81211760202267
 20
38.57169523932773
 30
0.0
 10
-12.80491650616695
 20
38.55476606856979
 30
0.0
 10
-12.79879651707898
 20
38.54111683257906
 30
0.0
 10
-12.79433457847136
 20
38.53155443657635
 30
0.0
 10
-12.78908616453157
 20
38.52064782403944
 30
0.0
 10
-12.78309220604424
 20
38.50837264572789
 30
0.0
 10
-12.77628643608062
 20
38.49506660604608
 30
0.0
 10
-12.77232082005931
 20
38.48741408724325
 30
0.0
 10
-12.77052467338677
 20
38.48411638305412
 30
0.0
 10
-12.77022077027432
 20
38.48355711371862
 30
0.0
 10
-12.77006881250284
 20
38.48327748255876
 30
0.0
 11
-12.77006881250284
 21
39.08331083305729
 31
0.0
 11
-12.77997674556821
 21
39.06448614432173
 31
0.0
 11
-12.78620526829729
 21
39.052206760174
 31
0.0
 11
-12.7891067146725
 21
39.04629730765553
 31
0.0
 11
-12.80132663199554
 21
39.02006460202784
 31
0.0
 11
-12.81459783966327
 21
38.98842057054681
 31
0.0
 11
-12.82777527809446
 21
38.95226198691695
 31
0.0
 11
-12.84353596076796
 21
38.89725075365067
 31
0.0
 11
-12.85386196231616
 21
38.83963902782541
 31
0.0
 11
-12.85697694207137
 21
38.7963029040053
 31
0.0
 11
-12.85635616062705
 21
38.75648900053321
 31
0.0
 11
-12.85301814134346
 21
38.72067154555223
 31
0.0
 11
-12.84624521434519
 21
38.68069330801301
 31
0.0
 11
-12.83735020682107
 21
38.64436349568592
 31
0.0
 11
-12.82727951424894
 21
38.61201876058698
 31
0.0
 11
-12.81954696708009
 21
38.5906587974106
 31
0.0
 11
-12.81173054754734
 21
38.57096272196316
 31
0.0
 11
-12.80440750290203
 21
38.55373895350151
 31
0.0
 11
-12.7981550803955
 21
38.53979591128253
 31
0.0
 11
-12.79355052727905
 21
38.52994201456312
 31
0.0
 11
-12.79117109080403
 21
38.52498568260013
 31
0.0
 11
-12.78238789396723
 21
38.5070880716222
 31
0.0
 11
-12.77533166291442
 21
38.49323773394308
 31
0.0
 11
-12.77098082767893
 21
38.48495512715272
 31
0.0
 11
-12.77052482009088
 21
38.48411630485575
 31
0.0
 11
-12.77006881250284
 21
38.48327748255876
 31
0.0
  0
SPLINE
  5
116
102
{ACAD_REACTORS
330
19A
102
}
330
1F
100
AcDbEntity
  8
1
  6
Continuous
 62
     7
100
AcDbSpline
210
0.0
220
0.0
230
1.0
 70
     8
 71
     3
 72
     9
 73
     5
 74
     3
 42
0.000000001
 43
0.0000000001
 44
0.00000001
 40
0.0
 40
0.0
 40
0.0
 40
0.0
 40
1.080427568004276
 40
2.150516075642549
 40
2.150516075642549
 40
2.150516075642549
 40
2.150516075642549
 10
-14.40506881250286
 20
36.5433594072719
 30
0.0
 10
-14.04488919233752
 20
36.54279827499413
 30
0.0
 10
-13.32797666069171
 20
36.54168140014281
 30
0.0
 10
-12.61155664821619
 20
36.56825135142078
 30
0.0
 10
-12.25506881250291
 20
36.5814724666805
 30
0.0
 11
-14.40506881250286
 21
36.5433594072719
 31
0.0
 11
-13.32465426864183
 21
36.5486644421868
 31
0.0
 11
-12.25506881250291
 21
36.5814724666805
 31
0.0
  0
SPLINE
  5
117
330
1F
100
AcDbEntity
  8
0
  6
Continuous
 62
     7
100
AcDbSpline
210
0.0
220
0.0
230
1.0
 70
     8
 71
     3
 72
    11
 73
     7
 74
     5
 42
0.000000001
 43
0.0000000001
 44
0.00000001
 40
0.0
 40
0.0
 40
0.0
 40
0.0
 40
0.1502558880904823
 40
0.3468953548512398
 40
0.5759509364755209
 40
0.795504976581648
 40
0.795504976581648
 40
0.795504976581648
 40
0.795504976581648
 10
-8.704791781174908
 20
55.30835243352368
 30
0.0
 10
-8.756380450411509
 20
55.31568866599674
 30
0.0
 10
-8.875483068371537
 20
55.33262579042476
 30
0.0
 10
-9.033002006715298
 20
55.19491343288046
 30
0.0
 10
-9.152976467784692
 20
55.01437326294388
 30
0.0
 10
-9.173694923941976
 20
54.86402328054392
 30
0.0
 10
-9.183834737499868
 20
54.79044049216253
 30
0.0
 11
-8.704791781174908
 21
55.30835243352368
 31
0.0
 11
-8.855012097541533
 21
55.31162196201512
 31
0.0
 11
-9.016183223363218
 21
55.19896783569401
 31
0.0
 11
-9.138398733826454
 21
55.00524166560056
 31
0.0
 11
-9.183834737499868
 21
54.79044049216253
 31
0.0
  0
SPLINE
  5
118
330
1F
100
AcDbEntity
  8
0
  6
Continuous
 62
     7
100
AcDbSpline
210
0.0
220
0.0
230
1.0
 70
     8
 71
     3
 72
     9
 73
     5
 74
     3
 42
0.000000001
 43
0.0000000001
 44
0.00000001
 40
0.0
 40
0.0
 40
0.0
 40
0.0
 40
0.1427428306377987
 40
0.2588212978560593
 40
0.2588212978560593
 40
0.2588212978560593
 40
0.2588212978560593
 10
-9.183834737499868
 20
54.79044049216253
 30
0.0
 10
-9.18077464131896
 20
54.74050472326576
 30
0.0
 10
-9.175226057448322
 20
54.64996119474997
 30
0.0
 10
-9.106708453782549
 20
54.59198122848165
 30
0.0
 10
-9.075979065439885
 20
54.56597786499373
 30
0.0
 11
-9.183834737499868
 21
54.79044049216253
 31
0.0
 11
-9.155501495285904
 21
54.6505378693634
 31
0.0
 11
-9.075979065439885
 21
54.56597786499373
 31
0.0
  0
SPLINE
  5
119
330
1F
100
AcDbEntity
  8
0
  6
Continuous
 62
     7
100
AcDbSpline
210
0.0
220
0.0
230
1.0
 70
     8
 71
     3
 72
     9
 73
     5
 74
     3
 42
0.000000001
 43
0.0000000001
 44
0.00000001
 40
0.0
 40
0.0
 40
0.0
 40
0.0
 40
0.0726981647567293
 40
0.138954739366588
 40
0.138954739366588
 40
0.138954739366588
 40
0.138954739366588
 10
-5.628855395084448
 20
53.63783160985722
 30
0.0
 10
-5.608755960237259
 20
53.6516152426762
 30
0.0
 10
-5.570338038201035
 20
53.67796116000272
 30
0.0
 10
-5.526171335295668
 20
53.69268352514617
 30
0.0
 10
-5.505111708376792
 20
53.69970345321103
 30
0.0
 11
-5.628855395084448
 21
53.63783160985722
 31
0.0
 11
-5.566983551730642
 21
53.67600094695764
 31
0.0
 11
-5.505111708376792
 21
53.69970345321103
 31
0.0
  0
SPLINE
  5
11A
330
1F
100
AcDbEntity
  8
0
  6
Continuous
 62
     7
100
AcDbSpline
210
0.0
220
0.0
230
1.0
 70
     8
 71
     3
 72
     9
 73
     5
 74
     3
 42
0.000000001
 43
0.0000000001
 44
0.00000001
 40
0.0
 40
0.0
 40
0.0
 40
0.0
 40
0.1503425938923582
 40
0.3352203572738869
 40
0.3352203572738869
 40
0.3352203572738869
 40
0.3352203572738869
 10
-7.433706456040899
 20
53.60788239667238
 30
0.0
 10
-7.473506567662587
 20
53.64156145197342
 30
0.0
 10
-7.562249252018371
 20
53.71665598358524
 30
0.0
 10
-7.569435665746409
 20
53.83392621885029
 30
0.0
 10
-7.573399043347441
 20
53.898602064391
 30
0.0
 11
-7.433706456040899
 21
53.60788239667238
 31
0.0
 11
-7.53670237421492
 21
53.71740288425961
 31
0.0
 11
-7.573399043347441
 21
53.898602064391
 31
0.0
  0
SPLINE
  5
11B
330
1F
100
AcDbEntity
  8
0
  6
Continuous
 62
     7
100
AcDbSpline
210
0.0
220
0.0
230
1.0
 70
     8
 71
     3
 72
    11
 73
     7
 74
     5
 42
0.000000001
 43
0.0000000001
 44
0.00000001
 40
0.0
 40
0.0
 40
0.0
 40
0.0
 40
0.2446837188775014
 40
0.4999565057532457
 40
0.719102900622111
 40
0.8865567523252512
 40
0.8865567523252512
 40
0.8865567523252512
 40
0.8865567523252512
 10
-6.848614592631255
 20
53.58924284762189
 30
0.0
 10
-6.837314198027401
 20
53.6712477622107
 30
0.0
 10
-6.814224353803111
 20
53.83880647781943
 30
0.0
 10
-6.680517875271343
 20
54.0400108836708
 30
0.0
 10
-6.504969660998407
 20
54.19348550115608
 30
0.0
 10
-6.372234815029955
 20
54.17460978836601
 30
0.0
 10
-6.314741418413736
 20
54.16643386660871
 30
0.0
 11
-6.848614592631255
 21
53.58924284762189
 31
0.0
 11
-6.797978082513297
 21
53.82862969753775
 31
0.0
 11
-6.661774049768145
 21
54.04452934493102
 31
0.0
 11
-6.482155626412664
 21
54.17007761824071
 31
0.0
 11
-6.314741418413736
 21
54.16643386660871
 31
0.0
  0
SPLINE
  5
11C
330
1F
100
AcDbEntity
  8
0
  6
Continuous
 62
     7
100
AcDbSpline
210
0.0
220
0.0
230
1.0
 70
     8
 71
     3
 72
    11
 73
     7
 74
     5
 42
0.000000001
 43
0.0000000001
 44
0.00000001
 40
0.0
 40
0.0
 40
0.0
 40
0.0
 40
0.2843621590428539
 40
0.5810305331578287
 40
0.8357141829342505
 40
1.030322714025809
 40
1.030322714025809
 40
1.030322714025809
 40
1.030322714025809
 10
-7.007713618398232
 20
53.61575935191638
 30
0.0
 10
-6.994580727406018
 20
53.71106236051694
 30
0.0
 10
-6.967746586233829
 20
53.9057927601396
 30
0.0
 10
-6.812357974866675
 20
54.13962490690899
 30
0.0
 10
-6.608342482810801
 20
54.31798730324845
 30
0.0
 10
-6.454083066302723
 20
54.29605066146568
 30
0.0
 10
-6.387266415929209
 20
54.28654891452271
 30
0.0
 11
-7.007713618398232
 21
53.61575935191638
 31
0.0
 11
-6.948865782315202
 21
53.89396569100779
 31
0.0
 11
-6.790574609124865
 21
54.14487609203242
 31
0.0
 11
-6.581828873873888
 21
54.29078354479775
 31
0.0
 11
-6.387266415929209
 21
54.28654891452271
 31
0.0
  0
SPLINE
  5
11D
330
1F
100
AcDbEntity
  8
0
  6
Continuous
 62
     7
100
AcDbSpline
210
0.0
220
0.0
230
1.0
 70
     8
 71
     3
 72
     9
 73
     5
 74
     3
 42
0.000000001
 43
0.0000000001
 44
0.00000001
 40
0.0
 40
0.0
 40
0.0
 40
0.0
 40
0.1503425938923725
 40
0.3352203572738927
 40
0.3352203572738927
 40
0.3352203572738927
 40
0.3352203572738927
 10
-6.868021031091634
 20
53.32503968419778
 30
0.0
 10
-6.907821142713329
 20
53.3587187394988
 30
0.0
 10
-6.996563827069131
 20
53.43381327111061
 30
0.0
 10
-7.003750240797189
 20
53.55108350637567
 30
0.0
 10
-7.007713618398232
 20
53.61575935191638
 30
0.0
 11
-6.868021031091634
 21
53.32503968419778
 31
0.0
 11
-6.971016949265683
 21
53.434560171785
 31
0.0
 11
-7.007713618398232
 21
53.61575935191638
 31
0.0
  0
SPLINE
  5
11E
330
1F
100
AcDbEntity
  8
0
  6
Continuous
 62
     7
100
AcDbSpline
210
0.0
220
0.0
230
1.0
 70
     8
 71
     3
 72
     9
 73
     5
 74
     3
 42
0.000000001
 43
0.0000000001
 44
0.00000001
 40
0.0
 40
0.0
 40
0.0
 40
0.0
 40
0.1293645571531133
 40
0.2884454229364067
 40
0.2884454229364067
 40
0.2884454229364067
 40
0.2884454229364067
 10
-6.728413994251203
 20
53.33908871493378
 30
0.0
 10
-6.762660601824502
 20
53.36806836708395
 30
0.0
 10
-6.839020583716977
 20
53.43268459338342
 30
0.0
 10
-6.845204244471108
 20
53.53359153880196
 30
0.0
 10
-6.848614592631255
 20
53.58924284762189
 30
0.0
 11
-6.728413994251203
 21
53.33908871493378
 31
0.0
 11
-6.817038388959074
 21
53.43332727402048
 31
0.0
 11
-6.848614592631255
 21
53.58924284762189
 31
0.0
  0
SPLINE
  5
11F
330
1F
100
AcDbEntity
  8
0
  6
Continuous
 62
     7
100
AcDbSpline
210
0.0
220
0.0
230
1.0
 70
     8
 71
     3
 72
     9
 73
     5
 74
     3
 42
0.000000001
 43
0.0000000001
 44
0.00000001
 40
0.0
 40
0.0
 40
0.0
 40
0.0
 40
0.0658779647908114
 40
0.1357661426832076
 40
0.1357661426832076
 40
0.1357661426832076
 40
0.1357661426832076
 10
-6.387266415929209
 20
54.28654891452271
 30
0.0
 10
-6.368329284150137
 20
54.27484795140953
 30
0.0
 10
-6.32930226632884
 20
54.25073373317821
 30
0.0
 10
-6.304680392948478
 20
54.21197134540246
 30
0.0
 10
-6.292005827667187
 20
54.19201766988099
 30
0.0
 11
-6.387266415929209
 21
54.28654891452271
 31
0.0
 11
-6.333846706857181
 21
54.24799711654887
 31
0.0
 11
-6.292005827667187
 21
54.19201766988099
 31
0.0
  0
SPLINE
  5
120
330
1F
100
AcDbEntity
  8
0
  6
Continuous
 62
     7
100
AcDbSpline
210
0.0
220
0.0
230
1.0
 70
     8
 71
     3
 72
     9
 73
     5
 74
     3
 42
0.000000001
 43
0.0000000001
 44
0.00000001
 40
0.0
 40
0.0
 40
0.0
 40
0.0
 40
0.0698881778923627
 40
0.1357661426831493
 40
0.1357661426831493
 40
0.1357661426831493
 40
0.1357661426831493
 10
-6.7352396824211
 20
53.30554996037319
 30
0.0
 10
-6.758807362007039
 20
53.30371740728535
 30
0.0
 10
-6.804590396255842
 20
53.30015747332419
 30
0.0
 10
-6.847297981533644
 20
53.31691055664244
 30
0.0
 10
-6.868021031091634
 20
53.32503968419778
 30
0.0
 11
-6.7352396824211
 21
53.30554996037319
 31
0.0
 11
-6.805127767269362
 21
53.30543499572448
 31
0.0
 11
-6.868021031091634
 21
53.32503968419778
 31
0.0
  0
SPLINE
  5
121
330
1F
100
AcDbEntity
  8
0
  6
Continuous
 62
     7
100
AcDbSpline
210
0.0
220
0.0
230
1.0
 70
     8
 71
     3
 72
    11
 73
     7
 74
     5
 42
0.000000001
 43
0.0000000001
 44
0.00000001
 40
0.0
 40
0.0
 40
0.0
 40
0.0
 40
0.2843621590428351
 40
0.5810305331578138
 40
0.8357141829342549
 40
1.030322714025842
 40
1.030322714025842
 40
1.030322714025842
 40
1.030322714025842
 10
-7.573399043347441
 20
53.898602064391
 30
0.0
 10
-7.560266152355235
 20
53.99390507299156
 30
0.0
 10
-7.533432011183063
 20
54.18863547261419
 30
0.0
 10
-7.378043399815914
 20
54.42246761938361
 30
0.0
 10
-7.174027907760006
 20
54.60083001572305
 30
0.0
 10
-7.01976849125191
 20
54.57889337394029
 30
0.0
 10
-6.952951840878389
 20
54.56939162699732
 30
0.0
 11
-7.573399043347441
 21
53.898602064391
 31
0.0
 11
-7.514551207264435
 21
54.1768084034824
 31
0.0
 11
-7.356260034074102
 21
54.42771880450703
 31
0.0
 11
-7.147514298823096
 21
54.57362625727236
 31
0.0
 11
-6.952951840878389
 21
54.56939162699732
 31
0.0
  0
SPLINE
  5
122
330
1F
100
AcDbEntity
  8
0
  6
Continuous
 62
     7
100
AcDbSpline
210
0.0
220
0.0
230
1.0
 70
     8
 71
     3
 72
    11
 73
     7
 74
     5
 42
0.000000001
 43
0.0000000001
 44
0.00000001
 40
0.0
 40
0.0
 40
0.0
 40
0.0
 40
0.2195540401061302
 40
0.4486096217303995
 40
0.6452490884911898
 40
0.7955049765816707
 40
0.7955049765816707
 40
0.7955049765816707
 40
0.7955049765816707
 10
-7.698910497008105
 20
54.04797837191663
 30
0.0
 10
-7.68877068345022
 20
54.12156116029801
 30
0.0
 10
-7.66805222729295
 20
54.27191114269796
 30
0.0
 10
-7.548077766223553
 20
54.45245131263458
 30
0.0
 10
-7.390558827879799
 20
54.59016367017891
 30
0.0
 10
-7.271456209919762
 20
54.57322654575087
 30
0.0
 10
-7.219867540683159
 20
54.56589031327783
 30
0.0
 11
-7.698910497008105
 21
54.04797837191663
 31
0.0
 11
-7.65347449333471
 21
54.26277954535466
 31
0.0
 11
-7.531258982871482
 21
54.4565057154481
 31
0.0
 11
-7.370087857049783
 21
54.56915984176925
 31
0.0
 11
-7.219867540683159
 21
54.56589031327783
 31
0.0
  0
SPLINE
  5
123
330
1F
100
AcDbEntity
  8
0
  6
Continuous
 62
     7
100
AcDbSpline
210
0.0
220
0.0
230
1.0
 70
     8
 71
     3
 72
     9
 73
     5
 74
     3
 42
0.000000001
 43
0.0000000001
 44
0.00000001
 40
0.0
 40
0.0
 40
0.0
 40
0.0
 40
0.1160784672182396
 40
0.2588212978560022
 40
0.2588212978560022
 40
0.2588212978560022
 40
0.2588212978560022
 10
-7.591054824948135
 20
53.82351574474788
 30
0.0
 10
-7.621784213290799
 20
53.84951910823581
 30
0.0
 10
-7.690301816956557
 20
53.90749907450412
 30
0.0
 10
-7.695850400827196
 20
53.99804260301983
 30
0.0
 10
-7.698910497008105
 20
54.04797837191663
 30
0.0
 11
-7.591054824948135
 21
53.82351574474788
 31
0.0
 11
-7.670577254794147
 21
53.90807574911753
 31
0.0
 11
-7.698910497008105
 21
54.04797837191663
 31
0.0
  0
SPLINE
  5
124
330
1F
100
AcDbEntity
  8
0
  6
Continuous
 62
     7
100
AcDbSpline
210
0.0
220
0.0
230
1.0
 70
     8
 71
     3
 72
    11
 73
     7
 74
     5
 42
0.000000001
 43
0.0000000001
 44
0.00000001
 40
0.0
 40
0.0
 40
0.0
 40
0.0
 40
0.1291326775315696
 40
0.2975335231724414
 40
0.4976121936769738
 40
0.6893913255626611
 40
0.6893913255626611
 40
0.6893913255626611
 40
0.6893913255626611
 10
-7.24871451003465
 20
54.5214726919953
 30
0.0
 10
-7.293107659608613
 20
54.52633533668665
 30
0.0
 10
-7.395393543606659
 20
54.53753930038156
 30
0.0
 10
-7.530506258331283
 20
54.41909324499962
 30
0.0
 10
-7.634872339137353
 20
54.26209556793582
 30
0.0
 10
-7.652943292056102
 20
54.13079818198276
 30
0.0
 10
-7.661787390995746
 20
54.06653992492278
 30
0.0
 11
-7.24871451003465
 21
54.5214726919953
 31
0.0
 11
-7.37784430943243
 21
54.52060987342306
 31
0.0
 11
-7.515344803346287
 21
54.42338609848942
 31
0.0
 11
-7.622099315497904
 21
54.25416745593791
 31
0.0
 11
-7.661787390995746
 21
54.06653992492278
 31
0.0
  0
SPLINE
  5
125
330
1F
100
AcDbEntity
  8
0
  6
Continuous
 62
     7
100
AcDbSpline
210
0.0
220
0.0
230
1.0
 70
     8
 71
     3
 72
     9
 73
     5
 74
     3
 42
0.000000001
 43
0.0000000001
 44
0.00000001
 40
0.0
 40
0.0
 40
0.0
 40
0.0
 40
0.1214592928593226
 40
0.2204471809426083
 40
0.2204471809426083
 40
0.2204471809426083
 40
0.2204471809426083
 10
-7.661787390995746
 20
54.06653992492278
 30
0.0
 10
-7.659261641192006
 20
54.02421144552872
 30
0.0
 10
-7.654677417423736
 20
53.94738576225144
 30
0.0
 10
-7.598187979859183
 20
53.89621708504042
 30
0.0
 10
-7.572822395058485
 20
53.87324070505963
 30
0.0
 11
-7.661787390995746
 21
54.06653992492278
 31
0.0
 11
-7.638453499383705
 21
53.94734307109623
 31
0.0
 11
-7.572822395058485
 21
53.87324070505963
 31
0.0
  0
SPLINE
  5
126
330
1F
100
AcDbEntity
  8
0
  6
Continuous
 62
     7
100
AcDbSpline
210
0.0
220
0.0
230
1.0
 70
     8
 71
     3
 72
     9
 73
     5
 74
     3
 42
0.000000001
 43
0.0000000001
 44
0.00000001
 40
0.0
 40
0.0
 40
0.0
 40
0.0
 40
0.013246437920087
 40
0.0264668051541327
 40
0.0264668051541327
 40
0.0264668051541327
 40
0.0264668051541327
 10
-7.219867540683159
 20
54.56589031327783
 30
0.0
 10
-7.215956934760693
 20
54.56382950160422
 30
0.0
 10
-7.208143429534875
 20
54.55971191694023
 30
0.0
 10
-7.200911135835411
 20
54.55464250998754
 30
0.0
 10
-7.197298556387939
 20
54.55211029487737
 30
0.0
 11
-7.219867540683159
 21
54.56589031327783
 31
0.0
 11
-7.208281317038994
 21
54.5594694449252
 31
0.0
 11
-7.197298556387939
 21
54.55211029487737
 31
0.0
  0
SPLINE
  5
127
330
1F
100
AcDbEntity
  8
0
  6
Continuous
 62
     7
100
AcDbSpline
210
0.0
220
0.0
230
1.0
 70
     8
 71
     3
 72
     9
 73
     5
 74
     3
 42
0.000000001
 43
0.0000000001
 44
0.00000001
 40
0.0
 40
0.0
 40
0.0
 40
0.0
 40
0.013216364274375
 40
0.0264588045662683
 40
0.0264588045662683
 40
0.0264588045662683
 40
0.0264588045662683
 10
-7.566497080733133
 20
53.81373089852451
 30
0.0
 10
-7.570689067466203
 20
53.81510140235479
 30
0.0
 10
-7.579081304766469
 20
53.8178451327359
 30
0.0
 10
-7.587061032722209
 20
53.821624293112
 30
0.0
 10
-7.591054824948135
 20
53.82351574474788
 30
0.0
 11
-7.566497080733133
 21
53.81373089852451
 31
0.0
 11
-7.578970113477525
 21
53.81810076693505
 31
0.0
 11
-7.591054824948135
 21
53.82351574474788
 31
0.0
  0
SPLINE
  5
128
330
1F
100
AcDbEntity
  8
0
  6
Continuous
 62
     7
100
AcDbSpline
210
0.0
220
0.0
230
1.0
 70
     8
 71
     3
 72
    17
 73
    13
 74
    11
 42
0.000000001
 43
0.0000000001
 44
0.00000001
 40
0.0
 40
0.0
 40
0.0
 40
0.0
 40
0.0146944001780089
 40
0.0299983938185313
 40
0.0652816199805942
 40
0.088855543170544
 40
0.1200716191902212
 40
0.1560884926475675
 40
0.1893389642707702
 40
0.2130118522529845
 40
0.2283818792807766
 40
0.2509387052259852
 40
0.2509387052259852
 40
0.2509387052259852
 40
0.2509387052259852
 10
-7.875700111701652
 20
54.13377483703633
 30
0.0
 10
-7.879870610857268
 20
54.13634515101995
 30
0.0
 10
-7.888384614750866
 20
54.14159241815916
 30
0.0
 10
-7.906297826685613
 20
54.15395803162009
 30
0.0
 10
-7.925707814818783
 20
54.16935038562632
 30
0.0
 10
-7.947307491235749
 20
54.19025035565227
 30
0.0
 10
-7.966725817576428
 20
54.21359185118979
 30
0.0
 10
-7.983559403177411
 20
54.24283598814074
 30
0.0
 10
-7.992248120010753
 20
54.27300368649398
 30
0.0
 10
-7.992713441226845
 20
54.29727869503441
 30
0.0
 10
-7.989327299176109
 20
54.31767172552788
 30
0.0
 10
-7.984134627240413
 20
54.32926589793909
 30
0.0
 10
-7.981046302233854
 20
54.33616147756601
 30
0.0
 11
-7.875700111701652
 21
54.13377483703633
 31
0.0
 11
-7.888143824404052
 21
54.14159015771712
 31
0.0
 11
-7.900756873847901
 21
54.15025751992951
 31
0.0
 11
-7.928308693906676
 21
54.17229846497739
 31
0.0
 11
-7.945211589013458
 21
54.18873081148249
 31
0.0
 11
-7.965027921911681
 21
54.21285043848423
 31
0.0
 11
-7.982636275486091
 21
54.24426955957233
 31
0.0
 11
-7.991452767132471
 21
54.27632986991446
 31
0.0
 11
-7.991885486612053
 21
54.29999880569363
 31
0.0
 11
-7.989211965183327
 21
54.31513452858211
 31
0.0
 11
-7.981046302233854
 21
54.33616147756601
 31
0.0
  0
SPLINE
  5
129
330
1F
100
AcDbEntity
  8
0
  6
Continuous
 62
     7
100
AcDbSpline
210
0.0
220
0.0
230
1.0
 70
     8
 71
     3
 72
    19
 73
    15
 74
    13
 42
0.000000001
 43
0.0000000001
 44
0.00000001
 40
0.0
 40
0.0
 40
0.0
 40
0.0
 40
0.0128607421995363
 40
0.0293061052434056
 40
0.0443979261907483
 40
0.0703628755926425
 40
0.1082982193940964
 40
0.1319416214938858
 40
0.1614220396615666
 40
0.2033202290730065
 40
0.2287768459228577
 40
0.2566105120602528
 40
0.2836050556767575
 40
0.304102836178925
 40
0.304102836178925
 40
0.304102836178925
 40
0.304102836178925
 10
-7.902935362918687
 20
54.06110355312342
 30
0.0
 10
-7.89932293554077
 20
54.06350487282242
 30
0.0
 10
-7.891091204775581
 20
54.06897682102043
 30
0.0
 10
-7.883809294161821
 20
54.08244459443786
 30
0.0
 10
-7.878180823750824
 20
54.100732423768
 30
0.0
 10
-7.875077583619897
 20
54.12707330194973
 30
0.0
 10
-7.875924131624209
 20
54.15631128454641
 30
0.0
 10
-7.879698842472076
 20
54.18645330838884
 30
0.0
 10
-7.886092154429062
 20
54.21750985837323
 30
0.0
 10
-7.89606286257111
 20
54.24834023053175
 30
0.0
 10
-7.909826616141852
 20
54.27701983662051
 30
0.0
 10
-7.924727972563333
 20
54.29932891769114
 30
0.0
 10
-7.942290340514173
 20
54.31773058733024
 30
0.0
 10
-7.955997834236345
 20
54.325758343876
 30
0.0
 10
-7.961914019372007
 20
54.32922313377696
 30
0.0
 11
-7.902935362918687
 21
54.06110355312342
 31
0.0
 11
-7.892757688149779
 21
54.0689657331891
 31
0.0
 11
-7.884154418981855
 21
54.08298120754157
 31
0.0
 11
-7.879570192891358
 21
54.0973599382251
 31
0.0
 11
-7.876064357062451
 21
54.12308711559928
 31
0.0
 11
-7.876805118451768
 21
54.16101522525321
 31
0.0
 11
-7.879728680752199
 21
54.18447717786296
 31
0.0
 11
-7.885691140037211
 21
54.21334834163482
 31
0.0
 11
-7.898840761783835
 21
54.25312956415252
 31
0.0
 11
-7.909981637998879
 21
54.27601886765046
 31
0.0
 11
-7.925555535412902
 21
54.29908760731593
 31
0.0
 11
-7.944656243691782
 21
54.31816293720487
 31
0.0
 11
-7.961914019372007
 21
54.32922313377696
 31
0.0
  0
SPLINE
  5
12A
330
1F
100
AcDbEntity
  8
0
  6
Continuous
 62
     7
100
AcDbSpline
210
0.0
220
0.0
230
1.0
 70
     8
 71
     3
 72
    23
 73
    19
 74
    17
 42
0.000000001
 43
0.0000000001
 44
0.00000001
 40
0.0
 40
0.0
 40
0.0
 40
0.0
 40
0.0216553904227024
 40
0.036472110075232
 40
0.0524222211701003
 40
0.0745528847349159
 40
0.1100810620772068
 40
0.1353710951597282
 40
0.172918842447642
 40
0.2029538632073862
 40
0.2472782325742254
 40
0.277771172440875
 40
0.2999581903494315
 40
0.3363484782574558
 40
0.3552395436148549
 40
0.3673499456632249
 40
0.3802959910308454
 40
0.3907884284209174
 40
0.3907884284209174
 40
0.3907884284209174
 40
0.3907884284209174
 10
-8.037099441568689
 20
54.32943171042342
 30
0.0
 10
-8.043343166846215
 20
54.3257333172489
 30
0.0
 10
-8.05385887155909
 20
54.31950445631438
 30
0.0
 10
-8.066064665361942
 20
54.30680880497569
 30
0.0
 10
-8.076204854818087
 20
54.29230749532724
 30
0.0
 10
-8.08593426745803
 20
54.26953413531287
 30
0.0
 10
-8.08913444012697
 20
54.24150913928358
 30
0.0
 10
-8.084461568428647
 20
54.20888804612544
 30
0.0
 10
-8.073404959165149
 20
54.17963571949898
 30
0.0
 10
-8.054113976498444
 20
54.14759313428284
 30
0.0
 10
-8.031377165742477
 20
54.12078587849636
 30
0.0
 10
-8.007338908296582
 20
54.09907815115395
 30
0.0
 10
-7.983535318322835
 20
54.08129962847752
 30
0.0
 10
-7.961162410728786
 20
54.06814345880632
 30
0.0
 10
-7.940051863932085
 20
54.06011282393094
 30
0.0
 10
-7.925681165906449
 20
54.05725639227717
 30
0.0
 10
-7.913573630166867
 20
54.05702430390598
 30
0.0
 10
-7.906225027706823
 20
54.05984212834426
 30
0.0
 10
-7.902935362918687
 20
54.06110355312342
 30
0.0
 11
-8.037099441568689
 21
54.32943171042342
 31
0.0
 11
-8.055117189054346
 21
54.31741851214163
 31
0.0
 11
-8.065507219797059
 21
54.3068552496065
 31
0.0
 11
-8.07462246135454
 21
54.29376638147676
 31
0.0
 11
-8.0833684014187
 21
54.27343721846367
 31
0.0
 11
-8.08774278629732
 21
54.23817936509677
 31
0.0
 11
-8.084315657916807
 21
54.21312261914417
 31
0.0
 11
-8.071398002898398
 21
54.17786688249243
 31
0.0
 11
-8.056037831962403
 21
54.15205665964918
 31
0.0
 11
-8.027564887852318
 21
54.11808694875052
 31
0.0
 11
-8.004937544550803
 21
54.09764623663136
 31
0.0
 11
-7.987149929901464
 21
54.08438484465709
 31
0.0
 11
-7.955522918059832
 21
54.06638525810539
 31
0.0
 11
-7.937769583501917
 21
54.05992836802962
 31
0.0
 11
-7.925874868454447
 21
54.05765294176311
 31
0.0
 11
-7.912931473781019
 21
54.05791463173016
 31
0.0
 11
-7.902935362918687
 21
54.06110355312342
 31
0.0
  0
SPLINE
  5
12B
330
1F
100
AcDbEntity
  8
0
  6
Continuous
 62
     7
100
AcDbSpline
210
0.0
220
0.0
230
1.0
 70
     8
 71
     3
 72
    11
 73
     7
 74
     5
 42
0.000000001
 43
0.0000000001
 44
0.00000001
 40
0.0
 40
0.0
 40
0.0
 40
0.0
 40
0.0879145601461846
 40
0.1703305906980966
 40
0.2615621223649883
 40
0.3694954728141205
 40
0.3694954728141205
 40
0.3694954728141205
 40
0.3694954728141205
 10
-3.861088442118093
 20
52.02262438323567
 30
0.0
 10
-3.890949639270211
 20
52.01929179091478
 30
0.0
 10
-3.948804393986043
 20
52.01283505298513
 30
0.0
 10
-4.028024675679577
 20
52.06179860261011
 30
0.0
 10
-4.074838185103854
 20
52.14711217427373
 30
0.0
 10
-4.079521364754974
 20
52.21394220547663
 30
0.0
 10
-4.082059311238756
 20
52.2501593807499
 30
0.0
 11
-3.861088442118093
 21
52.02262438323567
 31
0.0
 11
-3.949002740037041
 21
52.02284098253718
 31
0.0
 11
-4.020010620422373
 21
52.06467737521211
 31
0.0
 11
-4.066096375725517
 21
52.14341298468085
 31
0.0
 11
-4.082059311238756
 21
52.2501593807499
 31
0.0
  0
SPLINE
  5
12C
330
1F
100
AcDbEntity
  8
0
  6
Continuous
 62
     7
100
AcDbSpline
210
0.0
220
0.0
230
1.0
 70
     8
 71
     3
 72
    11
 73
     7
 74
     5
 42
0.000000001
 43
0.0000000001
 44
0.00000001
 40
0.0
 40
0.0
 40
0.0
 40
0.0
 40
0.1683417935747398
 40
0.3889189095636802
 40
0.6455794480781456
 40
0.8908294805164803
 40
0.8908294805164803
 40
0.8908294805164803
 40
0.8908294805164803
 10
-4.006052886682984
 20
51.9779081611497
 30
0.0
 10
-4.047238990547954
 20
52.0192976364229
 30
0.0
 10
-4.142390955757797
 20
52.11491947049474
 30
0.0
 10
-4.123930106905371
 20
52.34879543983938
 30
0.0
 10
-4.041975319492766
 20
52.5773200069203
 30
0.0
 10
-3.920463247142297
 20
52.69597123854646
 30
0.0
 10
-3.861088442118093
 20
52.75394813337403
 30
0.0
 11
-4.006052886682984
 21
51.9779081611497
 31
0.0
 11
-4.109700320708018
 21
52.11055871864991
 31
0.0
 11
-4.116312692827596
 21
52.33103671127441
 31
0.0
 11
-4.023794005607328
 21
52.57044206856205
 31
0.0
 11
-3.861088442118093
 21
52.75394813337403
 31
0.0
  0
SPLINE
  5
12D
330
1F
100
AcDbEntity
  8
0
  6
Continuous
 62
     7
100
AcDbSpline
210
0.0
220
0.0
230
1.0
 70
     8
 71
     3
 72
    13
 73
     9
 74
     7
 42
0.000000001
 43
0.0000000001
 44
0.00000001
 40
0.0
 40
0.0
 40
0.0
 40
0.0
 40
0.1143164312093576
 40
0.2275593773070008
 40
0.3670531854228007
 40
0.5342302383468281
 40
0.7127437918628097
 40
0.8808147379944716
 40
0.8808147379944716
 40
0.8808147379944716
 40
0.8808147379944716
 10
-3.73734475541075
 20
52.76053709073858
 30
0.0
 10
-3.697346535102781
 20
52.76312160001435
 30
0.0
 10
-3.617725698865897
 20
52.76826633947985
 30
0.0
 10
-3.528213782507833
 20
52.66514278352153
 30
0.0
 10
-3.507964192092009
 20
52.52319879990867
 30
0.0
 10
-3.538679687699195
 20
52.36259042642858
 30
0.0
 10
-3.613021367135198
 20
52.20441115634516
 30
0.0
 10
-3.696744483304325
 20
52.12365682300728
 30
0.0
 10
-3.737344755410438
 20
52.08449622658949
 30
0.0
 11
-3.73734475541075
 21
52.76053709073858
 31
0.0
 11
-3.623438820624175
 21
52.75085791564821
 31
0.0
 11
-3.544542486927857
 21
52.66962162543918
 31
0.0
 11
-3.516375837134509
 21
52.53300111780202
 31
0.0
 11
-3.544542486927857
 21
52.36821396037151
 31
0.0
 11
-3.623438820624135
 21
52.20808133646618
 31
0.0
 11
-3.737344755410438
 21
52.08449622658949
 31
0.0
  0
SPLINE
  5
12E
330
1F
100
AcDbEntity
  8
0
  6
Continuous
 62
     7
100
AcDbSpline
210
0.0
220
0.0
230
1.0
 70
     8
 71
     3
 72
    11
 73
     7
 74
     5
 42
0.000000001
 43
0.0000000001
 44
0.00000001
 40
0.0
 40
0.0
 40
0.0
 40
0.0
 40
0.0425421096887354
 40
0.0898564306387476
 40
0.1328000550119966
 40
0.1796788999766546
 40
0.1796788999766546
 40
0.1796788999766546
 40
0.1796788999766546
 10
-3.825733103058856
 20
52.24093093413592
 30
0.0
 10
-3.818809463466614
 20
52.22855531815535
 30
0.0
 10
-3.804185503310364
 20
52.20241584448669
 30
0.0
 10
-3.782425828182101
 20
52.16386634943031
 30
0.0
 10
-3.759888526629743
 20
52.1240959814737
 30
0.0
 10
-3.745075672680336
 20
52.09807612844075
 30
0.0
 10
-3.737344755410438
 20
52.08449622658949
 30
0.0
 11
-3.825733103058856
 21
52.24093093413592
 31
0.0
 11
-3.804939927122398
 21
52.20381658471531
 31
0.0
 11
-3.781697560639505
 21
52.16260448248298
 31
0.0
 11
-3.760523537118673
 21
52.12524386680302
 31
0.0
 11
-3.737344755410438
 21
52.08449622658949
 31
0.0
  0
SPLINE
  5
12F
330
1F
100
AcDbEntity
  8
0
  6
Continuous
 62
     7
100
AcDbSpline
210
0.0
220
0.0
230
1.0
 70
     8
 71
     3
 72
    11
 73
     7
 74
     5
 42
0.000000001
 43
0.0000000001
 44
0.00000001
 40
0.0
 40
0.0
 40
0.0
 40
0.0
 40
0.0290847010423727
 40
0.0557370149899906
 40
0.0851158981526791
 40
0.1115495332824098
 40
0.1115495332824098
 40
0.1115495332824098
 40
0.1115495332824098
 10
-3.73734475541075
 20
52.76053709073858
 30
0.0
 10
-3.745076235453812
 20
52.75468767485238
 30
0.0
 10
-3.759892594111528
 20
52.74347802483243
 30
0.0
 10
-3.782430764248795
 20
52.72624427229057
 30
0.0
 10
-3.804193895105549
 20
52.70945167588972
 30
0.0
 10
-3.818810477658481
 20
52.69794192505599
 30
0.0
 10
-3.825733103058686
 20
52.69249073084046
 30
0.0
 11
-3.73734475541075
 21
52.76053709073858
 31
0.0
 11
-3.760523525119564
 21
52.74296824136547
 31
0.0
 11
-3.781697560639334
 21
52.72678164007428
 31
0.0
 11
-3.8049399241459
 21
52.70881190664251
 31
0.0
 11
-3.825733103058686
 21
52.69249073084046
 31
0.0
  0
SPLINE
  5
130
330
1F
100
AcDbEntity
  8
0
  6
Continuous
 62
     7
100
AcDbSpline
210
0.0
220
0.0
230
1.0
 70
     8
 71
     3
 72
    11
 73
     7
 74
     5
 42
0.000000001
 43
0.0000000001
 44
0.00000001
 40
0.0
 40
0.0
 40
0.0
 40
0.0
 40
0.0937368691977147
 40
0.2146815677590183
 40
0.3570659199162859
 40
0.4980856837958441
 40
0.4980856837958441
 40
0.4980856837958441
 40
0.4980856837958441
 10
-3.764621207649999
 20
52.68174238833624
 30
0.0
 10
-3.741235077713223
 20
52.65925692672089
 30
0.0
 10
-3.687674830452766
 20
52.60775942064903
 30
0.0
 10
-3.691666503798626
 20
52.4786279590901
 30
0.0
 10
-3.731718171259272
 20
52.3491264746479
 30
0.0
 10
-3.794495546398823
 20
52.27688015683946
 30
0.0
 10
-3.825733103058856
 20
52.24093093413592
 30
0.0
 11
-3.764621207649999
 21
52.68174238833624
 31
0.0
 11
-3.70513149588377
 21
52.6093022357984
 31
0.0
 11
-3.696308074173818
 21
52.48867980931875
 31
0.0
 11
-3.740613476105378
 21
52.35336412105347
 31
0.0
 11
-3.825733103058856
 21
52.24093093413592
 31
0.0
  0
SPLINE
  5
131
330
1F
100
AcDbEntity
  8
0
  6
Continuous
 62
     7
100
AcDbSpline
210
0.0
220
0.0
230
1.0
 70
     8
 71
     3
 72
     9
 73
     5
 74
     3
 42
0.000000001
 43
0.0000000001
 44
0.00000001
 40
0.0
 40
0.0
 40
0.0
 40
0.0
 40
0.0321049330570511
 40
0.0626572562846792
 40
0.0626572562846792
 40
0.0626572562846792
 40
0.0626572562846792
 10
-3.825733103058686
 20
52.69249073084046
 30
0.0
 10
-3.814904680085207
 20
52.69283208390145
 30
0.0
 10
-3.793771504001713
 20
52.6934982624811
 30
0.0
 10
-3.77417611747384
 20
52.68559574601733
 30
0.0
 10
-3.764621207649999
 20
52.68174238833624
 30
0.0
 11
-3.825733103058686
 21
52.69249073084046
 31
0.0
 11
-3.793651570810806
 21
52.6912651271364
 31
0.0
 11
-3.764621207649999
 21
52.68174238833624
 31
0.0
  0
SPLINE
  5
132
330
1F
100
AcDbEntity
  8
0
  6
Continuous
 62
     7
100
AcDbSpline
210
0.0
220
0.0
230
1.0
 70
     8
 71
     3
 72
     9
 73
     5
 74
     3
 42
0.000000001
 43
0.0000000001
 44
0.00000001
 40
0.0
 40
0.0
 40
0.0
 40
0.0
 40
0.0770948814041502
 40
0.1478057936334496
 40
0.1478057936334496
 40
0.1478057936334496
 40
0.1478057936334496
 10
-3.737344755410438
 20
52.81581997672788
 30
0.0
 10
-3.711583564882805
 20
52.820864940921
 30
0.0
 10
-3.662194381755025
 20
52.83053709326553
 30
0.0
 10
-3.614971793604485
 20
52.81343502381805
 30
0.0
 10
-3.592380310845489
 20
52.80525331282456
 30
0.0
 11
-3.737344755410438
 21
52.81581997672788
 31
0.0
 11
-3.660650631506355
 21
52.82367060584438
 31
0.0
 11
-3.592380310845489
 21
52.80525331282456
 31
0.0
  0
SPLINE
  5
133
330
1F
100
AcDbEntity
  8
0
  6
Continuous
 62
     7
100
AcDbSpline
210
0.0
220
0.0
230
1.0
 70
     8
 71
     3
 72
    11
 73
     7
 74
     5
 42
0.000000001
 43
0.0000000001
 44
0.00000001
 40
0.0
 40
0.0
 40
0.0
 40
0.0
 40
0.1237432630316174
 40
0.256800654038899
 40
0.3901271270434053
 40
0.5146099717071694
 40
0.5146099717071694
 40
0.5146099717071694
 40
0.5146099717071694
 10
-4.082059311238756
 20
52.2501593807499
 30
0.0
 10
-4.078656068073957
 20
52.29147466328755
 30
0.0
 10
-4.071593405355263
 20
52.37721501834796
 30
0.0
 10
-4.023222274306402
 20
52.49938009399229
 30
0.0
 10
-3.955675121532421
 20
52.61233312460629
 30
0.0
 10
-3.891887975661828
 20
52.67055358836205
 30
0.0
 10
-3.861088442118093
 20
52.69866524738481
 30
0.0
 11
-4.082059311238756
 21
52.2501593807499
 31
0.0
 11
-4.066096375725517
 21
52.37286871233216
 31
0.0
 11
-4.020010620422373
 21
52.49769007710408
 31
0.0
 11
-3.949002740037041
 21
52.61053435016436
 31
0.0
 11
-3.861088442118093
 21
52.69866524738481
 31
0.0
  0
SPLINE
  5
134
330
1F
100
AcDbEntity
  8
0
  6
Continuous
 62
     7
100
AcDbSpline
210
0.0
220
0.0
230
1.0
 70
     8
 71
     3
 72
     9
 73
     5
 74
     3
 42
0.000000001
 43
0.0000000001
 44
0.00000001
 40
0.0
 40
0.0
 40
0.0
 40
0.0
 40
0.0618652256645892
 40
0.133634954908228
 40
0.133634954908228
 40
0.133634954908228
 40
0.133634954908228
 10
-4.010588685174942
 20
52.18980743328624
 30
0.0
 10
-4.027562634824018
 20
52.20265315832434
 30
0.0
 10
-4.064228016343487
 20
52.23040119684219
 30
0.0
 10
-4.074028476596575
 20
52.27560756009967
 30
0.0
 10
-4.079291883633109
 20
52.29988600636807
 30
0.0
 11
-4.010588685174942
 21
52.18980743328624
 31
0.0
 11
-4.055752967008758
 21
52.2320861997017
 31
0.0
 11
-4.079291883633109
 21
52.29988600636807
 31
0.0
  0
SPLINE
  5
135
330
1F
100
AcDbEntity
  8
0
  6
Continuous
 62
     7
100
AcDbSpline
210
0.0
220
0.0
230
1.0
 70
     8
 71
     3
 72
     9
 73
     5
 74
     3
 42
0.000000001
 43
0.0000000001
 44
0.00000001
 40
0.0
 40
0.0
 40
0.0
 40
0.0
 40
0.0321049330568467
 40
0.0626572562844573
 40
0.0626572562844573
 40
0.0626572562844573
 40
0.0626572562844573
 10
-3.949476789766455
 20
52.17905909078229
 30
0.0
 10
-3.960305212739868
 20
52.17871773772123
 30
0.0
 10
-3.981438388823292
 20
52.17805155914141
 30
0.0
 10
-4.001033775351101
 20
52.18595407560513
 30
0.0
 10
-4.010588685174942
 20
52.18980743328624
 30
0.0
 11
-3.949476789766455
 21
52.17905909078229
 31
0.0
 11
-3.981558322014139
 21
52.18028469448612
 31
0.0
 11
-4.010588685174942
 21
52.18980743328624
 31
0.0
  0
SPLINE
  5
136
330
1F
100
AcDbEntity
  8
0
  6
Continuous
 62
     7
100
AcDbSpline
210
0.0
220
0.0
230
1.0
 70
     8
 71
     3
 72
    11
 73
     7
 74
     5
 42
0.000000001
 43
0.0000000001
 44
0.00000001
 40
0.0
 40
0.0
 40
0.0
 40
0.0
 40
0.1683417935746905
 40
0.388918909563623
 40
0.6455794480781167
 40
0.890829480516472
 40
0.890829480516472
 40
0.890829480516472
 40
0.890829480516472
 10
-3.592380310845489
 20
52.80525331282456
 30
0.0
 10
-3.551194206980526
 20
52.76386383755138
 30
0.0
 10
-3.45604224177068
 20
52.66824200347957
 30
0.0
 10
-3.474503090623156
 20
52.43436603413492
 30
0.0
 10
-3.556457878035779
 20
52.20584146705401
 30
0.0
 10
-3.677969950386239
 20
52.08719023542782
 30
0.0
 10
-3.737344755410438
 20
52.02921334060023
 30
0.0
 11
-3.592380310845489
 21
52.80525331282456
 31
0.0
 11
-3.488732876820472
 21
52.67260275532441
 31
0.0
 11
-3.48212050470092
 21
52.45212476269991
 31
0.0
 11
-3.574639191921212
 21
52.21271940541224
 31
0.0
 11
-3.737344755410438
 21
52.02921334060023
 31
0.0
  0
SPLINE
  5
137
330
1F
100
AcDbEntity
  8
0
  6
Continuous
 62
     7
100
AcDbSpline
210
0.0
220
0.0
230
1.0
 70
     8
 71
     3
 72
    11
 73
     7
 74
     5
 42
0.000000001
 43
0.0000000001
 44
0.00000001
 40
0.0
 40
0.0
 40
0.0
 40
0.0
 40
0.0468790409194161
 40
0.0898229145150702
 40
0.1371369942924007
 40
0.1796788999769908
 40
0.1796788999769908
 40
0.1796788999769908
 40
0.1796788999769908
 10
-3.861088442118093
 20
52.02262438323567
 30
0.0
 10
-3.868819391682825
 20
52.03620434186301
 30
0.0
 10
-3.883632319008129
 20
52.06222432387776
 30
0.0
 10
-3.906169653590676
 20
52.10199475127853
 30
0.0
 10
-3.927929295861861
 20
52.14054418987497
 30
0.0
 10
-3.942553183436847
 20
52.16668353411283
 30
0.0
 10
-3.949476789766455
 20
52.17905909078229
 30
0.0
 11
-3.861088442118093
 21
52.02262438323567
 31
0.0
 11
-3.884267320585487
 21
52.06337219384859
 31
0.0
 11
-3.905441466499885
 21
52.10073302662747
 31
0.0
 11
-3.928683713805684
 21
52.14194491918925
 31
0.0
 11
-3.949476789766455
 21
52.17905909078229
 31
0.0
  0
SPLINE
  5
138
330
1F
100
AcDbEntity
  8
0
  6
Continuous
 62
     7
100
AcDbSpline
210
0.0
220
0.0
230
1.0
 70
     8
 71
     3
 72
     9
 73
     5
 74
     3
 42
0.000000001
 43
0.0000000001
 44
0.00000001
 40
0.0
 40
0.0
 40
0.0
 40
0.0
 40
0.0770948814041537
 40
0.1478057936333829
 40
0.1478057936333829
 40
0.1478057936333829
 40
0.1478057936333829
 10
-3.861088442118093
 20
51.96734149724642
 30
0.0
 10
-3.886849632645726
 20
51.96229653305329
 30
0.0
 10
-3.936238815773482
 20
51.95262438070876
 30
0.0
 10
-3.983461403924009
 20
51.96972645015624
 30
0.0
 10
-4.006052886682984
 20
51.9779081611497
 30
0.0
 11
-3.861088442118093
 21
51.96734149724642
 31
0.0
 11
-3.93778256602218
 21
51.95949086812992
 31
0.0
 11
-4.006052886682984
 21
51.9779081611497
 31
0.0
  0
ARC
  5
139
102
{ACAD_REACTORS
330
196
102
}
330
1F
100
AcDbEntity
  8
1
  6
Continuous
 62
     7
100
AcDbCircle
 10
-3.66473986225147
 20
2.56666666666666
 30
0.0
 40
0.0333333333333441
100
AcDbArc
 50
209.999999999961
 51
330.000000000015
  0
ARC
  5
13A
102
{ACAD_REACTORS
330
197
102
}
330
1F
100
AcDbEntity
  8
1
  6
Continuous
 62
     7
100
AcDbCircle
 10
-4.13140652891813
 20
2.05400422960654
 30
0.0
 40
0.1333333333333258
100
AcDbArc
 50
180.0000000000124
 51
240.0183606311564
  0
ARC
  5
13B
330
1F
100
AcDbEntity
  8
1
  6
Continuous
 62
     7
100
AcDbCircle
 10
-5.33136950216344
 20
2.49999999999999
 30
0.0
 40
0.0333333333333343
100
AcDbArc
 50
119.9816393688929
 51
240.0183606311201
  0
ARC
  5
13C
330
1F
100
AcDbEntity
  8
1
  6
Continuous
 62
     7
100
AcDbCircle
 10
-1.99811022233949
 20
2.49999999999999
 30
0.0
 40
0.0333333333333331
100
AcDbArc
 50
299.9816393688373
 51
60.0183606311498
  0
ARC
  5
13D
102
{ACAD_REACTORS
330
199
102
}
330
1F
100
AcDbEntity
  8
1
  6
Continuous
 62
     7
100
AcDbCircle
 10
-3.13140652891813
 20
2.98450003203347
 30
0.0
 40
0.0666666666666731
100
AcDbArc
 50
60.01836063115253
 51
180.0
  0
ARC
  5
13E
102
{ACAD_REACTORS
330
199
102
}
330
1F
100
AcDbEntity
  8
1
  6
Continuous
 62
     7
100
AcDbCircle
 10
-3.13140652891813
 20
2.01549996796653
 30
0.0
 40
0.0666666666666633
100
AcDbArc
 50
180.0
 51
299.9816393688479
  0
MTEXT
  5
140
330
1F
100
AcDbEntity
  8
1
 62
     4
100
AcDbMText
 10
-9.59999999999975
 20
15.15575856997959
 30
0.0
 40
0.4
 41
0.0
 71
     5
 72
     1
  1
4,0
  7
CONVERTER_11
 73
     1
 44
1.32052821128451
  0
MTEXT
  5
141
330
1F
100
AcDbEntity
  8
1
 62
     4
100
AcDbMText
 10
-28.40000000000019
 20
18.87575856997962
 30
0.0
 40
0.4
 41
0.0
 71
     5
 72
     1
  1
PART NUMBERS
  7
CONVERTER_11
 73
     1
 44
1.32052821128451
  0
MTEXT
  5
142
330
1F
100
AcDbEntity
  8
1
 62
     4
100
AcDbMText
 10
-28.40000000000019
 20
16.43575856997962
 30
0.0
 40
0.4
 41
0.0
 71
     5
 72
     1
  1
CIFD 0.2
  7
CONVERTER_11
 73
     1
 44
1.32052821128451
  0
MTEXT
  5
143
330
1F
100
AcDbEntity
  8
1
 62
     4
100
AcDbMText
 10
-28.40000000000019
 20
15.1557585699796
 30
0.0
 40
0.4
 41
0.0
 71
     5
 72
     1
  1
CIFD 0.3
  7
CONVERTER_11
 73
     1
 44
1.32052821128451
  0
MTEXT
  5
144
330
1F
100
AcDbEntity
  8
1
 62
     4
100
AcDbMText
 10
-28.40000000000019
 20
13.8757585699796
 30
0.0
 40
0.4
 41
0.0
 71
     5
 72
     1
  1
CIFD 0.5
  7
CONVERTER_11
 73
     1
 44
1.32052821128451
  0
MTEXT
  5
145
330
1F
100
AcDbEntity
  8
1
 62
     4
100
AcDbMText
 10
-24.40000000000013
 20
13.8757585699796
 30
0.0
 40
0.4
 41
0.0
 71
     5
 72
     1
  1
1,12
  7
CONVERTER_11
 73
     1
 44
1.32052821128451
  0
MTEXT
  5
146
330
1F
100
AcDbEntity
  8
1
 62
     4
100
AcDbMText
 10
-24.40000000000013
 20
15.1557585699796
 30
0.0
 40
0.4
 41
0.0
 71
     5
 72
     1
  1
0,90
  7
CONVERTER_11
 73
     1
 44
1.32052821128451
  0
MTEXT
  5
147
330
1F
100
AcDbEntity
  8
1
 62
     4
100
AcDbMText
 10
-24.40000000000013
 20
16.43575856997962
 30
0.0
 40
0.4
 41
0.0
 71
     5
 72
     1
  1
0,64
  7
CONVERTER_11
 73
     1
 44
1.32052821128451
  0
MTEXT
  5
148
330
1F
100
AcDbEntity
  8
1
 62
     4
100
AcDbMText
 10
-24.40000000000013
 20
18.87575856997962
 30
0.0
 40
0.4
 41
0.0
 71
     5
 72
     1
  1
\U+00f8A
  7
CONVERTER_11
 73
     1
 44
1.32052821128451
  0
MTEXT
  5
149
330
1F
100
AcDbEntity
  8
1
 62
     4
100
AcDbMText
 10
-21.20000000000003
 20
17.67575856997961
 30
0.0
 40
0.4
 41
0.0
 71
     5
 72
     1
  1
mm
  7
CONVERTER_11
 73
     1
 44
1.32052821128451
  0
MTEXT
  5
14A
330
1F
100
AcDbEntity
  8
1
 62
     4
100
AcDbMText
 10
-19.40000000000002
 20
18.87575856997962
 30
0.0
 40
0.4
 41
0.0
 71
     5
 72
     1
  1
WIRE GAUGE
  7
CONVERTER_11
 73
     1
 44
1.32052821128451
  0
MTEXT
  5
14B
330
1F
100
AcDbEntity
  8
1
 62
     4
100
AcDbMText
 10
-28.40000000000019
 20
17.67575856997961
 30
0.0
 40
0.4
 41
0.0
 71
     5
 72
     1
  1
GOLD PLATED
  7
CONVERTER_11
 73
     1
 44
1.32052821128451
  0
MTEXT
  5
14C
330
1F
100
AcDbEntity
  8
1
 62
     4
100
AcDbMText
 10
-17.59999999999995
 20
17.67575856997961
 30
0.0
 40
0.4
 41
0.0
 71
     5
 72
     1
  1
AWG
  7
CONVERTER_11
 73
     1
 44
1.32052821128451
  0
MTEXT
  5
14D
330
1F
100
AcDbEntity
  8
1
 62
     4
100
AcDbMText
 10
-9.59999999999975
 20
18.27575856997961
 30
0.0
 40
0.4
 41
0.0
 71
     5
 72
     1
  1
STRIPPING\P LENGTH\P   mm
  7
CONVERTER_11
 73
     1
 44
1.02040816326531
  0
MTEXT
  5
14E
330
1F
100
AcDbEntity
  8
1
 62
     4
100
AcDbMText
 10
-13.59999999999984
 20
15.1557585699796
 30
0.0
 40
0.4
 41
0.0
 71
     5
 72
     1
  1
1
  7
CONVERTER_11
 73
     1
 44
1.32052821128451
  0
MTEXT
  5
14F
330
1F
100
AcDbEntity
  8
1
 62
     4
100
AcDbMText
 10
-13.59999999999984
 20
13.8757585699796
 30
0.0
 40
0.4
 41
0.0
 71
     5
 72
     1
  1
2
  7
CONVERTER_11
 73
     1
 44
1.32052821128451
  0
MTEXT
  5
151
330
1F
100
AcDbEntity
  8
1
 62
     4
100
AcDbMText
 10
-13.59999999999984
 20
18.27575856997961
 30
0.0
 40
0.4
 41
0.0
 71
     5
 72
     1
  1
IDENTIFICATION
  7
CONVERTER_12
 73
     1
 44
1.32052821128451
  0
TEXT
  5
152
330
1F
100
AcDbEntity
  8
1
 62
     4
100
AcDbText
 10
-20.57668857346017
 20
17.73979529597576
 30
0.0
 40
0.3
  1
2
 41
0.95
  7
CONVERTER_11
100
AcDbText
  0
MTEXT
  5
153
330
1F
100
AcDbEntity
  8
1
 62
     4
100
AcDbMText
 10
-24.40000000000013
 20
17.67575856997961
 30
0.0
 40
0.4
 41
0.0
 71
     5
 72
     1
  1
mm
  7
CONVERTER_11
 73
     1
 44
1.32052821128451
  0
MTEXT
  5
154
330
1F
100
AcDbEntity
  8
1
 62
     4
100
AcDbMText
 10
-13.59999999999984
 20
16.43575856997961
 30
0.0
 40
0.4
 41
0.0
 71
     5
 72
     1
  1
without groove
  7
CONVERTER_11
 73
     1
 44
1.32052821128451
  0
MTEXT
  5
156
330
1F
100
AcDbEntity
  8
1
 62
     7
100
AcDbMText
 10
-30.54473986225148
 20
2.49999999999999
 30
0.0
 40
0.9
 41
0.0
 71
     4
 72
     1
  1
CIFD\Pfemale crimp contact 5A
  7
CONVERTER_13
 73
     1
 44
0.90036014405762
  0
MTEXT
  5
157
330
1F
100
AcDbEntity
  8
1
 62
     7
100
AcDbMText
 10
-35.28000000000002
 20
3.25212788415119
 30
0.0
 40
0.6
 41
0.0
 71
     4
 72
     1
  1
10/06/09
  7
CONVERTER_13
 73
     1
 44
1.32052821128451
  0
MTEXT
  5
158
330
1F
100
AcDbEntity
  8
1
 62
     7
100
AcDbMText
 10
-35.28000000000002
 20
1.74999999999999
 30
0.0
 40
0.6
 41
0.0
 71
     4
 72
     1
  1
T.Tedeschi
  7
CONVERTER_13
 73
     1
 44
1.32052821128451
  0
MTEXT
  5
159
330
1F
100
AcDbEntity
  8
1
 62
     7
100
AcDbMText
 10
-8.06473986225147
 20
2.01212788415119
 30
0.0
 40
0.9
 41
0.0
 71
     5
 72
     1
  1
5:1
  7
CONVERTER_13
 73
     1
 44
1.32052821128451
  0
MTEXT
  5
15A
330
1F
100
AcDbEntity
  8
1
 62
     7
100
AcDbMText
 10
-38.80000000000003
 20
30.29999999999996
 30
0.0
 40
0.8
 41
0.0
 71
     5
 72
     1
  1
Diritti riservati      All rights reserved
  7
CONVERTER_13
 11
0.0
 21
1.0
 31
0.0
 73
     1
 44
1.32052821128451
  0
MTEXT
  5
15B
330
1F
100
AcDbEntity
  8
1
 62
     7
100
AcDbMText
 10
-37.40000000000001
 20
3.2521278841512
 30
0.0
 40
0.6
 41
0.0
 71
     4
 72
     1
  1
Date
  7
CONVERTER_13
 73
     1
 44
1.32052821128451
  0
MTEXT
  5
15C
330
1F
100
AcDbEntity
  8
1
 62
     7
100
AcDbMText
 10
-37.40000000000001
 20
1.74999999999999
 30
0.0
 40
0.6
 41
0.0
 71
     4
 72
     1
  1
Sign.
  7
CONVERTER_13
 73
     1
 44
1.32052821128451
  0
MTEXT
  5
15D
330
1F
100
AcDbEntity
  8
1
 62
     7
100
AcDbMText
 10
-8.06473986225147
 20
3.2521278841512
 30
0.0
 40
0.6
 41
0.0
 71
     5
 72
     1
  1
Scale
  7
CONVERTER_13
 73
     1
 44
1.32052821128451
  0
MTEXT
  5
15E
330
1F
100
AcDbEntity
  8
1
 62
     4
100
AcDbMText
 10
-21.20000000000002
 20
13.8757585699796
 30
0.0
 40
0.4
 41
0.0
 71
     5
 72
     1
  1
0,32-0,52
  7
CONVERTER_11
 73
     1
 44
1.32052821128451
  0
MTEXT
  5
15F
330
1F
100
AcDbEntity
  8
1
 62
     4
100
AcDbMText
 10
-21.20000000000002
 20
15.15575856997962
 30
0.0
 40
0.4
 41
0.0
 71
     5
 72
     1
  1
0,13-0,32
  7
CONVERTER_11
 73
     1
 44
1.32052821128451
  0
MTEXT
  5
160
330
1F
100
AcDbEntity
  8
1
 62
     4
100
AcDbMText
 10
-21.20000000000002
 20
16.43575856997962
 30
0.0
 40
0.4
 41
0.0
 71
     5
 72
     1
  1
0,08-0,20
  7
CONVERTER_11
 73
     1
 44
1.32052821128451
  0
MTEXT
  5
161
330
1F
100
AcDbEntity
  8
1
 62
     4
100
AcDbMText
 10
-17.59999999999994
 20
16.43575856997962
 30
0.0
 40
0.4
 41
0.0
 71
     5
 72
     1
  1
28-24
  7
CONVERTER_11
 73
     1
 44
1.32052821128451
  0
MTEXT
  5
162
330
1F
100
AcDbEntity
  8
1
 62
     4
100
AcDbMText
 10
-17.59999999999994
 20
15.15575856997962
 30
0.0
 40
0.4
 41
0.0
 71
     5
 72
     1
  1
26-22
  7
CONVERTER_11
 73
     1
 44
1.32052821128451
  0
MTEXT
  5
163
330
1F
100
AcDbEntity
  8
1
 62
     4
100
AcDbMText
 10
-17.59999999999994
 20
13.8757585699796
 30
0.0
 40
0.4
 41
0.0
 71
     5
 72
     1
  1
22-20
  7
CONVERTER_11
 73
     1
 44
1.32052821128451
  0
DIMENSION
  5
16F
330
1F
100
AcDbEntity
  8
1
100
AcDbDimension
  2
*D1
 10
-30.37933542428015
 20
42.18331083308707
 30
0.0
 11
-30.37933542428015
 21
34.98331083308705
 31
0.0
 70
    32
  1
<>
 71
     5
 42
-1.0
 53
0.00013888888889
  3
ME10_DIM_10
100
AcDbAlignedDimension
 13
-26.22247478663826
 23
27.78331083308704
 33
0.0
 14
-26.14417968040908
 24
42.18331083308707
 34
0.0
 50
90.0
100
AcDbRotatedDimension
  0
DIMENSION
  5
17C
330
1F
100
AcDbEntity
  8
1
100
AcDbDimension
  2
*D2
 10
-13.89006881250302
 20
44.3996424271353
 30
0.0
 11
-13.3300688125029
 21
45.0996424271353
 31
0.0
 70
    32
  1
øA
 71
     5
 42
-1.0
 53
0.00013888888889
  3
ME10_DIM_11
100
AcDbAlignedDimension
 13
-12.77006881250279
 23
42.03087240892146
 33
0.0
 14
-13.89006881250302
 24
42.03087240892146
 34
0.0
100
AcDbRotatedDimension
  0
DIMENSION
  5
188
330
1F
100
AcDbEntity
  8
1
100
AcDbDimension
  2
*D3
 10
-9.48543122037367
 20
42.18331083305728
 30
0.0
 11
-9.48543122037367
 21
40.18331083305723
 31
0.0
 70
    32
  1
<>
 71
     5
 42
-1.0
 53
0.00013888888889
  3
ME10_DIM_12
100
AcDbAlignedDimension
 13
-12.77006881250279
 23
38.18331083305717
 33
0.0
 14
-12.50006881250292
 24
42.18331083305728
 34
0.0
 50
90.0
100
AcDbRotatedDimension
  0
DIMENSION
  5
194
330
1F
100
AcDbEntity
  8
1
100
AcDbDimension
  2
*D4
 10
-26.38917968040897
 20
35.9700719760417
 30
0.0
 11
-22.2158098627997
 21
36.7000719760417
 31
0.0
 70
    32
  1
<>
 71
     5
 42
-1.0
 53
0.00013888888889
  3
ME10_DIM_13
100
AcDbAlignedDimension
 13
-24.239179680409
 23
35.78331083308704
 33
0.0
 14
-26.38917968040897
 24
35.78331083308704
 34
0.0
100
AcDbRotatedDimension
  0
HATCH
  5
195
330
1F
100
AcDbEntity
  8
1
  6
Continuous
 62
     3
100
AcDbHatch
 10
0.0
 20
0.0
 30
0.0
210
0.0
220
0.0
230
1.0
  2
_USER
 70
     0
 71
     1
 91
        1
 92
        1
 93
        5
 72
     1
 10
-12.77006881250284
 20
39.08331083305729
 11
-12.77006881250279
 21
42.03087240892146
 72
     1
 10
-12.77006881250279
 20
42.03087240892146
 11
-12.61763038836696
 21
42.18331083305728
 72
     1
 10
-12.61763038836696
 20
42.18331083305728
 11
-12.50006881250292
 21
42.18331083305728
 72
     1
 10
-12.50006881250292
 20
42.18331083305728
 11
-12.50006881250286
 21
39.08331083305729
 72
     1
 10
-12.50006881250286
 20
39.08331083305729
 11
-12.77006881250284
 21
39.08331083305729
 97
        5
330
68
330
6B
330
69
330
6A
330
83
 75
     1
 76
     0
 52
44.99999999999989
 41
0.25
 77
     0
 78
     1
 53
44.99999999999989
 43
0.0
 44
0.0
 45
-0.1767766952966365
 46
0.1767766952966372
 79
     0
 98
        1
 10
0.0
 20
0.0
  0
HATCH
  5
196
330
1F
100
AcDbEntity
  8
1
  6
Continuous
 62
     7
100
AcDbHatch
 10
0.0
 20
0.0
 30
0.0
210
0.0
220
0.0
230
1.0
  2
SOLID
 70
     1
 71
     1
 91
        1
 92
        1
 93
       16
 72
     2
 10
-3.3843997714132
 20
3.146243462406908
 40
0.052993242495063
 50
210.0000000000215
 51
360.0
 73
     0
 72
     1
 10
-3.331406528918137
 20
3.146243462406908
 11
-3.331406528918137
 21
1.861653814120352
 72
     2
 10
-3.398073195584786
 20
1.861653814120352
 40
0.0666666666666771
 50
0.0
 51
180.0
 73
     0
 72
     1
 10
-3.464739862251463
 20
1.861653814120352
 11
-3.464739862251463
 21
2.499999999999993
 72
     1
 10
-3.464739862251463
 20
2.499999999999993
 11
-3.464739862251463
 21
2.846410161513767
 72
     1
 10
-3.464739862251463
 20
2.846410161513767
 11
-3.635872348791992
 21
2.550000000000004
 72
     2
 10
-3.664739862251466
 20
2.566666666666656
 40
0.0333333333333441
 50
29.999999999985
 51
150.000000000039
 73
     0
 72
     1
 10
-3.693607375710968
 20
2.550000000000004
 11
-3.864739862251469
 21
2.846410161513767
 72
     1
 10
-3.864739862251469
 20
2.846410161513767
 11
-3.864739862251469
 21
2.499999999999993
 72
     1
 10
-3.864739862251469
 20
2.499999999999993
 11
-3.864739862251469
 21
2.169517014526583
 72
     2
 10
-3.931406528918146
 20
2.169517014526583
 40
0.0666666666666629
 50
0.0
 51
180.0
 73
     0
 72
     1
 10
-3.998073195584809
 20
2.169517014526583
 11
-3.998073195584809
 21
2.499999999999993
 72
     1
 10
-3.998073195584809
 20
2.499999999999993
 11
-3.998073195584809
 21
3.146243462406908
 72
     2
 10
-3.945079953089746
 20
3.146243462406908
 40
0.0529932424950674
 50
180.0
 51
329.9999999999861
 73
     0
 72
     1
 10
-3.899186458860115
 20
3.172740083654453
 11
-3.664739862251466
 21
2.766666666666644
 72
     1
 10
-3.664739862251466
 20
2.766666666666644
 11
-3.430293265642817
 21
3.172740083654453
 97
       16
330
CF
330
107
330
CE
330
D0
330
108
330
D1
330
C9
330
C8
330
139
330
C7
330
C6
330
D2
330
109
330
D3
330
10A
330
D4
 75
     0
 76
     1
 98
        1
 10
0.0
 20
0.0
  0
HATCH
  5
197
330
1F
100
AcDbEntity
  8
1
  6
Continuous
 62
     7
100
AcDbHatch
 10
0.0
 20
0.0
 30
0.0
210
0.0
220
0.0
230
1.0
  2
SOLID
 70
     1
 71
     1
 91
        1
 92
        1
 93
        7
 72
     2
 10
-4.198073195584811
 20
2.984500032033473
 40
0.0666666666666771
 50
0.0
 51
180.0
 73
     1
 72
     1
 10
-4.26473986225146
 20
2.984500032033473
 11
-4.26473986225146
 21
2.054004229606512
 72
     2
 10
-4.131406528918134
 20
2.054004229606541
 40
0.1333333333333258
 50
180.0000000000124
 51
240.0183606311564
 73
     1
 72
     1
 10
-4.198036189383402
 20
1.938512818133383
 11
-3.764721359150784
 21
1.68852349299916
 72
     2
 10
-3.731406528918143
 20
1.746269198735739
 40
0.066666666666673
 50
240.0183606311512
 51
420.0183606311514
 73
     1
 72
     1
 10
-3.698091698685502
 20
1.804014904472318
 11
-4.131406528918134
 21
2.054004229606541
 72
     1
 10
-4.131406528918134
 20
2.054004229606541
 11
-4.131406528918134
 21
2.984500032033473
 97
        7
330
10B
330
D5
330
13A
330
D8
330
10C
330
D7
330
D6
 75
     0
 76
     1
 98
        1
 10
0.0
 20
0.0
  0
HATCH
  5
198
330
1F
100
AcDbEntity
  8
1
  6
Continuous
 62
     7
100
AcDbHatch
 10
0.0
 20
0.0
 30
0.0
210
0.0
220
0.0
230
1.0
  2
SOLID
 70
     1
 71
     1
 91
        1
 92
        1
 93
        5
 72
     2
 10
-4.464739862251463
 20
2.830653878187327
 40
0.0666666666666487
 50
0.0
 51
180.0
 73
     1
 72
     1
 10
-4.53140652891814
 20
2.830653878187327
 11
-4.53140652891814
 21
2.169346121812644
 72
     2
 10
-4.464739862251463
 20
2.169346121812644
 40
0.0666666666666771
 50
180.0
 51
360.0
 73
     1
 72
     1
 10
-4.398073195584814
 20
2.169346121812644
 11
-4.398073195584814
 21
2.207850383452659
 72
     1
 10
-4.398073195584814
 20
2.207850383452659
 11
-4.398073195584814
 21
2.830653878187327
 97
        5
330
10D
330
DB
330
10E
330
DA
330
D9
 75
     0
 76
     1
 98
        1
 10
0.0
 20
0.0
  0
HATCH
  5
199
330
1F
100
AcDbEntity
  8
1
  6
Continuous
 62
     7
100
AcDbHatch
 10
0.0
 20
0.0
 30
0.0
210
0.0
220
0.0
230
1.0
  2
SOLID
 70
     1
 71
     1
 91
        1
 92
        1
 93
       14
 72
     2
 10
-3.131406528918134
 20
2.984500032033473
 40
0.0666666666666731
 50
60.01836063115253
 51
180.0
 73
     1
 72
     1
 10
-3.198073195584797
 20
2.984500032033473
 11
-3.198073195584797
 21
2.015499967966527
 72
     2
 10
-3.131406528918134
 20
2.015499967966527
 40
0.0666666666666633
 50
180.0
 51
299.9816393688479
 73
     1
 72
     1
 10
-3.098091698685494
 20
1.957754262229948
 11
-2.831425032018842
 21
2.111600416076065
 72
     2
 10
-2.864739862251469
 20
2.169346121812644
 40
0.0666666666666659
 50
299.9816393688382
 51
479.9816393688414
 73
     1
 72
     1
 10
-2.898054692484109
 20
2.227091827549238
 11
-3.064739862251471
 21
2.130927306529578
 72
     1
 10
-3.064739862251471
 20
2.130927306529578
 11
-3.064739862251471
 21
2.43333333333333
 72
     1
 10
-3.064739862251471
 20
2.43333333333333
 11
-2.864739862251469
 21
2.43333333333333
 72
     2
 10
-2.864739862251469
 20
2.499999999999993
 40
0.0666666666666629
 50
270.0
 51
450.0
 73
     1
 72
     1
 10
-2.864739862251469
 20
2.566666666666656
 11
-3.064739862251471
 21
2.566666666666656
 72
     1
 10
-3.064739862251471
 20
2.566666666666656
 11
-3.064739862251471
 21
2.869072693470393
 72
     1
 10
-3.064739862251471
 20
2.869072693470393
 11
-2.898054692484109
 21
2.772908172450748
 72
     2
 10
-2.864739862251469
 20
2.830653878187327
 40
0.0666666666666723
 50
240.0183606311521
 51
420.0183606311556
 73
     1
 72
     1
 10
-2.831425032018842
 20
2.888399583923892
 11
-3.098091698685494
 21
3.042245737770053
 97
       14
330
10F
330
DD
330
DE
330
DF
330
110
330
E0
330
E1
330
E2
330
111
330
E3
330
13E
330
C5
330
13D
330
DC
 75
     0
 76
     1
 98
        1
 10
0.0
 20
0.0
  0
HATCH
  5
19A
330
1F
100
AcDbEntity
  8
1
  6
Continuous
 62
     3
100
AcDbHatch
 10
0.0
 20
0.0
 30
0.0
210
0.0
220
0.0
230
1.0
  2
_USER
 70
     0
 71
     1
 91
        1
 92
        1
 93
       24
 72
     1
 10
-12.77006881250284
 20
38.48327748255876
 11
-12.50006881250286
 21
38.48327748255876
 72
     1
 10
-12.50006881250286
 20
38.48327748255876
 11
-12.50006881250292
 21
38.18331083305717
 72
     1
 10
-12.50006881250292
 20
38.18331083305717
 11
-12.60506881250288
 21
38.18331083305726
 72
     1
 10
-12.60506881250288
 20
38.18331083305726
 11
-12.60506881250288
 21
37.38331083305719
 72
     1
 10
-12.60506881250288
 20
37.38331083305719
 11
-12.25506881250291
 21
37.38331083305719
 72
     1
 10
-12.25506881250291
 20
37.38331083305719
 11
-12.25506881250291
 21
37.03331083308706
 72
     1
 10
-12.25506881250291
 20
37.03331083308706
 11
-12.40506881250278
 21
36.88331083308706
 72
     1
 10
-12.40506881250278
 20
36.88331083308706
 11
-12.25506881250291
 21
36.73331083308708
 72
     1
 10
-12.25506881250291
 20
36.73331083308708
 11
-12.25506881250291
 21
36.5814724666805
 72
     4
 94
        3
 73
     0
 74
     0
 95
        9
 96
        5
 40
0.0
 40
0.0
 40
0.0
 40
0.0
 40
1.070088507638273
 40
2.150516075642549
 40
2.150516075642549
 40
2.150516075642549
 40
2.150516075642549
 10
-12.25506881250291
 20
36.5814724666805
 10
-12.61155664821619
 20
36.56825135142078
 10
-13.32797666069171
 20
36.54168140014281
 10
-14.04488919233752
 20
36.54279827499413
 10
-14.40506881250286
 20
36.5433594072719
 72
     1
 10
-14.40506881250286
 20
36.5433594072719
 11
-14.40506881250286
 21
36.73331083308708
 72
     1
 10
-14.40506881250286
 20
36.73331083308708
 11
-14.255068812503
 21
36.88331083308706
 72
     1
 10
-14.255068812503
 20
36.88331083308706
 11
-14.40506881250286
 21
37.03331083308706
 72
     1
 10
-14.40506881250286
 20
37.03331083308706
 11
-14.405068812503
 21
37.38331083305719
 72
     1
 10
-14.405068812503
 20
37.38331083305719
 11
-14.05506881250298
 21
37.38331083305719
 72
     1
 10
-14.05506881250298
 20
37.38331083305719
 11
-14.05506881250298
 21
38.18331083305726
 72
     1
 10
-14.05506881250298
 20
38.18331083305726
 11
-14.16006881250289
 21
38.18331083305726
 72
     1
 10
-14.16006881250289
 20
38.18331083305726
 11
-14.16006881250289
 21
42.18331083305728
 72
     1
 10
-14.16006881250289
 20
42.18331083305728
 11
-14.04250723663861
 21
42.18331083305709
 72
     1
 10
-14.04250723663861
 20
42.18331083305709
 11
-13.89006881250302
 21
42.03087240892146
 72
     1
 10
-13.89006881250302
 20
42.03087240892146
 11
-13.89006881250302
 21
38.18331083305717
 72
     1
 10
-13.89006881250302
 20
38.18331083305717
 11
-13.3300688125029
 21
37.86031083305719
 72
     1
 10
-13.3300688125029
 20
37.86031083305719
 11
-12.77006881250279
 21
38.18331083305717
 72
     1
 10
-12.77006881250279
 20
38.18331083305717
 11
-12.77006881250284
 21
38.48327748255876
 97
       24
330
65
330
74
330
79
330
78
330
7A
330
77
330
7B
330
7C
330
7D
330
A2
330
9C
330
9D
330
A3
330
116
330
A0
330
A6
330
9B
330
A1
330
82
330
A9
330
6C
330
85
330
86
330
84
 75
     1
 76
     0
 52
44.99999999999989
 41
0.25
 77
     0
 78
     1
 53
44.99999999999989
 43
0.0
 44
0.0
 45
-0.1767766952966365
 46
0.1767766952966372
 79
     0
 98
        1
 10
0.0
 20
0.0
  0
ENDSEC
  0
SECTION
  2
OBJECTS
  0
DICTIONARY
  5
C
330
0
100
AcDbDictionary
281
     1
  3
ACAD_GROUP
350
D
  3
ACAD_LAYOUT
350
1A
  3
ACAD_MATERIAL
350
3B
  3
ACAD_MLEADERSTYLE
350
19D
  3
ACAD_MLINESTYLE
350
17
  3
ACAD_PLOTSETTINGS
350
19
  3
ACAD_PLOTSTYLENAME
350
E
  3
ACAD_VISUALSTYLE
350
2A
  3
AcDbVariableDictionary
350
19B
  0
DICTIONARY
  5
D
102
{ACAD_REACTORS
330
C
102
}
330
C
100
AcDbDictionary
281
     1
  0
DICTIONARY
  5
1A
102
{ACAD_REACTORS
330
C
102
}
330
C
100
AcDbDictionary
281
     1
  3
Layout1
350
1E
  3
Layout2
350
26
  3
Model
350
22
  0
DICTIONARY
  5
3B
102
{ACAD_REACTORS
330
C
102
}
330
C
100
AcDbDictionary
281
     1
  3
ByBlock
350
3D
  3
ByLayer
350
3C
  3
Global
350
3E
  0
DICTIONARY
  5
19D
102
{ACAD_REACTORS
330
C
102
}
330
C
100
AcDbDictionary
281
     1
  0
DICTIONARY
  5
17
102
{ACAD_REACTORS
330
C
102
}
330
C
100
AcDbDictionary
281
     1
  3
Standard
350
18
  0
DICTIONARY
  5
19
102
{ACAD_REACTORS
330
C
102
}
330
C
100
AcDbDictionary
281
     1
  0
ACDBDICTIONARYWDFLT
  5
E
102
{ACAD_REACTORS
330
C
102
}
330
C
100
AcDbDictionary
281
     1
  3
Normal
350
F
100
AcDbDictionaryWithDefault
340
F
  0
DICTIONARY
  5
2A
102
{ACAD_REACTORS
330
C
102
}
330
C
100
AcDbDictionary
281
     1
  3
2dWireframe
350
2F
  3
3D Hidden
350
31
  3
3dWireframe
350
30
  3
Basic
350
32
  3
Brighten
350
36
  3
ColorChange
350
3A
  3
Conceptual
350
34
  3
Dim
350
35
  3
Facepattern
350
39
  3
Flat
350
2B
  3
FlatWithEdges
350
2C
  3
Gouraud
350
2D
  3
GouraudWithEdges
350
2E
  3
Linepattern
350
38
  3
Realistic
350
33
  3
Thicken
350
37
  0
DICTIONARY
  5
19B
102
{ACAD_REACTORS
330
C
102
}
330
C
100
AcDbDictionary
281
     1
  3
DIMASSOC
350
19E
  3
HIDETEXT
350
19F
  0
LAYOUT
  5
1E
102
{ACAD_REACTORS
330
1A
102
}
330
1A
100
AcDbPlotSettings
  1

  2
none_device
  4

  6

 40
0.0
 41
0.0
 42
0.0
 43
0.0
 44
0.0
 45
0.0
 46
0.0
 47
0.0
 48
0.0
 49
0.0
140
0.0
141
0.0
142
1.0
143
1.0
 70
   688
 72
     0
 73
     0
 74
     5
  7

 75
    16
147
1.0
148
0.0
149
0.0
100
AcDbLayout
  1
Layout1
 70
     1
 71
     1
 10
0.0
 20
0.0
 11
12.0
 21
9.0
 12
0.0
 22
0.0
 32
0.0
 14
1.00000000000000E+20
 24
1.00000000000000E+20
 34
1.00000000000000E+20
 15
-1.00000000000000E+20
 25
-1.00000000000000E+20
 35
-1.00000000000000E+20
146
0.0
 13
0.0
 23
0.0
 33
0.0
 16
1.0
 26
0.0
 36
0.0
 17
0.0
 27
1.0
 37
0.0
 76
     0
330
1B
  0
LAYOUT
  5
26
102
{ACAD_REACTORS
330
1A
102
}
330
1A
100
AcDbPlotSettings
  1

  2
none_device
  4

  6

 40
0.0
 41
0.0
 42
0.0
 43
0.0
 44
0.0
 45
0.0
 46
0.0
 47
0.0
 48
0.0
 49
0.0
140
0.0
141
0.0
142
1.0
143
1.0
 70
   688
 72
     0
 73
     0
 74
     5
  7

 75
    16
147
1.0
148
0.0
149
0.0
100
AcDbLayout
  1
Layout2
 70
     1
 71
     2
 10
0.0
 20
0.0
 11
0.0
 21
0.0
 12
0.0
 22
0.0
 32
0.0
 14
0.0
 24
0.0
 34
0.0
 15
0.0
 25
0.0
 35
0.0
146
0.0
 13
0.0
 23
0.0
 33
0.0
 16
1.0
 26
0.0
 36
0.0
 17
0.0
 27
1.0
 37
0.0
 76
     0
330
23
  0
LAYOUT
  5
22
102
{ACAD_REACTORS
330
1A
102
}
330
1A
100
AcDbPlotSettings
  1

  2
none_device
  4

  6

 40
0.0
 41
0.0
 42
0.0
 43
0.0
 44
0.0
 45
0.0
 46
0.0
 47
0.0
 48
0.0
 49
0.0
140
0.0
141
0.0
142
1.0
143
1.0
 70
  1712
 72
     0
 73
     0
 74
     0
  7

 75
     0
147
1.0
148
0.0
149
0.0
100
AcDbLayout
  1
Model
 70
     1
 71
     0
 10
0.0
 20
0.0
 11
12.0
 21
9.0
 12
0.0
 22
0.0
 32
0.0
 14
-42.00000000000004
 24
0.0
 34
0.0
 15
0.0
 25
59.40000000000003
 35
0.0
146
0.0
 13
0.0
 23
0.0
 33
0.0
 16
1.0
 26
0.0
 36
0.0
 17
0.0
 27
1.0
 37
0.0
 76
     0
330
1F
331
29
  0
MATERIAL
  5
3D
102
{ACAD_REACTORS
330
3B
102
}
102
{ACAD_XDICTIONARY
360
1C2
102
}
330
3B
100
AcDbMaterial
  1
ByBlock
  0
MATERIAL
  5
3C
102
{ACAD_REACTORS
330
3B
102
}
102
{ACAD_XDICTIONARY
360
1C0
102
}
330
3B
100
AcDbMaterial
  1
ByLayer
  0
MATERIAL
  5
3E
102
{ACAD_REACTORS
330
3B
102
}
102
{ACAD_XDICTIONARY
360
1C4
102
}
330
3B
100
AcDbMaterial
  1
Global
  0
MLINESTYLE
  5
18
102
{ACAD_REACTORS
330
17
102
}
330
17
100
AcDbMlineStyle
  2
Standard
 70
     0
  3

 62
   256
 51
90.0
 52
90.0
 71
     2
 49
0.5
 62
   256
  6
BYLAYER
 49
-0.5
 62
   256
  6
BYLAYER
  0
ACDBPLACEHOLDER
  5
F
102
{ACAD_REACTORS
330
E
102
}
330
E
  0
VISUALSTYLE
  5
2F
102
{ACAD_REACTORS
330
2A
102
}
102
{ACAD_XDICTIONARY
360
1A8
102
}
330
2A
100
AcDbVisualStyle
  2
2dWireframe
 70
     4
 71
     0
 72
     2
 73
     0
 90
        0
 40
-0.6
 41
-30.0
 62
     5
 63
     7
 74
     1
 91
        4
 64
     7
 65
   257
 75
     1
175
     1
 42
1.0
 92
        0
 66
   257
 43
1.0
 76
     1
 77
     6
 78
     2
 67
     7
 79
     5
170
     0
171
     0
290
     0
174
     0
 93
        1
 44
0.0
173
     0
291
     0
 45
0.0
1001
ACAD
1000
AcDbSavedByObjectVersion
1070
     0
  0
VISUALSTYLE
  5
31
102
{ACAD_REACTORS
330
2A
102
}
102
{ACAD_XDICTIONARY
360
1AC
102
}
330
2A
100
AcDbVisualStyle
  2
3D Hidden
 70
     6
 71
     1
 72
     2
 73
     2
 90
        0
 40
-0.6
 41
-30.0
 62
     5
 63
     7
 74
     2
 91
        2
 64
     7
 65
   257
 75
     2
175
     1
 42
40.0
 92
        0
 66
   257
 43
1.0
 76
     1
 77
     6
 78
     2
 67
     7
 79
     3
170
     0
171
     0
290
     0
174
     0
 93
        1
 44
0.0
173
     0
291
     0
 45
0.0
1001
ACAD
1000
AcDbSavedByObjectVersion
1070
     0
  0
VISUALSTYLE
  5
30
102
{ACAD_REACTORS
330
2A
102
}
102
{ACAD_XDICTIONARY
360
1AA
102
}
330
2A
100
AcDbVisualStyle
  2
3dWireframe
 70
     5
 71
     0
 72
     2
 73
     0
 90
        0
 40
-0.6
 41
-30.0
 62
     5
 63
     7
 74
     1
 91
        4
 64
     7
 65
   257
 75
     1
175
     1
 42
1.0
 92
        0
 66
   257
 43
1.0
 76
     1
 77
     6
 78
     2
 67
     7
 79
     5
170
     0
171
     0
290
     0
174
     0
 93
        1
 44
0.0
173
     0
291
     0
 45
0.0
1001
ACAD
1000
AcDbSavedByObjectVersion
1070
     0
  0
VISUALSTYLE
  5
32
102
{ACAD_REACTORS
330
2A
102
}
102
{ACAD_XDICTIONARY
360
1AE
102
}
330
2A
100
AcDbVisualStyle
  2
Basic
 70
     7
 71
     1
 72
     0
 73
     1
 90
        0
 40
-0.6
 41
-30.0
 62
     5
 63
     7
 74
     0
 91
        4
 64
     7
 65
   257
 75
     1
175
     1
 42
1.0
 92
        8
 66
     7
 43
1.0
 76
     1
 77
     6
 78
     2
 67
     7
 79
     5
170
     0
171
     0
290
     0
174
     0
 93
        1
 44
0.0
173
     0
291
     1
 45
0.0
1001
ACAD
1000
AcDbSavedByObjectVersion
1070
     0
  0
VISUALSTYLE
  5
36
102
{ACAD_REACTORS
330
2A
102
}
102
{ACAD_XDICTIONARY
360
1B6
102
}
330
2A
100
AcDbVisualStyle
  2
Brighten
 70
    12
 71
     2
 72
     2
 73
     0
 90
        0
 40
-0.6
 41
-30.0
 62
     5
 63
     7
 74
     1
 91
        4
 64
     7
 65
   257
 75
     1
175
     1
 42
1.0
 92
        8
 66
     7
 43
1.0
 76
     1
 77
     6
 78
     2
 67
     7
 79
     5
170
     0
171
     0
290
     0
174
     0
 93
        1
 44
50.0
173
     0
291
     1
 45
0.0
1001
ACAD
1000
AcDbSavedByObjectVersion
1070
     0
  0
VISUALSTYLE
  5
3A
102
{ACAD_REACTORS
330
2A
102
}
102
{ACAD_XDICTIONARY
360
1BE
102
}
330
2A
100
AcDbVisualStyle
  2
ColorChange
 70
    16
 71
     2
 72
     2
 73
     3
 90
        0
 40
-0.6
 41
-30.0
 62
     5
 63
     8
 74
     1
 91
        4
 64
     7
 65
   257
 75
     1
175
     1
 42
1.0
 92
        8
 66
     8
 43
1.0
 76
     1
 77
     6
 78
     2
 67
     7
 79
     5
170
     0
171
     0
290
     0
174
     0
 93
        1
 44
0.0
173
     0
291
     1
 45
0.0
1001
ACAD
1000
AcDbSavedByObjectVersion
1070
     0
  0
VISUALSTYLE
  5
34
102
{ACAD_REACTORS
330
2A
102
}
102
{ACAD_XDICTIONARY
360
1B2
102
}
330
2A
100
AcDbVisualStyle
  2
Conceptual
 70
     9
 71
     3
 72
     2
 73
     0
 90
        0
 40
-0.6
 41
-30.0
 62
     5
 63
     7
 74
     2
 91
        2
 64
     7
 65
   257
 75
     1
175
     1
 42
40.0
 92
        8
 66
     7
 43
1.0
 76
     1
 77
     6
 78
     2
 67
     7
 79
     3
170
     0
171
     0
290
     0
174
     0
 93
        1
 44
0.0
173
     0
291
     0
 45
0.0
1001
ACAD
1000
AcDbSavedByObjectVersion
1070
     0
  0
VISUALSTYLE
  5
35
102
{ACAD_REACTORS
330
2A
102
}
102
{ACAD_XDICTIONARY
360
1B4
102
}
330
2A
100
AcDbVisualStyle
  2
Dim
 70
    11
 71
     2
 72
     2
 73
     0
 90
        0
 40
-0.6
 41
-30.0
 62
     5
 63
     7
 74
     1
 91
        4
 64
     7
 65
   257
 75
     1
175
     1
 42
1.0
 92
        8
 66
     7
 43
1.0
 76
     1
 77
     6
 78
     2
 67
     7
 79
     5
170
     0
171
     0
290
     0
174
     0
 93
        1
 44
-50.0
173
     0
291
     1
 45
0.0
1001
ACAD
1000
AcDbSavedByObjectVersion
1070
     0
  0
VISUALSTYLE
  5
39
102
{ACAD_REACTORS
330
2A
102
}
102
{ACAD_XDICTIONARY
360
1BC
102
}
330
2A
100
AcDbVisualStyle
  2
Facepattern
 70
    15
 71
     2
 72
     2
 73
     0
 90
        0
 40
-0.6
 41
-30.0
 62
     5
 63
     7
 74
     1
 91
        4
 64
     7
 65
   257
 75
     1
175
     1
 42
1.0
 92
        8
 66
     7
 43
1.0
 76
     1
 77
     6
 78
     2
 67
     7
 79
     5
170
     0
171
     0
290
     0
174
     0
 93
        1
 44
0.0
173
     0
291
     1
 45
0.0
1001
ACAD
1000
AcDbSavedByObjectVersion
1070
     0
  0
VISUALSTYLE
  5
2B
102
{ACAD_REACTORS
330
2A
102
}
102
{ACAD_XDICTIONARY
360
1A0
102
}
330
2A
100
AcDbVisualStyle
  2
Flat
 70
     0
 71
     2
 72
     1
 73
     1
 90
        2
 40
-0.6
 41
30.0
 62
     5
 63
     7
 74
     0
 91
        4
 64
     7
 65
   257
 75
     1
175
     1
 42
1.0
 92
        8
 66
     7
 43
1.0
 76
     1
 77
     6
 78
     2
 67
     7
 79
     5
170
     0
171
     0
290
     0
174
     0
 93
       13
 44
0.0
173
     0
291
     1
 45
0.0
1001
ACAD
1000
AcDbSavedByObjectVersion
1070
     0
  0
VISUALSTYLE
  5
2C
102
{ACAD_REACTORS
330
2A
102
}
102
{ACAD_XDICTIONARY
360
1A2
102
}
330
2A
100
AcDbVisualStyle
  2
FlatWithEdges
 70
     1
 71
     2
 72
     1
 73
     1
 90
        2
 40
-0.6
 41
30.0
 62
     5
 63
     7
 74
     1
 91
        4
 64
     7
 65
   257
 75
     1
175
     1
 42
1.0
 92
        0
 66
   257
 43
1.0
 76
     1
 77
     6
 78
     2
 67
     7
 79
     5
170
     0
171
     0
290
     0
174
     0
 93
       13
 44
0.0
173
     0
291
     1
 45
0.0
1001
ACAD
1000
AcDbSavedByObjectVersion
1070
     0
  0
VISUALSTYLE
  5
2D
102
{ACAD_REACTORS
330
2A
102
}
102
{ACAD_XDICTIONARY
360
1A4
102
}
330
2A
100
AcDbVisualStyle
  2
Gouraud
 70
     2
 71
     2
 72
     2
 73
     1
 90
        2
 40
-0.6
 41
30.0
 62
     5
 63
     7
 74
     0
 91
        4
 64
     7
 65
   257
 75
     1
175
     1
 42
1.0
 92
        0
 66
     7
 43
1.0
 76
     1
 77
     6
 78
     2
 67
     7
 79
     5
170
     0
171
     0
290
     0
174
     0
 93
       13
 44
0.0
173
     0
291
     1
 45
0.0
1001
ACAD
1000
AcDbSavedByObjectVersion
1070
     0
  0
VISUALSTYLE
  5
2E
102
{ACAD_REACTORS
330
2A
102
}
102
{ACAD_XDICTIONARY
360
1A6
102
}
330
2A
100
AcDbVisualStyle
  2
GouraudWithEdges
 70
     3
 71
     2
 72
     2
 73
     1
 90
        2
 40
-0.6
 41
30.0
 62
     5
 63
     7
 74
     1
 91
        4
 64
     7
 65
   257
 75
     1
175
     1
 42
1.0
 92
        0
 66
   257
 43
1.0
 76
     1
 77
     6
 78
     2
 67
     7
 79
     5
170
     0
171
     0
290
     0
174
     0
 93
       13
 44
0.0
173
     0
291
     1
 45
0.0
1001
ACAD
1000
AcDbSavedByObjectVersion
1070
     0
  0
VISUALSTYLE
  5
38
102
{ACAD_REACTORS
330
2A
102
}
102
{ACAD_XDICTIONARY
360
1BA
102
}
330
2A
100
AcDbVisualStyle
  2
Linepattern
 70
    14
 71
     2
 72
     2
 73
     0
 90
        0
 40
-0.6
 41
-30.0
 62
     5
 63
     7
 74
     1
 91
        4
 64
     7
 65
   257
 75
     7
175
     7
 42
1.0
 92
        8
 66
     7
 43
1.0
 76
     1
 77
     6
 78
     2
 67
     7
 79
     5
170
     0
171
     0
290
     0
174
     0
 93
        1
 44
0.0
173
     0
291
     1
 45
0.0
1001
ACAD
1000
AcDbSavedByObjectVersion
1070
     0
  0
VISUALSTYLE
  5
33
102
{ACAD_REACTORS
330
2A
102
}
102
{ACAD_XDICTIONARY
360
1B0
102
}
330
2A
100
AcDbVisualStyle
  2
Realistic
 70
     8
 71
     2
 72
     2
 73
     0
 90
        0
 40
-0.6
 41
-30.0
 62
     5
 63
     7
 74
     1
 91
        0
 64
     7
 65
   257
 75
     1
175
     1
 42
1.0
 92
        8
 66
     8
 43
1.0
 76
     1
 77
     6
 78
     2
 67
     7
 79
     5
170
     0
171
     0
290
     0
174
     0
 93
       13
 44
0.0
173
     0
291
     0
 45
0.0
1001
ACAD
1000
AcDbSavedByObjectVersion
1070
     0
  0
VISUALSTYLE
  5
37
102
{ACAD_REACTORS
330
2A
102
}
102
{ACAD_XDICTIONARY
360
1B8
102
}
330
2A
100
AcDbVisualStyle
  2
Thicken
 70
    13
 71
     2
 72
     2
 73
     0
 90
        0
 40
-0.6
 41
-30.0
 62
     5
 63
     7
 74
     1
 91
        4
 64
     7
 65
   257
 75
     1
175
     1
 42
1.0
 92
       12
 66
     7
 43
1.0
 76
     1
 77
     6
 78
     2
 67
     7
 79
     5
170
     0
171
     0
290
     0
174
     0
 93
        1
 44
0.0
173
     0
291
     1
 45
0.0
1001
ACAD
1000
AcDbSavedByObjectVersion
1070
     0
  0
DICTIONARYVAR
  5
19E
102
{ACAD_REACTORS
330
19B
102
}
330
19B
100
DictionaryVariables
280
     0
  1
2
  0
DICTIONARYVAR
  5
19F
102
{ACAD_REACTORS
330
19B
102
}
330
19B
100
DictionaryVariables
280
     0
  1
1
  0
DICTIONARY
  5
1C2
330
3D
100
AcDbDictionary
280
     1
281
     1
  3
ACAD_XREC_ROUNDTRIP
360
1C3
  0
DICTIONARY
  5
1C0
330
3C
100
AcDbDictionary
280
     1
281
     1
  3
ACAD_XREC_ROUNDTRIP
360
1C1
  0
DICTIONARY
  5
1C4
330
3E
100
AcDbDictionary
280
     1
281
     1
  3
ACAD_XREC_ROUNDTRIP
360
1C5
  0
DICTIONARY
  5
1A8
330
2F
100
AcDbDictionary
280
     1
281
     1
  3
ACAD_XREC_ROUNDTRIP
360
1A9
  0
DICTIONARY
  5
1AC
330
31
100
AcDbDictionary
280
     1
281
     1
  3
ACAD_XREC_ROUNDTRIP
360
1AD
  0
DICTIONARY
  5
1AA
330
30
100
AcDbDictionary
280
     1
281
     1
  3
ACAD_XREC_ROUNDTRIP
360
1AB
  0
DICTIONARY
  5
1AE
330
32
100
AcDbDictionary
280
     1
281
     1
  3
ACAD_XREC_ROUNDTRIP
360
1AF
  0
DICTIONARY
  5
1B6
330
36
100
AcDbDictionary
280
     1
281
     1
  3
ACAD_XREC_ROUNDTRIP
360
1B7
  0
DICTIONARY
  5
1BE
330
3A
100
AcDbDictionary
280
     1
281
     1
  3
ACAD_XREC_ROUNDTRIP
360
1BF
  0
DICTIONARY
  5
1B2
330
34
100
AcDbDictionary
280
     1
281
     1
  3
ACAD_XREC_ROUNDTRIP
360
1B3
  0
DICTIONARY
  5
1B4
330
35
100
AcDbDictionary
280
     1
281
     1
  3
ACAD_XREC_ROUNDTRIP
360
1B5
  0
DICTIONARY
  5
1BC
330
39
100
AcDbDictionary
280
     1
281
     1
  3
ACAD_XREC_ROUNDTRIP
360
1BD
  0
DICTIONARY
  5
1A0
330
2B
100
AcDbDictionary
280
     1
281
     1
  3
ACAD_XREC_ROUNDTRIP
360
1A1
  0
DICTIONARY
  5
1A2
330
2C
100
AcDbDictionary
280
     1
281
     1
  3
ACAD_XREC_ROUNDTRIP
360
1A3
  0
DICTIONARY
  5
1A4
330
2D
100
AcDbDictionary
280
     1
281
     1
  3
ACAD_XREC_ROUNDTRIP
360
1A5
  0
DICTIONARY
  5
1A6
330
2E
100
AcDbDictionary
280
     1
281
     1
  3
ACAD_XREC_ROUNDTRIP
360
1A7
  0
DICTIONARY
  5
1BA
330
38
100
AcDbDictionary
280
     1
281
     1
  3
ACAD_XREC_ROUNDTRIP
360
1BB
  0
DICTIONARY
  5
1B0
330
33
100
AcDbDictionary
280
     1
281
     1
  3
ACAD_XREC_ROUNDTRIP
360
1B1
  0
DICTIONARY
  5
1B8
330
37
100
AcDbDictionary
280
     1
281
     1
  3
ACAD_XREC_ROUNDTRIP
360
1B9
  0
XRECORD
  5
1C3
102
{ACAD_REACTORS
330
1C2
102
}
330
1C2
100
AcDbXrecord
280
     1
102
MATERIAL
148
0.0
149
0.0
149
0.0
 93
        0
 94
      127
282
     0
 72
     1
 77
     1
171
     1
175
     1
179
     1
273
     0
  0
XRECORD
  5
1C1
102
{ACAD_REACTORS
330
1C0
102
}
330
1C0
100
AcDbXrecord
280
     1
102
MATERIAL
148
0.0
149
0.0
149
0.0
 93
        0
 94
      127
282
     0
 72
     1
 77
     1
171
     1
175
     1
179
     1
273
     0
  0
XRECORD
  5
1C5
102
{ACAD_REACTORS
330
1C4
102
}
330
1C4
100
AcDbXrecord
280
     1
102
MATERIAL
148
0.0
149
0.0
149
0.0
 93
        0
 94
      127
282
     0
 72
     1
 77
     1
171
     1
175
     1
179
     1
273
     0
  0
XRECORD
  5
1A9
102
{ACAD_REACTORS
330
1A8
102
}
330
1A8
100
AcDbXrecord
280
     1
102
RTVSPropertyOp0
 70
     1
102
RTVSPropertyOp1
 70
     1
102
RTVSPropertyOp2
 70
     1
102
RTVSPropertyOp3
 70
     1
102
RTVSPropertyOp4
 70
     1
102
RTVSPropertyOp5
 70
     1
102
RTVSPropertyOp6
 70
     1
102
RTVSPropertyOp7
 70
     1
102
RTVSPropertyOp8
 70
     1
102
RTVSPropertyOp9
 70
     1
102
RTVSPropertyOp10
 70
     1
102
RTVSPropertyOp11
 70
     1
102
RTVSPropertyOp12
 70
     1
102
RTVSPropertyOp13
 70
     1
102
RTVSPropertyOp14
 70
     1
102
RTVSPropertyOp15
 70
     1
102
RTVSPropertyOp16
 70
     1
102
RTVSPropertyOp17
 70
     1
102
RTVSPropertyOp18
 70
     1
102
RTVSPropertyOp19
 70
     1
102
RTVSPropertyOp20
 70
     1
102
RTVSPropertyOp21
 70
     1
102
RTVSPropertyOp22
 70
     1
102
RTVSPropertyOp23
 70
     1
102
RTVSPropertyOp24
 70
     1
102
RTVSPropertyOp25
 70
     1
102
RTVSPropertyOp26
 70
     1
102
RTVSPropertyOp27
 70
     1
102
RTVSPropertyOp28
 70
     1
102
RTVSPropertyOp29
 70
     1
102
RTVSPropertyOp30
 70
     1
102
RTVSPropertyOp31
 70
     1
102
RTVSPropertyOp32
 70
     1
  0
XRECORD
  5
1AD
102
{ACAD_REACTORS
330
1AC
102
}
330
1AC
100
AcDbXrecord
280
     1
102
RTVSPropertyOp0
 70
     1
102
RTVSPropertyOp1
 70
     1
102
RTVSPropertyOp2
 70
     1
102
RTVSPropertyOp3
 70
     1
102
RTVSPropertyOp4
 70
     1
102
RTVSPropertyOp5
 70
     1
102
RTVSPropertyOp6
 70
     1
102
RTVSPropertyOp7
 70
     1
102
RTVSPropertyOp8
 70
     1
102
RTVSPropertyOp9
 70
     1
102
RTVSPropertyOp10
 70
     1
102
RTVSPropertyOp11
 70
     1
102
RTVSPropertyOp12
 70
     1
102
RTVSPropertyOp13
 70
     1
102
RTVSPropertyOp14
 70
     1
102
RTVSPropertyOp15
 70
     1
102
RTVSPropertyOp16
 70
     1
102
RTVSPropertyOp17
 70
     1
102
RTVSPropertyOp18
 70
     1
102
RTVSPropertyOp19
 70
     1
102
RTVSPropertyOp20
 70
     1
102
RTVSPropertyOp21
 70
     1
102
RTVSPropertyOp22
 70
     1
102
RTVSPropertyOp23
 70
     1
102
RTVSPropertyOp24
 70
     1
102
RTVSPropertyOp25
 70
     1
102
RTVSPropertyOp26
 70
     1
102
RTVSPropertyOp27
 70
     1
102
RTVSPropertyOp28
 70
     1
102
RTVSPropertyOp29
 70
     1
102
RTVSPropertyOp30
 70
     1
102
RTVSPropertyOp31
 70
     1
102
RTVSPropertyOp32
 70
     1
  0
XRECORD
  5
1AB
102
{ACAD_REACTORS
330
1AA
102
}
330
1AA
100
AcDbXrecord
280
     1
102
RTVSPropertyOp0
 70
     1
102
RTVSPropertyOp1
 70
     1
102
RTVSPropertyOp2
 70
     1
102
RTVSPropertyOp3
 70
     1
102
RTVSPropertyOp4
 70
     1
102
RTVSPropertyOp5
 70
     1
102
RTVSPropertyOp6
 70
     1
102
RTVSPropertyOp7
 70
     1
102
RTVSPropertyOp8
 70
     1
102
RTVSPropertyOp9
 70
     1
102
RTVSPropertyOp10
 70
     1
102
RTVSPropertyOp11
 70
     1
102
RTVSPropertyOp12
 70
     1
102
RTVSPropertyOp13
 70
     1
102
RTVSPropertyOp14
 70
     1
102
RTVSPropertyOp15
 70
     1
102
RTVSPropertyOp16
 70
     1
102
RTVSPropertyOp17
 70
     1
102
RTVSPropertyOp18
 70
     1
102
RTVSPropertyOp19
 70
     1
102
RTVSPropertyOp20
 70
     1
102
RTVSPropertyOp21
 70
     1
102
RTVSPropertyOp22
 70
     1
102
RTVSPropertyOp23
 70
     1
102
RTVSPropertyOp24
 70
     1
102
RTVSPropertyOp25
 70
     1
102
RTVSPropertyOp26
 70
     1
102
RTVSPropertyOp27
 70
     1
102
RTVSPropertyOp28
 70
     1
102
RTVSPropertyOp29
 70
     1
102
RTVSPropertyOp30
 70
     1
102
RTVSPropertyOp31
 70
     1
102
RTVSPropertyOp32
 70
     1
  0
XRECORD
  5
1AF
102
{ACAD_REACTORS
330
1AE
102
}
330
1AE
100
AcDbXrecord
280
     1
102
RTVSPropertyOp0
 70
     1
102
RTVSPropertyOp1
 70
     1
102
RTVSPropertyOp2
 70
     1
102
RTVSPropertyOp3
 70
     1
102
RTVSPropertyOp4
 70
     1
102
RTVSPropertyOp5
 70
     1
102
RTVSPropertyOp6
 70
     1
102
RTVSPropertyOp7
 70
     1
102
RTVSPropertyOp8
 70
     1
102
RTVSPropertyOp9
 70
     1
102
RTVSPropertyOp10
 70
     1
102
RTVSPropertyOp11
 70
     1
102
RTVSPropertyOp12
 70
     1
102
RTVSPropertyOp13
 70
     1
102
RTVSPropertyOp14
 70
     1
102
RTVSPropertyOp15
 70
     1
102
RTVSPropertyOp16
 70
     1
102
RTVSPropertyOp17
 70
     1
102
RTVSPropertyOp18
 70
     1
102
RTVSPropertyOp19
 70
     1
102
RTVSPropertyOp20
 70
     1
102
RTVSPropertyOp21
 70
     1
102
RTVSPropertyOp22
 70
     1
102
RTVSPropertyOp23
 70
     1
102
RTVSPropertyOp24
 70
     1
102
RTVSPropertyOp25
 70
     1
102
RTVSPropertyOp26
 70
     1
102
RTVSPropertyOp27
 70
     1
102
RTVSPropertyOp28
 70
     1
102
RTVSPropertyOp29
 70
     1
102
RTVSPropertyOp30
 70
     1
102
RTVSPropertyOp31
 70
     1
102
RTVSPropertyOp32
 70
     1
  0
XRECORD
  5
1B7
102
{ACAD_REACTORS
330
1B6
102
}
330
1B6
100
AcDbXrecord
280
     1
102
RTVSPropertyOp0
 70
     1
102
RTVSPropertyOp1
 70
     1
102
RTVSPropertyOp2
 70
     1
102
RTVSPropertyOp3
 70
     1
102
RTVSPropertyOp4
 70
     1
102
RTVSPropertyOp5
 70
     1
102
RTVSPropertyOp6
 70
     1
102
RTVSPropertyOp7
 70
     1
102
RTVSPropertyOp8
 70
     1
102
RTVSPropertyOp9
 70
     1
102
RTVSPropertyOp10
 70
     1
102
RTVSPropertyOp11
 70
     1
102
RTVSPropertyOp12
 70
     1
102
RTVSPropertyOp13
 70
     1
102
RTVSPropertyOp14
 70
     1
102
RTVSPropertyOp15
 70
     1
102
RTVSPropertyOp16
 70
     1
102
RTVSPropertyOp17
 70
     1
102
RTVSPropertyOp18
 70
     1
102
RTVSPropertyOp19
 70
     1
102
RTVSPropertyOp20
 70
     1
102
RTVSPropertyOp21
 70
     1
102
RTVSPropertyOp22
 70
     1
102
RTVSPropertyOp23
 70
     1
102
RTVSPropertyOp24
 70
     1
102
RTVSPropertyOp25
 70
     1
102
RTVSPropertyOp26
 70
     1
102
RTVSPropertyOp27
 70
     1
102
RTVSPropertyOp28
 70
     1
102
RTVSPropertyOp29
 70
     1
102
RTVSPropertyOp30
 70
     1
102
RTVSPropertyOp31
 70
     1
102
RTVSPropertyOp32
 70
     1
  0
XRECORD
  5
1BF
102
{ACAD_REACTORS
330
1BE
102
}
330
1BE
100
AcDbXrecord
280
     1
102
RTVSPropertyOp0
 70
     1
102
RTVSPropertyOp1
 70
     1
102
RTVSPropertyOp2
 70
     1
102
RTVSPropertyOp3
 70
     1
102
RTVSPropertyOp4
 70
     1
102
RTVSPropertyOp5
 70
     1
102
RTVSPropertyOp6
 70
     1
102
RTVSPropertyOp7
 70
     1
102
RTVSPropertyOp8
 70
     1
102
RTVSPropertyOp9
 70
     1
102
RTVSPropertyOp10
 70
     1
102
RTVSPropertyOp11
 70
     1
102
RTVSPropertyOp12
 70
     1
102
RTVSPropertyOp13
 70
     1
102
RTVSPropertyOp14
 70
     1
102
RTVSPropertyOp15
 70
     1
102
RTVSPropertyOp16
 70
     1
102
RTVSPropertyOp17
 70
     1
102
RTVSPropertyOp18
 70
     1
102
RTVSPropertyOp19
 70
     1
102
RTVSPropertyOp20
 70
     1
102
RTVSPropertyOp21
 70
     1
102
RTVSPropertyOp22
 70
     1
102
RTVSPropertyOp23
 70
     1
102
RTVSPropertyOp24
 70
     1
102
RTVSPropertyOp25
 70
     1
102
RTVSPropertyOp26
 70
     1
102
RTVSPropertyOp27
 70
     1
102
RTVSPropertyOp28
 70
     1
102
RTVSPropertyOp29
 70
     1
102
RTVSPropertyOp30
 70
     1
102
RTVSPropertyOp31
 70
     1
102
RTVSPropertyOp32
 70
     1
  0
XRECORD
  5
1B3
102
{ACAD_REACTORS
330
1B2
102
}
330
1B2
100
AcDbXrecord
280
     1
102
RTVSPropertyOp0
 70
     1
102
RTVSPropertyOp1
 70
     1
102
RTVSPropertyOp2
 70
     1
102
RTVSPropertyOp3
 70
     1
102
RTVSPropertyOp4
 70
     1
102
RTVSPropertyOp5
 70
     1
102
RTVSPropertyOp6
 70
     1
102
RTVSPropertyOp7
 70
     1
102
RTVSPropertyOp8
 70
     1
102
RTVSPropertyOp9
 70
     1
102
RTVSPropertyOp10
 70
     1
102
RTVSPropertyOp11
 70
     1
102
RTVSPropertyOp12
 70
     1
102
RTVSPropertyOp13
 70
     1
102
RTVSPropertyOp14
 70
     1
102
RTVSPropertyOp15
 70
     1
102
RTVSPropertyOp16
 70
     1
102
RTVSPropertyOp17
 70
     1
102
RTVSPropertyOp18
 70
     1
102
RTVSPropertyOp19
 70
     1
102
RTVSPropertyOp20
 70
     1
102
RTVSPropertyOp21
 70
     1
102
RTVSPropertyOp22
 70
     1
102
RTVSPropertyOp23
 70
     1
102
RTVSPropertyOp24
 70
     1
102
RTVSPropertyOp25
 70
     1
102
RTVSPropertyOp26
 70
     1
102
RTVSPropertyOp27
 70
     1
102
RTVSPropertyOp28
 70
     1
102
RTVSPropertyOp29
 70
     1
102
RTVSPropertyOp30
 70
     1
102
RTVSPropertyOp31
 70
     1
102
RTVSPropertyOp32
 70
     1
  0
XRECORD
  5
1B5
102
{ACAD_REACTORS
330
1B4
102
}
330
1B4
100
AcDbXrecord
280
     1
102
RTVSPropertyOp0
 70
     1
102
RTVSPropertyOp1
 70
     1
102
RTVSPropertyOp2
 70
     1
102
RTVSPropertyOp3
 70
     1
102
RTVSPropertyOp4
 70
     1
102
RTVSPropertyOp5
 70
     1
102
RTVSPropertyOp6
 70
     1
102
RTVSPropertyOp7
 70
     1
102
RTVSPropertyOp8
 70
     1
102
RTVSPropertyOp9
 70
     1
102
RTVSPropertyOp10
 70
     1
102
RTVSPropertyOp11
 70
     1
102
RTVSPropertyOp12
 70
     1
102
RTVSPropertyOp13
 70
     1
102
RTVSPropertyOp14
 70
     1
102
RTVSPropertyOp15
 70
     1
102
RTVSPropertyOp16
 70
     1
102
RTVSPropertyOp17
 70
     1
102
RTVSPropertyOp18
 70
     1
102
RTVSPropertyOp19
 70
     1
102
RTVSPropertyOp20
 70
     1
102
RTVSPropertyOp21
 70
     1
102
RTVSPropertyOp22
 70
     1
102
RTVSPropertyOp23
 70
     1
102
RTVSPropertyOp24
 70
     1
102
RTVSPropertyOp25
 70
     1
102
RTVSPropertyOp26
 70
     1
102
RTVSPropertyOp27
 70
     1
102
RTVSPropertyOp28
 70
     1
102
RTVSPropertyOp29
 70
     1
102
RTVSPropertyOp30
 70
     1
102
RTVSPropertyOp31
 70
     1
102
RTVSPropertyOp32
 70
     1
  0
XRECORD
  5
1BD
102
{ACAD_REACTORS
330
1BC
102
}
330
1BC
100
AcDbXrecord
280
     1
102
RTVSPropertyOp0
 70
     1
102
RTVSPropertyOp1
 70
     1
102
RTVSPropertyOp2
 70
     1
102
RTVSPropertyOp3
 70
     1
102
RTVSPropertyOp4
 70
     1
102
RTVSPropertyOp5
 70
     1
102
RTVSPropertyOp6
 70
     1
102
RTVSPropertyOp7
 70
     1
102
RTVSPropertyOp8
 70
     1
102
RTVSPropertyOp9
 70
     1
102
RTVSPropertyOp10
 70
     1
102
RTVSPropertyOp11
 70
     1
102
RTVSPropertyOp12
 70
     1
102
RTVSPropertyOp13
 70
     1
102
RTVSPropertyOp14
 70
     1
102
RTVSPropertyOp15
 70
     1
102
RTVSPropertyOp16
 70
     1
102
RTVSPropertyOp17
 70
     1
102
RTVSPropertyOp18
 70
     1
102
RTVSPropertyOp19
 70
     1
102
RTVSPropertyOp20
 70
     1
102
RTVSPropertyOp21
 70
     1
102
RTVSPropertyOp22
 70
     1
102
RTVSPropertyOp23
 70
     1
102
RTVSPropertyOp24
 70
     1
102
RTVSPropertyOp25
 70
     1
102
RTVSPropertyOp26
 70
     1
102
RTVSPropertyOp27
 70
     1
102
RTVSPropertyOp28
 70
     1
102
RTVSPropertyOp29
 70
     1
102
RTVSPropertyOp30
 70
     1
102
RTVSPropertyOp31
 70
     1
102
RTVSPropertyOp32
 70
     1
  0
XRECORD
  5
1A1
102
{ACAD_REACTORS
330
1A0
102
}
330
1A0
100
AcDbXrecord
280
     1
102
RTVSPropertyOp0
 70
     1
102
RTVSPropertyOp1
 70
     1
102
RTVSPropertyOp2
 70
     1
102
RTVSPropertyOp3
 70
     1
102
RTVSPropertyOp4
 70
     1
102
RTVSPropertyOp5
 70
     1
102
RTVSPropertyOp6
 70
     1
102
RTVSPropertyOp7
 70
     1
102
RTVSPropertyOp8
 70
     1
102
RTVSPropertyOp9
 70
     1
102
RTVSPropertyOp10
 70
     1
102
RTVSPropertyOp11
 70
     1
102
RTVSPropertyOp12
 70
     1
102
RTVSPropertyOp13
 70
     1
102
RTVSPropertyOp14
 70
     1
102
RTVSPropertyOp15
 70
     1
102
RTVSPropertyOp16
 70
     1
102
RTVSPropertyOp17
 70
     1
102
RTVSPropertyOp18
 70
     1
102
RTVSPropertyOp19
 70
     1
102
RTVSPropertyOp20
 70
     1
102
RTVSPropertyOp21
 70
     1
102
RTVSPropertyOp22
 70
     1
102
RTVSPropertyOp23
 70
     1
102
RTVSPropertyOp24
 70
     1
102
RTVSPropertyOp25
 70
     1
102
RTVSPropertyOp26
 70
     1
102
RTVSPropertyOp27
 70
     1
102
RTVSPropertyOp28
 70
     1
102
RTVSPropertyOp29
 70
     1
102
RTVSPropertyOp30
 70
     1
102
RTVSPropertyOp31
 70
     1
102
RTVSPropertyOp32
 70
     1
  0
XRECORD
  5
1A3
102
{ACAD_REACTORS
330
1A2
102
}
330
1A2
100
AcDbXrecord
280
     1
102
RTVSPropertyOp0
 70
     1
102
RTVSPropertyOp1
 70
     1
102
RTVSPropertyOp2
 70
     1
102
RTVSPropertyOp3
 70
     1
102
RTVSPropertyOp4
 70
     1
102
RTVSPropertyOp5
 70
     1
102
RTVSPropertyOp6
 70
     1
102
RTVSPropertyOp7
 70
     1
102
RTVSPropertyOp8
 70
     1
102
RTVSPropertyOp9
 70
     1
102
RTVSPropertyOp10
 70
     1
102
RTVSPropertyOp11
 70
     1
102
RTVSPropertyOp12
 70
     1
102
RTVSPropertyOp13
 70
     1
102
RTVSPropertyOp14
 70
     1
102
RTVSPropertyOp15
 70
     1
102
RTVSPropertyOp16
 70
     1
102
RTVSPropertyOp17
 70
     1
102
RTVSPropertyOp18
 70
     1
102
RTVSPropertyOp19
 70
     1
102
RTVSPropertyOp20
 70
     1
102
RTVSPropertyOp21
 70
     1
102
RTVSPropertyOp22
 70
     1
102
RTVSPropertyOp23
 70
     1
102
RTVSPropertyOp24
 70
     1
102
RTVSPropertyOp25
 70
     1
102
RTVSPropertyOp26
 70
     1
102
RTVSPropertyOp27
 70
     1
102
RTVSPropertyOp28
 70
     1
102
RTVSPropertyOp29
 70
     1
102
RTVSPropertyOp30
 70
     1
102
RTVSPropertyOp31
 70
     1
102
RTVSPropertyOp32
 70
     1
  0
XRECORD
  5
1A5
102
{ACAD_REACTORS
330
1A4
102
}
330
1A4
100
AcDbXrecord
280
     1
102
RTVSPropertyOp0
 70
     1
102
RTVSPropertyOp1
 70
     1
102
RTVSPropertyOp2
 70
     1
102
RTVSPropertyOp3
 70
     1
102
RTVSPropertyOp4
 70
     1
102
RTVSPropertyOp5
 70
     1
102
RTVSPropertyOp6
 70
     1
102
RTVSPropertyOp7
 70
     1
102
RTVSPropertyOp8
 70
     1
102
RTVSPropertyOp9
 70
     1
102
RTVSPropertyOp10
 70
     1
102
RTVSPropertyOp11
 70
     1
102
RTVSPropertyOp12
 70
     1
102
RTVSPropertyOp13
 70
     1
102
RTVSPropertyOp14
 70
     1
102
RTVSPropertyOp15
 70
     1
102
RTVSPropertyOp16
 70
     1
102
RTVSPropertyOp17
 70
     1
102
RTVSPropertyOp18
 70
     1
102
RTVSPropertyOp19
 70
     1
102
RTVSPropertyOp20
 70
     1
102
RTVSPropertyOp21
 70
     1
102
RTVSPropertyOp22
 70
     1
102
RTVSPropertyOp23
 70
     1
102
RTVSPropertyOp24
 70
     1
102
RTVSPropertyOp25
 70
     1
102
RTVSPropertyOp26
 70
     1
102
RTVSPropertyOp27
 70
     1
102
RTVSPropertyOp28
 70
     1
102
RTVSPropertyOp29
 70
     1
102
RTVSPropertyOp30
 70
     1
102
RTVSPropertyOp31
 70
     1
102
RTVSPropertyOp32
 70
     1
  0
XRECORD
  5
1A7
102
{ACAD_REACTORS
330
1A6
102
}
330
1A6
100
AcDbXrecord
280
     1
102
RTVSPropertyOp0
 70
     1
102
RTVSPropertyOp1
 70
     1
102
RTVSPropertyOp2
 70
     1
102
RTVSPropertyOp3
 70
     1
102
RTVSPropertyOp4
 70
     1
102
RTVSPropertyOp5
 70
     1
102
RTVSPropertyOp6
 70
     1
102
RTVSPropertyOp7
 70
     1
102
RTVSPropertyOp8
 70
     1
102
RTVSPropertyOp9
 70
     1
102
RTVSPropertyOp10
 70
     1
102
RTVSPropertyOp11
 70
     1
102
RTVSPropertyOp12
 70
     1
102
RTVSPropertyOp13
 70
     1
102
RTVSPropertyOp14
 70
     1
102
RTVSPropertyOp15
 70
     1
102
RTVSPropertyOp16
 70
     1
102
RTVSPropertyOp17
 70
     1
102
RTVSPropertyOp18
 70
     1
102
RTVSPropertyOp19
 70
     1
102
RTVSPropertyOp20
 70
     1
102
RTVSPropertyOp21
 70
     1
102
RTVSPropertyOp22
 70
     1
102
RTVSPropertyOp23
 70
     1
102
RTVSPropertyOp24
 70
     1
102
RTVSPropertyOp25
 70
     1
102
RTVSPropertyOp26
 70
     1
102
RTVSPropertyOp27
 70
     1
102
RTVSPropertyOp28
 70
     1
102
RTVSPropertyOp29
 70
     1
102
RTVSPropertyOp30
 70
     1
102
RTVSPropertyOp31
 70
     1
102
RTVSPropertyOp32
 70
     1
  0
XRECORD
  5
1BB
102
{ACAD_REACTORS
330
1BA
102
}
330
1BA
100
AcDbXrecord
280
     1
102
RTVSPropertyOp0
 70
     1
102
RTVSPropertyOp1
 70
     1
102
RTVSPropertyOp2
 70
     1
102
RTVSPropertyOp3
 70
     1
102
RTVSPropertyOp4
 70
     1
102
RTVSPropertyOp5
 70
     1
102
RTVSPropertyOp6
 70
     1
102
RTVSPropertyOp7
 70
     1
102
RTVSPropertyOp8
 70
     1
102
RTVSPropertyOp9
 70
     1
102
RTVSPropertyOp10
 70
     1
102
RTVSPropertyOp11
 70
     1
102
RTVSPropertyOp12
 70
     1
102
RTVSPropertyOp13
 70
     1
102
RTVSPropertyOp14
 70
     1
102
RTVSPropertyOp15
 70
     1
102
RTVSPropertyOp16
 70
     1
102
RTVSPropertyOp17
 70
     1
102
RTVSPropertyOp18
 70
     1
102
RTVSPropertyOp19
 70
     1
102
RTVSPropertyOp20
 70
     1
102
RTVSPropertyOp21
 70
     1
102
RTVSPropertyOp22
 70
     1
102
RTVSPropertyOp23
 70
     1
102
RTVSPropertyOp24
 70
     1
102
RTVSPropertyOp25
 70
     1
102
RTVSPropertyOp26
 70
     1
102
RTVSPropertyOp27
 70
     1
102
RTVSPropertyOp28
 70
     1
102
RTVSPropertyOp29
 70
     1
102
RTVSPropertyOp30
 70
     1
102
RTVSPropertyOp31
 70
     1
102
RTVSPropertyOp32
 70
     1
  0
XRECORD
  5
1B1
102
{ACAD_REACTORS
330
1B0
102
}
330
1B0
100
AcDbXrecord
280
     1
102
RTVSPropertyOp0
 70
     1
102
RTVSPropertyOp1
 70
     1
102
RTVSPropertyOp2
 70
     1
102
RTVSPropertyOp3
 70
     1
102
RTVSPropertyOp4
 70
     1
102
RTVSPropertyOp5
 70
     1
102
RTVSPropertyOp6
 70
     1
102
RTVSPropertyOp7
 70
     1
102
RTVSPropertyOp8
 70
     1
102
RTVSPropertyOp9
 70
     1
102
RTVSPropertyOp10
 70
     1
102
RTVSPropertyOp11
 70
     1
102
RTVSPropertyOp12
 70
     1
102
RTVSPropertyOp13
 70
     1
102
RTVSPropertyOp14
 70
     1
102
RTVSPropertyOp15
 70
     1
102
RTVSPropertyOp16
 70
     1
102
RTVSPropertyOp17
 70
     1
102
RTVSPropertyOp18
 70
     1
102
RTVSPropertyOp19
 70
     1
102
RTVSPropertyOp20
 70
     1
102
RTVSPropertyOp21
 70
     1
102
RTVSPropertyOp22
 70
     1
102
RTVSPropertyOp23
 70
     1
102
RTVSPropertyOp24
 70
     1
102
RTVSPropertyOp25
 70
     1
102
RTVSPropertyOp26
 70
     1
102
RTVSPropertyOp27
 70
     1
102
RTVSPropertyOp28
 70
     1
102
RTVSPropertyOp29
 70
     1
102
RTVSPropertyOp30
 70
     1
102
RTVSPropertyOp31
 70
     1
102
RTVSPropertyOp32
 70
     1
  0
XRECORD
  5
1B9
102
{ACAD_REACTORS
330
1B8
102
}
330
1B8
100
AcDbXrecord
280
     1
102
RTVSPropertyOp0
 70
     1
102
RTVSPropertyOp1
 70
     1
102
RTVSPropertyOp2
 70
     1
102
RTVSPropertyOp3
 70
     1
102
RTVSPropertyOp4
 70
     1
102
RTVSPropertyOp5
 70
     1
102
RTVSPropertyOp6
 70
     1
102
RTVSPropertyOp7
 70
     1
102
RTVSPropertyOp8
 70
     1
102
RTVSPropertyOp9
 70
     1
102
RTVSPropertyOp10
 70
     1
102
RTVSPropertyOp11
 70
     1
102
RTVSPropertyOp12
 70
     1
102
RTVSPropertyOp13
 70
     1
102
RTVSPropertyOp14
 70
     1
102
RTVSPropertyOp15
 70
     1
102
RTVSPropertyOp16
 70
     1
102
RTVSPropertyOp17
 70
     1
102
RTVSPropertyOp18
 70
     1
102
RTVSPropertyOp19
 70
     1
102
RTVSPropertyOp20
 70
     1
102
RTVSPropertyOp21
 70
     1
102
RTVSPropertyOp22
 70
     1
102
RTVSPropertyOp23
 70
     1
102
RTVSPropertyOp24
 70
     1
102
RTVSPropertyOp25
 70
     1
102
RTVSPropertyOp26
 70
     1
102
RTVSPropertyOp27
 70
     1
102
RTVSPropertyOp28
 70
     1
102
RTVSPropertyOp29
 70
     1
102
RTVSPropertyOp30
 70
     1
102
RTVSPropertyOp31
 70
     1
102
RTVSPropertyOp32
 70
     1
  0
ENDSEC
  0
EOF
