  0
SECTION
  2
HEADER
  9
$ACADVER
  1
AC1015
  9
$ACADMAINTVER
 70
     6
  9
$DWGCODEPAGE
  3
ANSI_1252
  9
$INSBASE
 10
0.0
 20
0.0
 30
0.0
  9
$EXTMIN
 10
-42.00000000000001
 20
0.0
 30
0.0
  9
$EXTMAX
 10
0.0
 20
59.40000000000003
 30
0.0
  9
$LIMMIN
 10
0.0
 20
0.0
  9
$LIMMAX
 10
12.0
 20
9.0
  9
$ORTHOMODE
 70
     0
  9
$REGENMODE
 70
     1
  9
$FILLMODE
 70
     1
  9
$QTEXTMODE
 70
     0
  9
$MIRRTEXT
 70
     1
  9
$LTSCALE
 40
1.0
  9
$ATTMODE
 70
     1
  9
$TEXTSIZE
 40
0.2
  9
$TRACEWID
 40
0.05
  9
$TEXTSTYLE
  7
Standard
  9
$CLAYER
  8
0
  9
$CELTYPE
  6
ByLayer
  9
$CECOLOR
 62
   256
  9
$CELTSCALE
 40
1.0
  9
$DISPSILH
 70
     0
  9
$DIMSCALE
 40
1.0
  9
$DIMASZ
 40
0.18
  9
$DIMEXO
 40
0.0625
  9
$DIMDLI
 40
0.38
  9
$DIMRND
 40
0.0
  9
$DIMDLE
 40
0.0
  9
$DIMEXE
 40
0.18
  9
$DIMTP
 40
0.0
  9
$DIMTM
 40
0.0
  9
$DIMTXT
 40
0.18
  9
$DIMCEN
 40
0.09
  9
$DIMTSZ
 40
0.0
  9
$DIMTOL
 70
     0
  9
$DIMLIM
 70
     0
  9
$DIMTIH
 70
     1
  9
$DIMTOH
 70
     1
  9
$DIMSE1
 70
     0
  9
$DIMSE2
 70
     0
  9
$DIMTAD
 70
     0
  9
$DIMZIN
 70
     0
  9
$DIMBLK
  1

  9
$DIMASO
 70
     1
  9
$DIMSHO
 70
     1
  9
$DIMPOST
  1

  9
$DIMAPOST
  1

  9
$DIMALT
 70
     0
  9
$DIMALTD
 70
     2
  9
$DIMALTF
 40
25.4
  9
$DIMLFAC
 40
1.0
  9
$DIMTOFL
 70
     0
  9
$DIMTVP
 40
0.0
  9
$DIMTIX
 70
     0
  9
$DIMSOXD
 70
     0
  9
$DIMSAH
 70
     0
  9
$DIMBLK1
  1

  9
$DIMBLK2
  1

  9
$DIMSTYLE
  2
Standard
  9
$DIMCLRD
 70
     0
  9
$DIMCLRE
 70
     0
  9
$DIMCLRT
 70
     0
  9
$DIMTFAC
 40
1.0
  9
$DIMGAP
 40
0.09
  9
$DIMJUST
 70
     0
  9
$DIMSD1
 70
     0
  9
$DIMSD2
 70
     0
  9
$DIMTOLJ
 70
     1
  9
$DIMTZIN
 70
     0
  9
$DIMALTZ
 70
     0
  9
$DIMALTTZ
 70
     0
  9
$DIMUPT
 70
     0
  9
$DIMDEC
 70
     4
  9
$DIMTDEC
 70
     4
  9
$DIMALTU
 70
     2
  9
$DIMALTTD
 70
     2
  9
$DIMTXSTY
  7
Standard
  9
$DIMAUNIT
 70
     0
  9
$DIMADEC
 70
     0
  9
$DIMALTRND
 40
0.0
  9
$DIMAZIN
 70
     0
  9
$DIMDSEP
 70
    46
  9
$DIMATFIT
 70
     3
  9
$DIMFRAC
 70
     0
  9
$DIMLDRBLK
  1

  9
$DIMLUNIT
 70
     2
  9
$DIMLWD
 70
    -2
  9
$DIMLWE
 70
    -2
  9
$DIMTMOVE
 70
     0
  9
$LUNITS
 70
     2
  9
$LUPREC
 70
     4
  9
$SKETCHINC
 40
0.1
  9
$FILLETRAD
 40
0.5
  9
$AUNITS
 70
     0
  9
$AUPREC
 70
     0
  9
$MENU
  1
.
  9
$ELEVATION
 40
0.0
  9
$PELEVATION
 40
0.0
  9
$THICKNESS
 40
0.0
  9
$LIMCHECK
 70
     0
  9
$CHAMFERA
 40
0.0
  9
$CHAMFERB
 40
0.0
  9
$CHAMFERC
 40
0.0
  9
$CHAMFERD
 40
0.0
  9
$SKPOLY
 70
     0
  9
$TDCREATE
 40
2458085.393387511
  9
$TDUCREATE
 40
2458085.351720845
  9
$TDUPDATE
 40
2458085.39338787
  9
$TDUUPDATE
 40
2458085.351721204
  9
$TDINDWG
 40
0.0000000116
  9
$TDUSRTIMER
 40
0.0000000116
  9
$USRTIMER
 70
     1
  9
$ANGBASE
 50
0.0
  9
$ANGDIR
 70
     0
  9
$PDMODE
 70
     0
  9
$PDSIZE
 40
0.0
  9
$PLINEWID
 40
0.0
  9
$SPLFRAME
 70
     0
  9
$SPLINETYPE
 70
     6
  9
$SPLINESEGS
 70
     8
  9
$HANDSEED
  5
287
  9
$SURFTAB1
 70
     6
  9
$SURFTAB2
 70
     6
  9
$SURFTYPE
 70
     6
  9
$SURFU
 70
     6
  9
$SURFV
 70
     6
  9
$UCSBASE
  2

  9
$UCSNAME
  2

  9
$UCSORG
 10
0.0
 20
0.0
 30
0.0
  9
$UCSXDIR
 10
1.0
 20
0.0
 30
0.0
  9
$UCSYDIR
 10
0.0
 20
1.0
 30
0.0
  9
$UCSORTHOREF
  2

  9
$UCSORTHOVIEW
 70
     0
  9
$UCSORGTOP
 10
0.0
 20
0.0
 30
0.0
  9
$UCSORGBOTTOM
 10
0.0
 20
0.0
 30
0.0
  9
$UCSORGLEFT
 10
0.0
 20
0.0
 30
0.0
  9
$UCSORGRIGHT
 10
0.0
 20
0.0
 30
0.0
  9
$UCSORGFRONT
 10
0.0
 20
0.0
 30
0.0
  9
$UCSORGBACK
 10
0.0
 20
0.0
 30
0.0
  9
$PUCSBASE
  2

  9
$PUCSNAME
  2

  9
$PUCSORG
 10
0.0
 20
0.0
 30
0.0
  9
$PUCSXDIR
 10
1.0
 20
0.0
 30
0.0
  9
$PUCSYDIR
 10
0.0
 20
1.0
 30
0.0
  9
$PUCSORTHOREF
  2

  9
$PUCSORTHOVIEW
 70
     0
  9
$PUCSORGTOP
 10
0.0
 20
0.0
 30
0.0
  9
$PUCSORGBOTTOM
 10
0.0
 20
0.0
 30
0.0
  9
$PUCSORGLEFT
 10
0.0
 20
0.0
 30
0.0
  9
$PUCSORGRIGHT
 10
0.0
 20
0.0
 30
0.0
  9
$PUCSORGFRONT
 10
0.0
 20
0.0
 30
0.0
  9
$PUCSORGBACK
 10
0.0
 20
0.0
 30
0.0
  9
$USERI1
 70
     0
  9
$USERI2
 70
     0
  9
$USERI3
 70
     0
  9
$USERI4
 70
     0
  9
$USERI5
 70
     0
  9
$USERR1
 40
19.0
  9
$USERR2
 40
0.0
  9
$USERR3
 40
0.0
  9
$USERR4
 40
0.0
  9
$USERR5
 40
0.0
  9
$WORLDVIEW
 70
     1
  9
$SHADEDGE
 70
     3
  9
$SHADEDIF
 70
    70
  9
$TILEMODE
 70
     1
  9
$MAXACTVP
 70
    64
  9
$PINSBASE
 10
0.0
 20
0.0
 30
0.0
  9
$PLIMCHECK
 70
     0
  9
$PEXTMIN
 10
1.00000000000000E+20
 20
1.00000000000000E+20
 30
1.00000000000000E+20
  9
$PEXTMAX
 10
-1.00000000000000E+20
 20
-1.00000000000000E+20
 30
-1.00000000000000E+20
  9
$PLIMMIN
 10
0.0
 20
0.0
  9
$PLIMMAX
 10
12.0
 20
9.0
  9
$UNITMODE
 70
     0
  9
$VISRETAIN
 70
     1
  9
$PLINEGEN
 70
     0
  9
$PSLTSCALE
 70
     1
  9
$TREEDEPTH
 70
  3020
  9
$CMLSTYLE
  2
Standard
  9
$CMLJUST
 70
     0
  9
$CMLSCALE
 40
1.0
  9
$PROXYGRAPHICS
 70
     1
  9
$MEASUREMENT
 70
     1
  9
$CELWEIGHT
370
    -1
  9
$ENDCAPS
280
     0
  9
$JOINSTYLE
280
     0
  9
$LWDISPLAY
290
     0
  9
$INSUNITS
 70
     4
  9
$HYPERLINKBASE
  1

  9
$STYLESHEET
  1

  9
$XEDIT
290
     1
  9
$CEPSNTYPE
380
     0
  9
$PSTYLEMODE
290
     1
  9
$FINGERPRINTGUID
  2
{136ADEF4-09C8-4880-A6CC-8BAE513FB0B8}
  9
$VERSIONGUID
  2
{FAEB1C32-E019-11D5-929B-00C0DF256EC4}
  9
$EXTNAMES
290
     1
  9
$PSVPSCALE
 40
0.0
  9
$OLESTARTUP
290
     0
  0
ENDSEC
  0
SECTION
  2
CLASSES
  0
CLASS
  1
ACDBDICTIONARYWDFLT
  2
AcDbDictionaryWithDefault
  3
ObjectDBX Classes
 90
        0
280
     0
281
     0
  0
CLASS
  1
VISUALSTYLE
  2
AcDbVisualStyle
  3
ObjectDBX Classes
 90
     4095
280
     0
281
     0
  0
CLASS
  1
MATERIAL
  2
AcDbMaterial
  3
ObjectDBX Classes
 90
     1153
280
     0
281
     0
  0
CLASS
  1
SCALE
  2
AcDbScale
  3
ObjectDBX Classes
 90
     1153
280
     0
281
     0
  0
CLASS
  1
SUN
  2
AcDbSun
  3
SCENEOE
 90
     1153
280
     0
281
     0
  0
CLASS
  1
DICTIONARYVAR
  2
AcDbDictionaryVar
  3
ObjectDBX Classes
 90
        0
280
     0
281
     0
  0
CLASS
  1
ACDBPLACEHOLDER
  2
AcDbPlaceHolder
  3
ObjectDBX Classes
 90
        0
280
     0
281
     0
  0
CLASS
  1
LAYOUT
  2
AcDbLayout
  3
ObjectDBX Classes
 90
        0
280
     0
281
     0
  0
ENDSEC
  0
SECTION
  2
TABLES
  0
TABLE
  2
VPORT
  5
8
330
0
100
AcDbSymbolTable
 70
     1
  0
VPORT
  5
29
330
8
100
AcDbSymbolTableRecord
100
AcDbViewportTableRecord
  2
*Active
 70
     0
 10
0.0
 20
0.0
 11
1.0
 21
1.0
 12
-21.0
 22
29.70000000000001
 13
0.0
 23
0.0
 14
0.5
 24
0.5
 15
0.5
 25
0.5
 16
0.0
 26
0.0
 36
1.0
 17
0.0
 27
0.0
 37
0.0
 40
65.34000000000003
 41
1.60267857142857
 42
50.0
 43
0.0
 44
0.0
 50
0.0
 51
0.0
 71
     0
 72
   100
 73
     1
 74
     3
 75
     0
 76
     0
 77
     0
 78
     0
281
     0
 65
     1
110
0.0
120
0.0
130
0.0
111
1.0
121
0.0
131
0.0
112
0.0
122
1.0
132
0.0
 79
     0
146
0.0
  0
ENDTAB
  0
TABLE
  2
LTYPE
  5
5
330
0
100
AcDbSymbolTable
 70
     8
  0
LTYPE
  5
14
330
5
100
AcDbSymbolTableRecord
100
AcDbLinetypeTableRecord
  2
ByBlock
 70
     0
  3

 72
    65
 73
     0
 40
0.0
  0
LTYPE
  5
15
330
5
100
AcDbSymbolTableRecord
100
AcDbLinetypeTableRecord
  2
ByLayer
 70
     0
  3

 72
    65
 73
     0
 40
0.0
  0
LTYPE
  5
16
330
5
100
AcDbSymbolTableRecord
100
AcDbLinetypeTableRecord
  2
Continuous
 70
     0
  3
Solid line
 72
    65
 73
     0
 40
0.0
  0
LTYPE
  5
6A
330
5
100
AcDbSymbolTableRecord
100
AcDbLinetypeTableRecord
  2
DASHED
 70
     0
  3
Dashed
 72
    65
 73
     2
 40
15.0
 49
7.0
 74
     0
 49
-8.0
 74
     0
  0
LTYPE
  5
6B
330
5
100
AcDbSymbolTableRecord
100
AcDbLinetypeTableRecord
  2
DOTTED
 70
     0
  3
Dotted
 72
    65
 73
     2
 40
1.0
 49
0.0
 74
     0
 49
-1.0
 74
     0
  0
LTYPE
  5
6C
330
5
100
AcDbSymbolTableRecord
100
AcDbLinetypeTableRecord
  2
DOT_CENTER
 70
     0
  3
Dot_Center
 72
    65
 73
     4
 40
14.0
 49
12.0
 74
     0
 49
-1.0
 74
     0
 49
0.0
 74
     0
 49
-1.0
 74
     0
  0
LTYPE
  5
6D
330
5
100
AcDbSymbolTableRecord
100
AcDbLinetypeTableRecord
  2
LONG_DASHED
 70
     0
  3
Long_Dashed
 72
    65
 73
     2
 40
15.0
 49
10.0
 74
     0
 49
-5.0
 74
     0
  0
LTYPE
  5
6E
330
5
100
AcDbSymbolTableRecord
100
AcDbLinetypeTableRecord
  2
DASH_CENTER
 70
     0
  3
Dash_Center
 72
    65
 73
     4
 40
14.0
 49
11.0
 74
     0
 49
-1.0
 74
     0
 49
1.0
 74
     0
 49
-1.0
 74
     0
  0
LTYPE
  5
6F
330
5
100
AcDbSymbolTableRecord
100
AcDbLinetypeTableRecord
  2
PHANTOM
 70
     0
  3
Phantom
 72
    65
 73
     6
 40
13.0
 49
10.0
 74
     0
 49
-1.0
 74
     0
 49
0.0
 74
     0
 49
-1.0
 74
     0
 49
0.0
 74
     0
 49
-1.0
 74
     0
  0
LTYPE
  5
70
330
5
100
AcDbSymbolTableRecord
100
AcDbLinetypeTableRecord
  2
CENTER_DASH_DASH
 70
     0
  3
Center_Dash_Dash
 72
    65
 73
     6
 40
14.0
 49
9.0
 74
     0
 49
-1.0
 74
     0
 49
1.0
 74
     0
 49
-1.0
 74
     0
 49
1.0
 74
     0
 49
-1.0
 74
     0
  0
ENDTAB
  0
TABLE
  2
LAYER
  5
2
330
0
100
AcDbSymbolTable
 70
     2
  0
LAYER
  5
10
330
2
100
AcDbSymbolTableRecord
100
AcDbLayerTableRecord
  2
0
 70
     0
 62
     7
  6
Continuous
370
    -3
390
F
  0
LAYER
  5
71
330
2
100
AcDbSymbolTableRecord
100
AcDbLayerTableRecord
  2
1
 70
     0
 62
     7
  6
Continuous
370
    -3
390
F
  0
ENDTAB
  0
TABLE
  2
STYLE
  5
3
330
0
100
AcDbSymbolTable
 70
     5
  0
STYLE
  5
11
330
3
100
AcDbSymbolTableRecord
100
AcDbTextStyleTableRecord
  2
Standard
 70
     0
 40
0.0
 41
1.0
 50
0.0
 71
     0
 42
0.2
  3
txt
  4

  0
STYLE
  5
1E0
330
3
100
AcDbSymbolTableRecord
100
AcDbTextStyleTableRecord
  2
CONVERTER_11
 70
     0
 40
0.0
 41
0.95
 50
0.0
 71
     0
 42
0.2
  3
simplex.shx
  4

  0
STYLE
  5
1E5
330
3
100
AcDbSymbolTableRecord
100
AcDbTextStyleTableRecord
  2
CONVERTER_12
 70
     0
 40
0.0
 41
1.38
 50
0.0
 71
     0
 42
0.2
  3
ARIAL.TTF
  4

  0
STYLE
  5
1E7
330
3
100
AcDbSymbolTableRecord
100
AcDbTextStyleTableRecord
  2
CONVERTER_13
 70
     0
 40
0.0
 41
1.2
 50
0.0
 71
     0
 42
0.2
  3
ARIAL.TTF
  4

  0
STYLE
  5
200
330
3
100
AcDbSymbolTableRecord
100
AcDbTextStyleTableRecord
  2
CONVERTER_14
 70
     0
 40
0.0
 41
0.855
 50
0.0
 71
     0
 42
0.2
  3
simplex.shx
  4

  0
ENDTAB
  0
TABLE
  2
VIEW
  5
6
330
0
100
AcDbSymbolTable
 70
     0
  0
ENDTAB
  0
TABLE
  2
UCS
  5
7
330
0
100
AcDbSymbolTable
 70
     0
  0
ENDTAB
  0
TABLE
  2
APPID
  5
9
330
0
100
AcDbSymbolTable
 70
     1
  0
APPID
  5
12
330
9
100
AcDbSymbolTableRecord
100
AcDbRegAppTableRecord
  2
ACAD
 70
     0
  0
ENDTAB
  0
TABLE
  2
DIMSTYLE
  5
A
330
0
100
AcDbSymbolTable
 70
     5
100
AcDbDimStyleTable
  0
DIMSTYLE
105
27
330
A
100
AcDbSymbolTableRecord
100
AcDbDimStyleTableRecord
  2
Standard
 70
     0
178
     0
340
11
  0
DIMSTYLE
105
21B
102
{ACAD_REACTORS
330
21C
102
}
330
A
100
AcDbSymbolTableRecord
100
AcDbDimStyleTableRecord
  2
ME10_DIM_10
 70
     0
 41
0.6
 42
0.1
 44
0.2
 77
     1
 78
     8
140
0.6
147
0.4
172
     1
173
     1
174
     1
175
     1
176
     7
177
     7
271
     2
178
     7
271
     2
340
1E0
  0
DIMSTYLE
105
228
102
{ACAD_REACTORS
330
229
102
}
330
A
100
AcDbSymbolTableRecord
100
AcDbDimStyleTableRecord
  2
ME10_DIM_11
 70
     0
  3
ø<>
 41
0.6
 42
0.1
 44
0.2
 77
     1
 78
     8
140
0.6
147
0.4
172
     1
173
     1
174
     1
175
     1
176
     7
177
     7
271
     2
178
     7
271
     2
340
1E0
  0
DIMSTYLE
105
234
102
{ACAD_REACTORS
330
235
102
}
330
A
100
AcDbSymbolTableRecord
100
AcDbDimStyleTableRecord
  2
ME10_DIM_12
 70
     0
 41
0.6
 42
0.1
 44
0.2
 77
     1
 78
     8
140
0.6
147
0.4
172
     1
173
     1
174
     1
175
     1
176
     7
177
     7
271
     2
178
     7
271
     2
340
1E0
  0
DIMSTYLE
105
240
102
{ACAD_REACTORS
330
241
102
}
330
A
100
AcDbSymbolTableRecord
100
AcDbDimStyleTableRecord
  2
ME10_DIM_13
 70
     0
  3
ø<>
 41
0.6
 42
0.1
 44
0.2
 77
     1
 78
     8
140
0.6
147
0.4
172
     1
173
     1
174
     1
175
     1
176
     7
177
     7
271
     2
178
     7
271
     2
340
1E0
  0
ENDTAB
  0
TABLE
  2
BLOCK_RECORD
  5
1
330
0
100
AcDbSymbolTable
 70
     7
  0
BLOCK_RECORD
  5
1F
330
1
100
AcDbSymbolTableRecord
100
AcDbBlockTableRecord
  2
*Model_Space
340
22
  0
BLOCK_RECORD
  5
1B
330
1
100
AcDbSymbolTableRecord
100
AcDbBlockTableRecord
  2
*Paper_Space
340
1E
  0
BLOCK_RECORD
  5
23
330
1
100
AcDbSymbolTableRecord
100
AcDbBlockTableRecord
  2
*Paper_Space0
340
26
  0
BLOCK_RECORD
  5
72
330
1
100
AcDbSymbolTableRecord
100
AcDbBlockTableRecord
  2
_dummy_frame__1
340
0
102
{BLKREFS
331
78
102
}
  0
BLOCK_RECORD
  5
75
330
1
100
AcDbSymbolTableRecord
100
AcDbBlockTableRecord
  2
_dummy_frame__2
340
0
102
{BLKREFS
331
79
102
}
  0
BLOCK_RECORD
  5
211
330
1
100
AcDbSymbolTableRecord
100
AcDbBlockTableRecord
  2
*D3
340
0
  0
BLOCK_RECORD
  5
21D
330
1
100
AcDbSymbolTableRecord
100
AcDbBlockTableRecord
  2
*D4
340
0
  0
BLOCK_RECORD
  5
22A
330
1
100
AcDbSymbolTableRecord
100
AcDbBlockTableRecord
  2
*D5
340
0
  0
BLOCK_RECORD
  5
236
330
1
100
AcDbSymbolTableRecord
100
AcDbBlockTableRecord
  2
*D6
340
0
  0
ENDTAB
  0
ENDSEC
  0
SECTION
  2
BLOCKS
  0
BLOCK
  5
20
330
1F
100
AcDbEntity
  8
0
100
AcDbBlockBegin
  2
*Model_Space
 70
     0
 10
0.0
 20
0.0
 30
0.0
  3
*Model_Space
  1
*Model_Space
  0
ENDBLK
  5
21
330
1F
100
AcDbEntity
  8
0
100
AcDbBlockEnd
  0
BLOCK
  5
1C
330
1B
100
AcDbEntity
 67
     1
  8
0
100
AcDbBlockBegin
  2
*Paper_Space
 70
     0
 10
0.0
 20
0.0
 30
0.0
  3
*Paper_Space
  1
*Paper_Space
  0
ENDBLK
  5
1D
330
1B
100
AcDbEntity
 67
     1
  8
0
100
AcDbBlockEnd
  0
BLOCK
  5
24
330
23
100
AcDbEntity
  8
0
100
AcDbBlockBegin
  2
*Paper_Space0
 70
     0
 10
0.0
 20
0.0
 30
0.0
  3
*Paper_Space0
  1
*Paper_Space0
  0
ENDBLK
  5
25
330
23
100
AcDbEntity
  8
0
100
AcDbBlockEnd
  0
BLOCK
  5
73
330
72
100
AcDbEntity
  8
0
100
AcDbBlockBegin
  2
_dummy_frame__1
 70
     0
 10
18.97041178457163
 20
18.6859341723137
 30
0.0
  3
_dummy_frame__1
  1
_dummy_frame__1
  0
POINT
  5
7A
330
72
100
AcDbEntity
  8
1
 62
     7
 60
     1
100
AcDbPoint
 10
18.97041178457163
 20
18.6859341723137
 30
0.0
  0
ENDBLK
  5
74
330
72
100
AcDbEntity
  8
0
100
AcDbBlockEnd
  0
BLOCK
  5
76
330
75
100
AcDbEntity
  8
0
100
AcDbBlockBegin
  2
_dummy_frame__2
 70
     0
 10
7.98346315082353
 20
16.54288274826324
 30
0.0
  3
_dummy_frame__2
  1
_dummy_frame__2
  0
POINT
  5
7B
330
75
100
AcDbEntity
  8
1
 62
     7
 60
     1
100
AcDbPoint
 10
7.98346315082353
 20
16.54288274826324
 30
0.0
  0
ENDBLK
  5
77
330
75
100
AcDbEntity
  8
0
100
AcDbBlockEnd
  0
BLOCK
  5
219
330
211
100
AcDbEntity
  8
0
100
AcDbBlockBegin
  2
*D3
 70
     1
 10
0.0
 20
0.0
 30
0.0
  3
*D3
  1
*D3
  0
LINE
  5
212
330
211
100
AcDbEntity
  8
1
  6
Continuous
 62
     7
100
AcDbLine
 10
-30.37933542428015
 20
42.18331083308707
 30
0.0
 11
-30.37933542428015
 21
35.71331083308705
 31
0.0
  0
LINE
  5
213
330
211
100
AcDbEntity
  8
1
  6
Continuous
 62
     7
100
AcDbLine
 10
-30.37933542428015
 20
34.25331083308706
 30
0.0
 11
-30.37933542428015
 21
27.78331083308704
 31
0.0
  0
LINE
  5
214
330
211
100
AcDbEntity
  8
1
  6
Continuous
 62
     7
100
AcDbLine
 10
-26.24417968040908
 20
42.18331083308707
 30
0.0
 11
-30.57933542428015
 21
42.18331083308707
 31
0.0
  0
LINE
  5
215
330
211
100
AcDbEntity
  8
1
  6
Continuous
 62
     7
100
AcDbLine
 10
-26.32247478663826
 20
27.78331083308704
 30
0.0
 11
-30.57933542428015
 21
27.78331083308704
 31
0.0
  0
SOLID
  5
216
330
211
100
AcDbEntity
  8
1
 62
     7
100
AcDbTrace
 10
-30.30034392572771
 20
41.58331083308707
 30
0.0
 11
-30.45832692283259
 21
41.58331083308707
 31
0.0
 12
-30.37933542428015
 22
42.18331083308707
 32
0.0
 13
-30.37933542428015
 23
42.18331083308707
 33
0.0
  0
SOLID
  5
217
330
211
100
AcDbEntity
  8
1
 62
     7
100
AcDbTrace
 10
-30.45832692283259
 20
28.38331083308704
 30
0.0
 11
-30.30034392572771
 21
28.38331083308704
 31
0.0
 12
-30.37933542428015
 22
27.78331083308704
 32
0.0
 13
-30.37933542428015
 23
27.78331083308704
 33
0.0
  0
MTEXT
  5
218
330
211
100
AcDbEntity
  8
1
 62
     7
100
AcDbMText
 10
-31.11433542428015
 20
34.71331083308705
 30
0.0
 40
0.6
 41
0.0
 71
     7
 72
     1
  1
14,4
  7
CONVERTER_11
 11
0.9999999999970619
 21
2.424068405545306E-6
 31
0.0
 73
     1
 44
0.60024009603842
  0
ENDBLK
  5
21A
330
211
100
AcDbEntity
  8
0
100
AcDbBlockEnd
  0
BLOCK
  5
226
330
21D
100
AcDbEntity
  8
0
100
AcDbBlockBegin
  2
*D4
 70
     1
 10
0.0
 20
0.0
 30
0.0
  3
*D4
  1
*D4
  0
LINE
  5
21E
330
21D
100
AcDbEntity
  8
1
  6
Continuous
 62
     7
100
AcDbLine
 10
-15.09006881250302
 20
44.3996424271353
 30
0.0
 11
-13.89006881250302
 21
44.3996424271353
 31
0.0
  0
LINE
  5
21F
330
21D
100
AcDbEntity
  8
1
  6
Continuous
 62
     7
100
AcDbLine
 10
-13.89006881250302
 20
44.3996424271353
 30
0.0
 11
-12.77006881250279
 21
44.3996424271353
 31
0.0
  0
LINE
  5
220
330
21D
100
AcDbEntity
  8
1
  6
Continuous
 62
     7
100
AcDbLine
 10
-12.77006881250279
 20
44.3996424271353
 30
0.0
 11
-11.57006881250279
 21
44.3996424271353
 31
0.0
  0
LINE
  5
221
330
21D
100
AcDbEntity
  8
1
  6
Continuous
 62
     7
100
AcDbLine
 10
-13.89006881250302
 20
42.13087240892146
 30
0.0
 11
-13.89006881250302
 21
44.5996424271353
 31
0.0
  0
LINE
  5
222
330
21D
100
AcDbEntity
  8
1
  6
Continuous
 62
     7
100
AcDbLine
 10
-12.77006881250279
 20
42.13087240892146
 30
0.0
 11
-12.77006881250279
 21
44.5996424271353
 31
0.0
  0
SOLID
  5
223
330
21D
100
AcDbEntity
  8
1
 62
     7
100
AcDbTrace
 10
-14.49006881250302
 20
44.32065092858286
 30
0.0
 11
-14.49006881250302
 21
44.47863392568774
 31
0.0
 12
-13.89006881250302
 22
44.3996424271353
 32
0.0
 13
-13.89006881250302
 23
44.3996424271353
 33
0.0
  0
SOLID
  5
224
330
21D
100
AcDbEntity
  8
1
 62
     7
100
AcDbTrace
 10
-12.17006881250279
 20
44.47863392568774
 30
0.0
 11
-12.17006881250279
 21
44.32065092858286
 31
0.0
 12
-12.77006881250279
 22
44.3996424271353
 32
0.0
 13
-12.77006881250279
 23
44.3996424271353
 33
0.0
  0
MTEXT
  5
225
330
21D
100
AcDbEntity
  8
1
 62
     7
100
AcDbMText
 10
-13.73206881250145
 20
44.79964123449365
 30
0.0
 40
0.6
 41
0.0
 71
     7
 72
     1
  1
\C7;\U+00f8\C7;A
  7
CONVERTER_11
 11
0.9999999999970619
 21
2.424068405545306E-6
 31
0.0
 73
     1
 44
0.60024009603842
  0
ENDBLK
  5
227
330
21D
100
AcDbEntity
  8
0
100
AcDbBlockEnd
  0
BLOCK
  5
232
330
22A
100
AcDbEntity
  8
0
100
AcDbBlockBegin
  2
*D5
 70
     1
 10
0.0
 20
0.0
 30
0.0
  3
*D5
  1
*D5
  0
LINE
  5
22B
330
22A
100
AcDbEntity
  8
1
  6
Continuous
 62
     7
100
AcDbLine
 10
-9.48543122037367
 20
42.18331083305728
 30
0.0
 11
-9.48543122037367
 21
40.88331083305723
 31
0.0
  0
LINE
  5
22C
330
22A
100
AcDbEntity
  8
1
  6
Continuous
 62
     7
100
AcDbLine
 10
-9.48543122037367
 20
39.48331083305722
 30
0.0
 11
-9.48543122037367
 21
38.18331083305717
 31
0.0
  0
LINE
  5
22D
330
22A
100
AcDbEntity
  8
1
  6
Continuous
 62
     7
100
AcDbLine
 10
-12.40006881250292
 20
42.18331083305728
 30
0.0
 11
-9.28543122037367
 21
42.18331083305728
 31
0.0
  0
LINE
  5
22E
330
22A
100
AcDbEntity
  8
1
  6
Continuous
 62
     7
100
AcDbLine
 10
-12.67006881250279
 20
38.18331083305717
 30
0.0
 11
-9.28543122037367
 21
38.18331083305717
 31
0.0
  0
SOLID
  5
22F
330
22A
100
AcDbEntity
  8
1
 62
     7
100
AcDbTrace
 10
-9.40643972182123
 20
41.58331083305728
 30
0.0
 11
-9.56442271892611
 21
41.58331083305728
 31
0.0
 12
-9.48543122037367
 22
42.18331083305728
 32
0.0
 13
-9.48543122037367
 23
42.18331083305728
 33
0.0
  0
SOLID
  5
230
330
22A
100
AcDbEntity
  8
1
 62
     7
100
AcDbTrace
 10
-9.56442271892611
 20
38.78331083305717
 30
0.0
 11
-9.40643972182123
 21
38.78331083305717
 31
0.0
 12
-9.48543122037367
 22
38.18331083305717
 32
0.0
 13
-9.48543122037367
 23
38.18331083305717
 33
0.0
  0
MTEXT
  5
231
330
22A
100
AcDbEntity
  8
1
 62
     7
100
AcDbMText
 10
-9.66543122037367
 20
39.88331083305723
 30
0.0
 40
0.6
 41
0.0
 71
     7
 72
     1
  1
4
  7
CONVERTER_11
 11
0.9999999999970619
 21
2.424068405545306E-6
 31
0.0
 73
     1
 44
0.60024009603842
  0
ENDBLK
  5
233
330
22A
100
AcDbEntity
  8
0
100
AcDbBlockEnd
  0
BLOCK
  5
23E
330
236
100
AcDbEntity
  8
0
100
AcDbBlockBegin
  2
*D6
 70
     1
 10
0.0
 20
0.0
 30
0.0
  3
*D6
  1
*D6
  0
LINE
  5
237
330
236
100
AcDbEntity
  8
1
  6
Continuous
 62
     7
100
AcDbLine
 10
-26.38917968040897
 20
35.9700719760417
 30
0.0
 11
-24.239179680409
 21
35.9700719760417
 31
0.0
  0
LINE
  5
238
330
236
100
AcDbEntity
  8
1
  6
Continuous
 62
     7
100
AcDbLine
 10
-24.239179680409
 20
35.9700719760417
 30
0.0
 11
-21.1508098627997
 21
35.9700719760417
 31
0.0
  0
LINE
  5
239
330
236
100
AcDbEntity
  8
1
  6
Continuous
 62
     7
100
AcDbLine
 10
-26.38917968040897
 20
35.88331083308704
 30
0.0
 11
-26.38917968040897
 21
36.1700719760417
 31
0.0
  0
LINE
  5
23A
330
236
100
AcDbEntity
  8
1
  6
Continuous
 62
     7
100
AcDbLine
 10
-24.239179680409
 20
35.88331083308704
 30
0.0
 11
-24.239179680409
 21
36.1700719760417
 31
0.0
  0
SOLID
  5
23B
330
236
100
AcDbEntity
  8
1
 62
     7
100
AcDbTrace
 10
-25.78917968040897
 20
36.04906347459414
 30
0.0
 11
-25.78917968040897
 21
35.89108047748926
 31
0.0
 12
-26.38917968040897
 22
35.9700719760417
 32
0.0
 13
-26.38917968040897
 23
35.9700719760417
 33
0.0
  0
SOLID
  5
23C
330
236
100
AcDbEntity
  8
1
 62
     7
100
AcDbTrace
 10
-24.839179680409
 20
35.89108047748926
 30
0.0
 11
-24.839179680409
 21
36.04906347459414
 31
0.0
 12
-24.239179680409
 22
35.9700719760417
 32
0.0
 13
-24.239179680409
 23
35.9700719760417
 33
0.0
  0
MTEXT
  5
23D
330
236
100
AcDbEntity
  8
1
 62
     7
100
AcDbMText
 10
-23.11280986279825
 20
36.43007078340004
 30
0.0
 40
0.6
 41
0.0
 71
     7
 72
     1
  1
\C7;\U+00f8\C7;2,15
  7
CONVERTER_11
 11
0.9999999999970619
 21
2.424068405545306E-6
 31
0.0
 73
     1
 44
0.60024009603842
  0
ENDBLK
  5
23F
330
236
100
AcDbEntity
  8
0
100
AcDbBlockEnd
  0
ENDSEC
  0
SECTION
  2
ENTITIES
  0
INSERT
  5
78
330
1F
100
AcDbEntity
  8
1
100
AcDbBlockReference
  2
_dummy_frame__1
 10
18.97041178457163
 20
18.6859341723137
 30
0.0
  0
INSERT
  5
79
330
1F
100
AcDbEntity
  8
1
100
AcDbBlockReference
  2
_dummy_frame__2
 10
7.98346315082353
 20
16.54288274826324
 30
0.0
  0
LINE
  5
7C
330
1F
100
AcDbEntity
  8
1
  6
Continuous
 62
     7
100
AcDbLine
 10
-28.40000000000027
 20
19.55575856997961
 30
0.0
 11
-28.40000000000036
 21
13.23575856997963
 31
0.0
  0
LINE
  5
7D
330
1F
100
AcDbEntity
  8
1
  6
Continuous
 62
     7
100
AcDbLine
 10
-37.80000000000001
 20
2.99999999999998
 30
0.0
 11
-31.80000000000001
 21
2.99999999999998
 31
0.0
  0
LINE
  5
7E
330
1F
100
AcDbEntity
  8
1
  6
Continuous
 62
     7
100
AcDbLine
 10
-37.80000000000001
 20
4.0
 30
0.0
 11
-37.80000000000001
 21
0.99999999999998
 31
0.0
  0
LINE
  5
7F
330
1F
100
AcDbEntity
  8
1
  6
Continuous
 62
     7
100
AcDbLine
 10
-9.8
 20
4.0
 30
0.0
 11
-9.8
 21
1.0
 31
0.0
  0
LINE
  5
80
330
1F
100
AcDbEntity
  8
1
  6
Continuous
 62
     7
100
AcDbLine
 10
-6.32947972450292
 20
4.0
 30
0.0
 11
-6.32947972450292
 21
1.0
 31
0.0
  0
LINE
  5
81
330
1F
100
AcDbEntity
  8
1
  6
Continuous
 62
     7
100
AcDbLine
 10
-31.80000000000001
 20
4.0
 30
0.0
 11
-31.80000000000001
 21
1.0
 31
0.0
  0
LINE
  5
82
330
1F
100
AcDbEntity
  8
1
  6
Continuous
 62
     7
100
AcDbLine
 10
-37.80000000000001
 20
1.99999999999998
 30
0.0
 11
-31.80000000000001
 21
1.99999999999998
 31
0.0
  0
LINE
  5
83
330
1F
100
AcDbEntity
  8
1
  6
Continuous
 62
     7
100
AcDbLine
 10
-42.00000000000001
 20
29.69999999999997
 30
0.0
 11
-39.00000000000001
 21
29.69999999999997
 31
0.0
  0
LINE
  5
84
330
1F
100
AcDbEntity
  8
1
  6
Continuous
 62
     7
100
AcDbLine
 10
0.0
 20
0.0
 30
0.0
 11
0.0
 21
59.40000000000003
 31
0.0
  0
LINE
  5
85
330
1F
100
AcDbEntity
  8
1
  6
Continuous
 62
     7
100
AcDbLine
 10
-42.00000000000001
 20
0.0
 30
0.0
 11
0.0
 21
0.0
 31
0.0
  0
LINE
  5
86
330
1F
100
AcDbEntity
  8
1
  6
Continuous
 62
     7
100
AcDbLine
 10
-42.00000000000001
 20
59.40000000000003
 30
0.0
 11
-42.00000000000001
 21
0.0
 31
0.0
  0
LINE
  5
87
330
1F
100
AcDbEntity
  8
1
  6
Continuous
 62
     7
100
AcDbLine
 10
0.0
 20
59.40000000000003
 30
0.0
 11
-42.00000000000001
 21
59.40000000000003
 31
0.0
  0
LINE
  5
88
330
1F
100
AcDbEntity
  8
1
  6
Continuous
 62
     7
100
AcDbLine
 10
-1.0
 20
0.99999999999998
 30
0.0
 11
-1.0
 21
58.40000000000003
 31
0.0
  0
LINE
  5
89
330
1F
100
AcDbEntity
  8
1
  6
Continuous
 62
     7
100
AcDbLine
 10
-1.0
 20
58.40000000000003
 30
0.0
 11
-37.80000000000001
 21
58.40000000000003
 31
0.0
  0
LINE
  5
8A
330
1F
100
AcDbEntity
  8
1
  6
Continuous
 62
     7
100
AcDbLine
 10
-37.80000000000001
 20
58.40000000000003
 30
0.0
 11
-37.80000000000001
 21
0.99999999999998
 31
0.0
  0
LINE
  5
8B
102
{ACAD_REACTORS
330
245
102
}
330
1F
100
AcDbEntity
  8
1
  6
Continuous
 62
     7
100
AcDbLine
 10
-3.19807319558477
 20
2.01549996796652
 30
0.0
 11
-3.19807319558477
 21
2.98450003203348
 31
0.0
  0
LINE
  5
8C
102
{ACAD_REACTORS
330
242
102
}
330
1F
100
AcDbEntity
  8
1
  6
Continuous
 62
     7
100
AcDbLine
 10
-3.46473986225146
 20
2.5
 30
0.0
 11
-3.46473986225146
 21
2.84641016151377
 31
0.0
  0
LINE
  5
8D
102
{ACAD_REACTORS
330
242
102
}
330
1F
100
AcDbEntity
  8
1
  6
Continuous
 62
     7
100
AcDbLine
 10
-3.46473986225146
 20
2.84641016151377
 30
0.0
 11
-3.63587234879196
 21
2.55
 31
0.0
  0
LINE
  5
8E
102
{ACAD_REACTORS
330
242
102
}
330
1F
100
AcDbEntity
  8
1
  6
Continuous
 62
     7
100
AcDbLine
 10
-3.69360737571096
 20
2.55
 30
0.0
 11
-3.86473986225146
 21
2.84641016151377
 31
0.0
  0
LINE
  5
8F
102
{ACAD_REACTORS
330
242
102
}
330
1F
100
AcDbEntity
  8
1
  6
Continuous
 62
     7
100
AcDbLine
 10
-3.86473986225146
 20
2.84641016151377
 30
0.0
 11
-3.86473986225146
 21
2.5
 31
0.0
  0
LINE
  5
90
330
1F
100
AcDbEntity
  8
1
  6
Continuous
 62
     7
100
AcDbLine
 10
-5.34802691727977
 20
2.52887285286827
 30
0.0
 11
-3.66473986225147
 21
3.5
 31
0.0
  0
LINE
  5
91
330
1F
100
AcDbEntity
  8
1
  6
Continuous
 62
     7
100
AcDbLine
 10
-3.66473986225147
 20
3.5
 30
0.0
 11
-1.98145280722315
 21
2.52887285286827
 31
0.0
  0
LINE
  5
92
330
1F
100
AcDbEntity
  8
1
  6
Continuous
 62
     7
100
AcDbLine
 10
-1.98145280722315
 20
2.47112714713171
 30
0.0
 11
-3.66473986225147
 21
1.5
 31
0.0
  0
LINE
  5
93
330
1F
100
AcDbEntity
  8
1
  6
Continuous
 62
     7
100
AcDbLine
 10
-3.66473986225147
 20
1.5
 30
0.0
 11
-5.34802691727977
 21
2.47112714713171
 31
0.0
  0
LINE
  5
94
102
{ACAD_REACTORS
330
242
102
}
330
1F
100
AcDbEntity
  8
1
  6
Continuous
 62
     7
100
AcDbLine
 10
-3.99807319558482
 20
2.5
 30
0.0
 11
-3.99807319558482
 21
3.14624346240692
 31
0.0
  0
LINE
  5
95
102
{ACAD_REACTORS
330
242
102
}
330
1F
100
AcDbEntity
  8
1
  6
Continuous
 62
     7
100
AcDbLine
 10
-3.89918645886014
 20
3.17274008365446
 30
0.0
 11
-3.66473986225147
 21
2.76666666666665
 31
0.0
  0
LINE
  5
96
102
{ACAD_REACTORS
330
242
102
}
330
1F
100
AcDbEntity
  8
1
  6
Continuous
 62
     7
100
AcDbLine
 10
-3.99807319558482
 20
2.5
 30
0.0
 11
-3.99807319558482
 21
2.16951701452658
 31
0.0
  0
LINE
  5
97
102
{ACAD_REACTORS
330
242
102
}
330
1F
100
AcDbEntity
  8
1
  6
Continuous
 62
     7
100
AcDbLine
 10
-3.86473986225146
 20
2.16951701452658
 30
0.0
 11
-3.86473986225146
 21
2.5
 31
0.0
  0
LINE
  5
98
102
{ACAD_REACTORS
330
242
102
}
330
1F
100
AcDbEntity
  8
1
  6
Continuous
 62
     7
100
AcDbLine
 10
-3.46473986225146
 20
2.5
 30
0.0
 11
-3.46473986225146
 21
1.86165381412036
 31
0.0
  0
LINE
  5
99
102
{ACAD_REACTORS
330
242
102
}
330
1F
100
AcDbEntity
  8
1
  6
Continuous
 62
     7
100
AcDbLine
 10
-3.33140652891816
 20
1.86165381412036
 30
0.0
 11
-3.33140652891816
 21
3.14624346240692
 31
0.0
  0
LINE
  5
9A
102
{ACAD_REACTORS
330
242
102
}
330
1F
100
AcDbEntity
  8
1
  6
Continuous
 62
     7
100
AcDbLine
 10
-3.43029326564279
 20
3.17274008365446
 30
0.0
 11
-3.66473986225147
 21
2.76666666666665
 31
0.0
  0
LINE
  5
9B
102
{ACAD_REACTORS
330
243
102
}
330
1F
100
AcDbEntity
  8
1
  6
Continuous
 62
     7
100
AcDbLine
 10
-4.26473986225147
 20
2.05400422960652
 30
0.0
 11
-4.26473986225147
 21
2.98450003203348
 31
0.0
  0
LINE
  5
9C
102
{ACAD_REACTORS
330
243
102
}
330
1F
100
AcDbEntity
  8
1
  6
Continuous
 62
     7
100
AcDbLine
 10
-4.13140652891816
 20
2.98450003203348
 30
0.0
 11
-4.13140652891816
 21
2.05400422960654
 31
0.0
  0
LINE
  5
9D
102
{ACAD_REACTORS
330
243
102
}
330
1F
100
AcDbEntity
  8
1
  6
Continuous
 62
     7
100
AcDbLine
 10
-4.13140652891816
 20
2.05400422960654
 30
0.0
 11
-3.6980916986855
 21
1.80401490447232
 31
0.0
  0
LINE
  5
9E
102
{ACAD_REACTORS
330
243
102
}
330
1F
100
AcDbEntity
  8
1
  6
Continuous
 62
     7
100
AcDbLine
 10
-3.76472135915078
 20
1.68852349299916
 30
0.0
 11
-4.1980361893834
 21
1.93851281813338
 31
0.0
  0
LINE
  5
9F
102
{ACAD_REACTORS
330
244
102
}
330
1F
100
AcDbEntity
  8
1
  6
Continuous
 62
     7
100
AcDbLine
 10
-4.39807319558481
 20
2.83065387818733
 30
0.0
 11
-4.39807319558481
 21
2.20785038345266
 31
0.0
  0
LINE
  5
A0
102
{ACAD_REACTORS
330
244
102
}
330
1F
100
AcDbEntity
  8
1
  6
Continuous
 62
     7
100
AcDbLine
 10
-4.39807319558481
 20
2.20785038345266
 30
0.0
 11
-4.39807319558481
 21
2.16934612181265
 31
0.0
  0
LINE
  5
A1
102
{ACAD_REACTORS
330
244
102
}
330
1F
100
AcDbEntity
  8
1
  6
Continuous
 62
     7
100
AcDbLine
 10
-4.53140652891816
 20
2.16934612181265
 30
0.0
 11
-4.53140652891816
 21
2.83065387818733
 31
0.0
  0
LINE
  5
A2
102
{ACAD_REACTORS
330
245
102
}
330
1F
100
AcDbEntity
  8
1
  6
Continuous
 62
     7
100
AcDbLine
 10
-3.09809169868549
 20
3.04224573777005
 30
0.0
 11
-2.83142503201884
 21
2.88839958392389
 31
0.0
  0
LINE
  5
A3
102
{ACAD_REACTORS
330
245
102
}
330
1F
100
AcDbEntity
  8
1
  6
Continuous
 62
     7
100
AcDbLine
 10
-2.89805469248408
 20
2.77290817245075
 30
0.0
 11
-3.06473986225146
 21
2.86907269347039
 31
0.0
  0
LINE
  5
A4
102
{ACAD_REACTORS
330
245
102
}
330
1F
100
AcDbEntity
  8
1
  6
Continuous
 62
     7
100
AcDbLine
 10
-3.06473986225146
 20
2.86907269347039
 30
0.0
 11
-3.06473986225146
 21
2.56666666666665
 31
0.0
  0
LINE
  5
A5
102
{ACAD_REACTORS
330
245
102
}
330
1F
100
AcDbEntity
  8
1
  6
Continuous
 62
     7
100
AcDbLine
 10
-3.06473986225146
 20
2.56666666666665
 30
0.0
 11
-2.86473986225146
 21
2.56666666666665
 31
0.0
  0
LINE
  5
A6
102
{ACAD_REACTORS
330
245
102
}
330
1F
100
AcDbEntity
  8
1
  6
Continuous
 62
     7
100
AcDbLine
 10
-2.86473986225146
 20
2.43333333333333
 30
0.0
 11
-3.06473986225146
 21
2.43333333333333
 31
0.0
  0
LINE
  5
A7
102
{ACAD_REACTORS
330
245
102
}
330
1F
100
AcDbEntity
  8
1
  6
Continuous
 62
     7
100
AcDbLine
 10
-3.06473986225146
 20
2.43333333333333
 30
0.0
 11
-3.06473986225146
 21
2.13092730652959
 31
0.0
  0
LINE
  5
A8
102
{ACAD_REACTORS
330
245
102
}
330
1F
100
AcDbEntity
  8
1
  6
Continuous
 62
     7
100
AcDbLine
 10
-3.06473986225146
 20
2.13092730652959
 30
0.0
 11
-2.89805469248408
 21
2.22709182754925
 31
0.0
  0
LINE
  5
A9
102
{ACAD_REACTORS
330
245
102
}
330
1F
100
AcDbEntity
  8
1
  6
Continuous
 62
     7
100
AcDbLine
 10
-2.83142503201884
 20
2.11160041607607
 30
0.0
 11
-3.09809169868549
 21
1.95775426222995
 31
0.0
  0
LINE
  5
AA
330
1F
100
AcDbEntity
  8
1
  6
Continuous
 62
     7
100
AcDbLine
 10
-37.80000000000001
 20
5.0
 30
0.0
 11
-1.0
 21
5.0
 31
0.0
  0
LINE
  5
AB
330
1F
100
AcDbEntity
  8
1
  6
Continuous
 62
     7
100
AcDbLine
 10
-36.40000000000001
 20
4.0
 30
0.0
 11
-36.40000000000001
 21
5.0
 31
0.0
  0
LINE
  5
AC
330
1F
100
AcDbEntity
  8
1
  6
Continuous
 62
     7
100
AcDbLine
 10
-32.79999999999998
 20
3.99999999999999
 30
0.0
 11
-32.80000000000001
 21
5.0
 31
0.0
  0
LINE
  5
AD
330
1F
100
AcDbEntity
  8
1
  6
Continuous
 62
     7
100
AcDbLine
 10
-37.80000000000001
 20
6.0
 30
0.0
 11
-1.0
 21
6.0
 31
0.0
  0
LINE
  5
AE
330
1F
100
AcDbEntity
  8
1
  6
Continuous
 62
     7
100
AcDbLine
 10
-36.40000000000001
 20
5.0
 30
0.0
 11
-36.40000000000001
 21
6.0
 31
0.0
  0
LINE
  5
AF
330
1F
100
AcDbEntity
  8
1
  6
Continuous
 62
     7
100
AcDbLine
 10
-32.80000000000001
 20
5.0
 30
0.0
 11
-32.80000000000001
 21
6.0
 31
0.0
  0
LINE
  5
B0
330
1F
100
AcDbEntity
  8
1
  6
Continuous
 62
     7
100
AcDbLine
 10
-37.80000000000001
 20
7.0
 30
0.0
 11
-1.0
 21
7.0
 31
0.0
  0
LINE
  5
B1
330
1F
100
AcDbEntity
  8
1
  6
Continuous
 62
     7
100
AcDbLine
 10
-36.40000000000001
 20
6.0
 30
0.0
 11
-36.40000000000001
 21
7.0
 31
0.0
  0
LINE
  5
B2
330
1F
100
AcDbEntity
  8
1
  6
Continuous
 62
     7
100
AcDbLine
 10
-32.80000000000001
 20
6.0
 30
0.0
 11
-32.80000000000001
 21
7.0
 31
0.0
  0
LINE
  5
B3
330
1F
100
AcDbEntity
  8
1
  6
Continuous
 62
     7
100
AcDbLine
 10
-37.80000000000001
 20
8.0
 30
0.0
 11
-1.0
 21
8.0
 31
0.0
  0
LINE
  5
B4
330
1F
100
AcDbEntity
  8
1
  6
Continuous
 62
     7
100
AcDbLine
 10
-36.40000000000001
 20
7.0
 30
0.0
 11
-36.40000000000001
 21
8.0
 31
0.0
  0
LINE
  5
B5
330
1F
100
AcDbEntity
  8
1
  6
Continuous
 62
     7
100
AcDbLine
 10
-32.80000000000001
 20
7.0
 30
0.0
 11
-32.80000000000001
 21
8.0
 31
0.0
  0
LINE
  5
B6
330
1F
100
AcDbEntity
  8
1
  6
Continuous
 62
     7
100
AcDbLine
 10
-37.80000000000001
 20
0.99999999999998
 30
0.0
 11
-1.0
 21
0.99999999999998
 31
0.0
  0
LINE
  5
B7
330
1F
100
AcDbEntity
  8
1
  6
Continuous
 62
     7
100
AcDbLine
 10
-37.80000000000001
 20
4.0
 30
0.0
 11
-1.0
 21
4.0
 31
0.0
  0
LINE
  5
B8
330
1F
100
AcDbEntity
  8
1
  6
Continuous
 62
     7
100
AcDbLine
 10
-12.40506881250278
 20
36.28331083308709
 30
0.0
 11
-14.255068812503
 21
36.28331083308709
 31
0.0
  0
LINE
  5
B9
330
1F
100
AcDbEntity
  8
1
  6
Continuous
 62
     7
100
AcDbLine
 10
-14.40506881250286
 20
36.13331083308706
 30
0.0
 11
-12.25506881250291
 21
36.13331083308706
 31
0.0
  0
LINE
  5
BA
330
1F
100
AcDbEntity
  8
0
  6
Continuous
 62
     7
100
AcDbLine
 10
-14.25506881250291
 20
35.48331083308714
 30
0.0
 11
-12.40506881250288
 21
35.48331083308714
 31
0.0
  0
LINE
  5
BB
330
1F
100
AcDbEntity
  8
0
  6
Continuous
 62
     7
100
AcDbLine
 10
-14.40506881250288
 20
35.78331083308704
 30
0.0
 11
-12.25506881250291
 21
35.78331083308704
 31
0.0
  0
LINE
  5
BC
330
1F
100
AcDbEntity
  8
0
  6
Continuous
 62
     7
100
AcDbLine
 10
-26.38917968040897
 20
37.38331083308709
 30
0.0
 11
-26.38917968040897
 21
37.03331083308706
 31
0.0
  0
LINE
  5
BD
330
1F
100
AcDbEntity
  8
0
  6
Continuous
 62
     7
100
AcDbLine
 10
-26.38917968040897
 20
37.38331083308709
 30
0.0
 11
-26.03917968040906
 21
37.38331083308695
 31
0.0
  0
LINE
  5
BE
330
1F
100
AcDbEntity
  8
0
  6
Continuous
 62
     7
100
AcDbLine
 10
-26.14417968040908
 20
42.18331083308707
 30
0.0
 11
-26.14417968040897
 21
38.18331083308716
 31
0.0
  0
LINE
  5
BF
330
1F
100
AcDbEntity
  8
0
  6
Continuous
 62
     7
100
AcDbLine
 10
-24.38917968040897
 20
35.48331083308714
 30
0.0
 11
-24.38917968040897
 21
32.78331083308704
 31
0.0
  0
LINE
  5
C0
330
1F
100
AcDbEntity
  8
0
  6
Continuous
 62
     7
100
AcDbLine
 10
-24.40588457417977
 20
32.78331083308704
 30
0.0
 11
-24.40588457417977
 21
27.78331083308704
 31
0.0
  0
LINE
  5
C1
330
1F
100
AcDbEntity
  8
0
  6
Continuous
 62
     7
100
AcDbLine
 10
-24.40588457417977
 20
32.78331083308704
 30
0.0
 11
-24.38917968040897
 21
32.78331083308704
 31
0.0
  0
LINE
  5
C2
330
1F
100
AcDbEntity
  8
0
  6
Continuous
 62
     7
100
AcDbLine
 10
-24.38917968040897
 20
35.48331083308714
 30
0.0
 11
-24.239179680409
 21
35.78331083308704
 31
0.0
  0
LINE
  5
C3
330
1F
100
AcDbEntity
  8
0
  6
Continuous
 62
     7
100
AcDbLine
 10
-26.38917968040897
 20
35.78331083308704
 30
0.0
 11
-24.239179680409
 21
35.78331083308704
 31
0.0
  0
LINE
  5
C4
330
1F
100
AcDbEntity
  8
0
  6
Continuous
 62
     7
100
AcDbLine
 10
-25.31417968040898
 20
38.18331083308696
 30
0.0
 11
-24.58917968040896
 21
38.18331083308707
 31
0.0
  0
LINE
  5
C5
330
1F
100
AcDbEntity
  8
0
  6
Continuous
 62
     7
100
AcDbLine
 10
-24.58917968040896
 20
38.18331083308707
 30
0.0
 11
-24.484179680409
 21
38.18331083308716
 31
0.0
  0
LINE
  5
C6
330
1F
100
AcDbEntity
  8
0
  6
Continuous
 62
     7
100
AcDbLine
 10
-24.58917968040896
 20
38.18331083308707
 30
0.0
 11
-24.58917968040896
 21
37.38331083308695
 31
0.0
  0
LINE
  5
C7
330
1F
100
AcDbEntity
  8
0
  6
Continuous
 62
     7
100
AcDbLine
 10
-25.31417968040898
 20
37.38331083308695
 30
0.0
 11
-24.58917968040896
 21
37.38331083308695
 31
0.0
  0
LINE
  5
C8
330
1F
100
AcDbEntity
  8
0
  6
Continuous
 62
     7
100
AcDbLine
 10
-26.22247478663826
 20
27.78331083308704
 30
0.0
 11
-26.22247478663826
 21
32.78331083308704
 31
0.0
  0
LINE
  5
C9
330
1F
100
AcDbEntity
  8
0
  6
Continuous
 62
     7
100
AcDbLine
 10
-24.40588457417977
 20
27.78331083308704
 30
0.0
 11
-26.22247478663826
 21
27.78331083308704
 31
0.0
  0
LINE
  5
CA
330
1F
100
AcDbEntity
  8
0
  6
Continuous
 62
     7
100
AcDbLine
 10
-26.239179680409
 20
32.78331083308704
 30
0.0
 11
-26.22247478663826
 21
32.78331083308704
 31
0.0
  0
LINE
  5
CB
330
1F
100
AcDbEntity
  8
0
  6
Continuous
 62
     7
100
AcDbLine
 10
-26.239179680409
 20
35.48331083308714
 30
0.0
 11
-26.239179680409
 21
32.78331083308704
 31
0.0
  0
LINE
  5
CC
330
1F
100
AcDbEntity
  8
0
  6
Continuous
 62
     7
100
AcDbLine
 10
-24.484179680409
 20
42.18331083308707
 30
0.0
 11
-26.14417968040908
 21
42.18331083308707
 31
0.0
  0
LINE
  5
CD
330
1F
100
AcDbEntity
  8
0
  6
Continuous
 62
     7
100
AcDbLine
 10
-24.58917968040896
 20
37.38331083308695
 30
0.0
 11
-24.239179680409
 21
37.38331083308709
 31
0.0
  0
LINE
  5
CE
330
1F
100
AcDbEntity
  8
0
  6
Continuous
 62
     7
100
AcDbLine
 10
-24.239179680409
 20
37.38331083308709
 30
0.0
 11
-24.23917968040905
 21
37.03331083308706
 31
0.0
  0
LINE
  5
CF
330
1F
100
AcDbEntity
  8
0
  6
Continuous
 62
     7
100
AcDbLine
 10
-24.484179680409
 20
42.18331083308707
 30
0.0
 11
-24.484179680409
 21
38.18331083308716
 31
0.0
  0
LINE
  5
D0
330
1F
100
AcDbEntity
  8
0
  6
Continuous
 62
     7
100
AcDbLine
 10
-26.239179680409
 20
35.48331083308714
 30
0.0
 11
-26.38917968040897
 21
35.78331083308704
 31
0.0
  0
LINE
  5
D1
330
1F
100
AcDbEntity
  8
0
  6
Continuous
 62
     7
100
AcDbLine
 10
-26.03917968040906
 20
37.38331083308695
 30
0.0
 11
-25.31417968040898
 21
37.38331083308695
 31
0.0
  0
LINE
  5
D2
330
1F
100
AcDbEntity
  8
0
  6
Continuous
 62
     7
100
AcDbLine
 10
-26.03917968040906
 20
38.18331083308707
 30
0.0
 11
-25.31417968040898
 21
38.18331083308696
 31
0.0
  0
LINE
  5
D3
330
1F
100
AcDbEntity
  8
0
  6
Continuous
 62
     7
100
AcDbLine
 10
-26.14417968040897
 20
38.18331083308716
 30
0.0
 11
-26.03917968040906
 21
38.18331083308707
 31
0.0
  0
LINE
  5
D4
330
1F
100
AcDbEntity
  8
0
  6
Continuous
 62
     7
100
AcDbLine
 10
-26.03917968040906
 20
38.18331083308707
 30
0.0
 11
-26.03917968040906
 21
37.38331083308695
 31
0.0
  0
LINE
  5
D5
330
1F
100
AcDbEntity
  8
0
  6
Continuous
 62
     7
100
AcDbLine
 10
-26.239179680409
 20
35.48331083308714
 30
0.0
 11
-24.38917968040897
 21
35.48331083308714
 31
0.0
  0
LINE
  5
D6
102
{ACAD_REACTORS
330
247
102
}
330
1F
100
AcDbEntity
  8
0
  6
Continuous
 62
     7
100
AcDbLine
 10
-13.3300688125029
 20
37.86031083305719
 30
0.0
 11
-12.77006881250279
 21
38.18331083305717
 31
0.0
  0
LINE
  5
D7
330
1F
100
AcDbEntity
  8
0
  6
Continuous
 62
     7
100
AcDbLine
 10
-13.37737510283395
 20
28.03331083305688
 30
0.0
 11
-13.50506881250291
 21
32.78331083305728
 31
0.0
  0
LINE
  5
D8
330
1F
100
AcDbEntity
  8
0
  6
Continuous
 62
     7
100
AcDbLine
 10
-13.37737510283418
 20
27.78331083305728
 30
0.0
 11
-13.37737510283395
 21
28.03331083305688
 31
0.0
  0
LINE
  5
D9
102
{ACAD_REACTORS
330
246
102
}
330
1F
100
AcDbEntity
  8
0
  6
Continuous
 62
     7
100
AcDbLine
 10
-12.50006881250292
 20
42.18331083305728
 30
0.0
 11
-12.50006881250286
 21
39.08331083305729
 31
0.0
  0
LINE
  5
DA
102
{ACAD_REACTORS
330
246
102
}
330
1F
100
AcDbEntity
  8
0
  6
Continuous
 62
     7
100
AcDbLine
 10
-12.77006881250279
 20
42.03087240892146
 30
0.0
 11
-12.61763038836696
 21
42.18331083305728
 31
0.0
  0
LINE
  5
DB
102
{ACAD_REACTORS
330
246
102
}
330
1F
100
AcDbEntity
  8
0
  6
Continuous
 62
     7
100
AcDbLine
 10
-12.77006881250284
 20
39.08331083305729
 30
0.0
 11
-12.77006881250279
 21
42.03087240892146
 31
0.0
  0
LINE
  5
DC
102
{ACAD_REACTORS
330
246
102
}
330
1F
100
AcDbEntity
  8
0
  6
Continuous
 62
     7
100
AcDbLine
 10
-12.50006881250292
 20
42.18331083305728
 30
0.0
 11
-12.61763038836696
 21
42.18331083305728
 31
0.0
  0
LINE
  5
DD
102
{ACAD_REACTORS
330
247
102
}
330
1F
100
AcDbEntity
  8
0
  6
Continuous
 62
     7
100
AcDbLine
 10
-12.60506881250288
 20
38.18331083305726
 30
0.0
 11
-12.50006881250292
 21
38.18331083305717
 31
0.0
  0
LINE
  5
DE
330
1F
100
AcDbEntity
  8
0
  6
Continuous
 62
     7
100
AcDbLine
 10
-12.682762522172
 20
27.78331083305728
 30
0.0
 11
-12.5327625221716
 21
27.78331083305728
 31
0.0
  0
LINE
  5
DF
330
1F
100
AcDbEntity
  8
0
  6
Continuous
 62
     7
100
AcDbLine
 10
-14.12737510283418
 20
27.78331083305728
 30
0.0
 11
-13.97737510283375
 21
27.78331083305728
 31
0.0
  0
LINE
  5
E0
330
1F
100
AcDbEntity
  8
0
  6
Continuous
 62
     7
100
AcDbLine
 10
-12.682762522172
 20
27.78331083305728
 30
0.0
 11
-13.28276252217158
 21
27.78331083305728
 31
0.0
  0
LINE
  5
E1
330
1F
100
AcDbEntity
  8
0
  6
Continuous
 62
     7
100
AcDbLine
 10
-13.28276252217158
 20
28.03331083305697
 30
0.0
 11
-13.28276252217158
 21
27.78331083305728
 31
0.0
  0
LINE
  5
E2
330
1F
100
AcDbEntity
  8
0
  6
Continuous
 62
     7
100
AcDbLine
 10
-14.25506881250291
 20
35.48331083305727
 30
0.0
 11
-14.25506881250291
 21
32.78331083305728
 31
0.0
  0
LINE
  5
E3
330
1F
100
AcDbEntity
  8
0
  6
Continuous
 62
     7
100
AcDbLine
 10
-13.37737510283418
 20
27.78331083305728
 30
0.0
 11
-13.97737510283375
 21
27.78331083305728
 31
0.0
  0
LINE
  5
E4
330
1F
100
AcDbEntity
  8
0
  6
Continuous
 62
     7
100
AcDbLine
 10
-12.61763038836696
 20
42.18331083305728
 30
0.0
 11
-14.04250723663861
 21
42.18331083305709
 31
0.0
  0
LINE
  5
E5
102
{ACAD_REACTORS
330
247
102
}
330
1F
100
AcDbEntity
  8
0
  6
Continuous
 62
     7
100
AcDbLine
 10
-13.3300688125029
 20
37.86031083305719
 30
0.0
 11
-13.89006881250302
 21
38.18331083305717
 31
0.0
  0
LINE
  5
E6
330
1F
100
AcDbEntity
  8
0
  6
Continuous
 62
     7
100
AcDbLine
 10
-12.77006881250279
 20
42.03087240892146
 30
0.0
 11
-13.89006881250302
 21
42.03087240892146
 31
0.0
  0
LINE
  5
E7
330
1F
100
AcDbEntity
  8
0
  6
Continuous
 62
     7
100
AcDbLine
 10
-12.77006881250279
 20
38.18331083305717
 30
0.0
 11
-13.89006881250302
 21
38.18331083305717
 31
0.0
  0
LINE
  5
E8
102
{ACAD_REACTORS
330
247
102
}
330
1F
100
AcDbEntity
  8
0
  6
Continuous
 62
     7
100
AcDbLine
 10
-14.16006881250289
 20
42.18331083305728
 30
0.0
 11
-14.16006881250289
 21
38.18331083305726
 31
0.0
  0
LINE
  5
E9
102
{ACAD_REACTORS
330
247
102
}
330
1F
100
AcDbEntity
  8
0
  6
Continuous
 62
     7
100
AcDbLine
 10
-13.89006881250302
 20
42.03087240892146
 30
0.0
 11
-14.04250723663861
 21
42.18331083305709
 31
0.0
  0
LINE
  5
EA
102
{ACAD_REACTORS
330
247
102
}
330
1F
100
AcDbEntity
  8
0
  6
Continuous
 62
     7
100
AcDbLine
 10
-13.89006881250302
 20
38.18331083305717
 30
0.0
 11
-13.89006881250302
 21
42.03087240892146
 31
0.0
  0
LINE
  5
EB
102
{ACAD_REACTORS
330
247
102
}
330
1F
100
AcDbEntity
  8
0
  6
Continuous
 62
     7
100
AcDbLine
 10
-14.04250723663861
 20
42.18331083305709
 30
0.0
 11
-14.16006881250289
 21
42.18331083305728
 31
0.0
  0
LINE
  5
EC
102
{ACAD_REACTORS
330
247
102
}
330
1F
100
AcDbEntity
  8
0
  6
Continuous
 62
     7
100
AcDbLine
 10
-14.16006881250289
 20
38.18331083305726
 30
0.0
 11
-14.05506881250298
 21
38.18331083305726
 31
0.0
  0
LINE
  5
ED
102
{ACAD_REACTORS
330
247
102
}
330
1F
100
AcDbEntity
  8
0
  6
Continuous
 62
     7
100
AcDbLine
 10
-14.05506881250298
 20
38.18331083305726
 30
0.0
 11
-14.05506881250298
 21
37.38331083305719
 31
0.0
  0
LINE
  5
EE
102
{ACAD_REACTORS
330
247
102
}
330
1F
100
AcDbEntity
  8
0
  6
Continuous
 62
     7
100
AcDbLine
 10
-14.05506881250298
 20
37.38331083305719
 30
0.0
 11
-14.405068812503
 21
37.38331083305719
 31
0.0
  0
LINE
  5
EF
330
1F
100
AcDbEntity
  8
0
  6
Continuous
 62
     7
100
AcDbLine
 10
-14.40506881250289
 20
35.9741493378862
 30
0.0
 11
-14.40506881250289
 21
35.78331083305728
 31
0.0
  0
LINE
  5
F0
330
1F
100
AcDbEntity
  8
0
  6
Continuous
 62
     7
100
AcDbLine
 10
-13.28276252217158
 20
28.03331083305697
 30
0.0
 11
-13.15506881250289
 21
32.78331083305728
 31
0.0
  0
LINE
  5
F1
330
1F
100
AcDbEntity
  8
0
  6
Continuous
 62
     7
100
AcDbLine
 10
-13.50506881250291
 20
32.78331083305728
 30
0.0
 11
-13.15506881250289
 21
32.78331083305728
 31
0.0
  0
LINE
  5
F2
330
1F
100
AcDbEntity
  8
0
  6
Continuous
 62
     7
100
AcDbLine
 10
-12.40506881250289
 20
35.48331083305727
 30
0.0
 11
-12.40506881250289
 21
32.78331083305728
 31
0.0
  0
LINE
  5
F3
102
{ACAD_REACTORS
330
247
102
}
330
1F
100
AcDbEntity
  8
0
  6
Continuous
 62
     7
100
AcDbLine
 10
-12.25506881250291
 20
37.38331083305719
 30
0.0
 11
-12.60506881250288
 21
37.38331083305719
 31
0.0
  0
LINE
  5
F4
102
{ACAD_REACTORS
330
246
102
}
330
1F
100
AcDbEntity
  8
0
  6
Continuous
 62
     7
100
AcDbLine
 10
-12.50006881250286
 20
39.08331083305729
 30
0.0
 11
-12.77006881250284
 21
39.08331083305729
 31
0.0
  0
LINE
  5
F5
102
{ACAD_REACTORS
330
247
102
}
330
1F
100
AcDbEntity
  8
1
  6
Continuous
 62
     7
100
AcDbLine
 10
-12.77006881250284
 20
38.48327748255876
 30
0.0
 11
-12.77006881250279
 21
38.18331083305717
 31
0.0
  0
LINE
  5
F6
102
{ACAD_REACTORS
330
247
102
}
330
1F
100
AcDbEntity
  8
1
  6
Continuous
 62
     7
100
AcDbLine
 10
-12.50006881250286
 20
38.48327748255876
 30
0.0
 11
-12.50006881250292
 21
38.18331083305717
 31
0.0
  0
LINE
  5
F7
102
{ACAD_REACTORS
330
247
102
}
330
1F
100
AcDbEntity
  8
1
  6
Continuous
 62
     7
100
AcDbLine
 10
-12.50006881250286
 20
38.48327748255876
 30
0.0
 11
-12.77006881250284
 21
38.48327748255876
 31
0.0
  0
LINE
  5
F8
330
1F
100
AcDbEntity
  8
1
  6
Continuous
 62
     7
100
AcDbLine
 10
-26.38917968040897
 20
36.13331083308706
 30
0.0
 11
-26.23917968040911
 21
36.28331083308709
 31
0.0
  0
LINE
  5
F9
330
1F
100
AcDbEntity
  8
1
  6
Continuous
 62
     7
100
AcDbLine
 10
-26.23917968040911
 20
36.28331083308709
 30
0.0
 11
-26.38917968040897
 21
36.43331083308707
 31
0.0
  0
LINE
  5
FA
330
1F
100
AcDbEntity
  8
1
  6
Continuous
 62
     7
100
AcDbLine
 10
-26.38917968040897
 20
36.73331083308708
 30
0.0
 11
-26.23917968040911
 21
36.88331083308706
 31
0.0
  0
LINE
  5
FB
330
1F
100
AcDbEntity
  8
1
  6
Continuous
 62
     7
100
AcDbLine
 10
-26.23917968040911
 20
36.88331083308706
 30
0.0
 11
-26.38917968040897
 21
37.03331083308706
 31
0.0
  0
LINE
  5
FC
330
1F
100
AcDbEntity
  8
1
  6
Continuous
 62
     7
100
AcDbLine
 10
-26.38917968040897
 20
37.03331083308706
 30
0.0
 11
-24.23917968040905
 21
37.03331083308706
 31
0.0
  0
LINE
  5
FD
330
1F
100
AcDbEntity
  8
1
  6
Continuous
 62
     7
100
AcDbLine
 10
-26.38917968040897
 20
36.73331083308708
 30
0.0
 11
-24.23917968040905
 21
36.73331083308708
 31
0.0
  0
LINE
  5
FE
330
1F
100
AcDbEntity
  8
1
  6
Continuous
 62
     7
100
AcDbLine
 10
-26.38917968040897
 20
36.43331083308707
 30
0.0
 11
-24.23917968040905
 21
36.43331083308707
 31
0.0
  0
LINE
  5
FF
330
1F
100
AcDbEntity
  8
1
  6
Continuous
 62
     7
100
AcDbLine
 10
-26.38917968040897
 20
36.13331083308706
 30
0.0
 11
-24.23917968040905
 21
36.13331083308706
 31
0.0
  0
LINE
  5
100
330
1F
100
AcDbEntity
  8
1
  6
Continuous
 62
     7
100
AcDbLine
 10
-24.38917968040892
 20
36.28331083308709
 30
0.0
 11
-24.23917968040905
 21
36.13331083308706
 31
0.0
  0
LINE
  5
101
330
1F
100
AcDbEntity
  8
1
  6
Continuous
 62
     7
100
AcDbLine
 10
-24.23917968040905
 20
36.43331083308707
 30
0.0
 11
-24.38917968040892
 21
36.28331083308709
 31
0.0
  0
LINE
  5
102
330
1F
100
AcDbEntity
  8
1
  6
Continuous
 62
     7
100
AcDbLine
 10
-24.38917968040892
 20
36.88331083308706
 30
0.0
 11
-24.23917968040905
 21
36.73331083308708
 31
0.0
  0
LINE
  5
103
330
1F
100
AcDbEntity
  8
1
  6
Continuous
 62
     7
100
AcDbLine
 10
-24.23917968040905
 20
37.03331083308706
 30
0.0
 11
-24.38917968040892
 21
36.88331083308706
 31
0.0
  0
LINE
  5
104
330
1F
100
AcDbEntity
  8
1
  6
Continuous
 62
     7
100
AcDbLine
 10
-24.38917968040892
 20
36.88331083308706
 30
0.0
 11
-26.23917968040911
 21
36.88331083308706
 31
0.0
  0
LINE
  5
105
330
1F
100
AcDbEntity
  8
1
  6
Continuous
 62
     7
100
AcDbLine
 10
-24.38917968040892
 20
36.28331083308709
 30
0.0
 11
-26.23917968040911
 21
36.28331083308709
 31
0.0
  0
LINE
  5
106
330
1F
100
AcDbEntity
  8
0
  6
Continuous
 62
     7
100
AcDbLine
 10
-26.38917968040897
 20
36.13331083308706
 30
0.0
 11
-26.38917968040897
 21
35.78331083308704
 31
0.0
  0
LINE
  5
107
330
1F
100
AcDbEntity
  8
0
  6
Continuous
 62
     7
100
AcDbLine
 10
-26.38917968040897
 20
36.73331083308708
 30
0.0
 11
-26.38917968040897
 21
36.43331083308707
 31
0.0
  0
LINE
  5
108
330
1F
100
AcDbEntity
  8
0
  6
Continuous
 62
     7
100
AcDbLine
 10
-24.23917968040905
 20
36.73331083308708
 30
0.0
 11
-24.23917968040905
 21
36.43331083308707
 31
0.0
  0
LINE
  5
109
330
1F
100
AcDbEntity
  8
0
  6
Continuous
 62
     7
100
AcDbLine
 10
-24.23917968040905
 20
36.13331083308706
 30
0.0
 11
-24.239179680409
 21
35.78331083308704
 31
0.0
  0
LINE
  5
10A
330
1F
100
AcDbEntity
  8
1
  6
Continuous
 62
     7
100
AcDbLine
 10
-12.25506881250291
 20
36.43331083308707
 30
0.0
 11
-12.40506881250278
 21
36.28331083308709
 31
0.0
  0
LINE
  5
10B
330
1F
100
AcDbEntity
  8
1
  6
Continuous
 62
     7
100
AcDbLine
 10
-12.40506881250278
 20
36.28331083308709
 30
0.0
 11
-12.25506881250291
 21
36.13331083308706
 31
0.0
  0
LINE
  5
10C
102
{ACAD_REACTORS
330
247
102
}
330
1F
100
AcDbEntity
  8
1
  6
Continuous
 62
     7
100
AcDbLine
 10
-12.25506881250291
 20
37.03331083308706
 30
0.0
 11
-12.40506881250278
 21
36.88331083308706
 31
0.0
  0
LINE
  5
10D
102
{ACAD_REACTORS
330
247
102
}
330
1F
100
AcDbEntity
  8
1
  6
Continuous
 62
     7
100
AcDbLine
 10
-14.255068812503
 20
36.88331083308706
 30
0.0
 11
-14.40506881250286
 21
37.03331083308706
 31
0.0
  0
LINE
  5
10E
102
{ACAD_REACTORS
330
247
102
}
330
1F
100
AcDbEntity
  8
1
  6
Continuous
 62
     7
100
AcDbLine
 10
-14.40506881250286
 20
36.73331083308708
 30
0.0
 11
-14.255068812503
 21
36.88331083308706
 31
0.0
  0
LINE
  5
10F
330
1F
100
AcDbEntity
  8
1
  6
Continuous
 62
     7
100
AcDbLine
 10
-14.255068812503
 20
36.28331083308709
 30
0.0
 11
-14.40506881250286
 21
36.43331083308707
 31
0.0
  0
LINE
  5
110
330
1F
100
AcDbEntity
  8
1
  6
Continuous
 62
     7
100
AcDbLine
 10
-14.40506881250286
 20
36.13331083308706
 30
0.0
 11
-14.255068812503
 21
36.28331083308709
 31
0.0
  0
LINE
  5
111
102
{ACAD_REACTORS
330
247
102
}
330
1F
100
AcDbEntity
  8
0
  6
Continuous
 62
     7
100
AcDbLine
 10
-12.25506881250291
 20
36.73331083308708
 30
0.0
 11
-12.25506881250291
 21
36.5814724666805
 31
0.0
  0
LINE
  5
112
102
{ACAD_REACTORS
330
247
102
}
330
1F
100
AcDbEntity
  8
0
  6
Continuous
 62
     7
100
AcDbLine
 10
-12.25506881250291
 20
37.38331083305719
 30
0.0
 11
-12.25506881250291
 21
37.03331083308706
 31
0.0
  0
LINE
  5
113
102
{ACAD_REACTORS
330
247
102
}
330
1F
100
AcDbEntity
  8
0
  6
Continuous
 62
     7
100
AcDbLine
 10
-14.405068812503
 20
37.38331083305719
 30
0.0
 11
-14.40506881250286
 21
37.03331083308706
 31
0.0
  0
LINE
  5
114
102
{ACAD_REACTORS
330
247
102
}
330
1F
100
AcDbEntity
  8
0
  6
Continuous
 62
     7
100
AcDbLine
 10
-14.40506881250286
 20
36.73331083308708
 30
0.0
 11
-14.40506881250286
 21
36.5433594072719
 31
0.0
  0
LINE
  5
115
330
1F
100
AcDbEntity
  8
0
  6
Continuous
 62
     7
100
AcDbLine
 10
-14.25506881250291
 20
35.48331083305727
 30
0.0
 11
-14.40506881250289
 21
35.78331083305728
 31
0.0
  0
LINE
  5
116
330
1F
100
AcDbEntity
  8
0
  6
Continuous
 62
     7
100
AcDbLine
 10
-12.40506881250289
 20
35.48331083305727
 30
0.0
 11
-12.25506881250291
 21
35.78331083305728
 31
0.0
  0
LINE
  5
117
102
{ACAD_REACTORS
330
247
102
}
330
1F
100
AcDbEntity
  8
1
  6
Continuous
 62
     7
100
AcDbLine
 10
-12.40506881250278
 20
36.88331083308706
 30
0.0
 11
-12.25506881250291
 21
36.73331083308708
 31
0.0
  0
LINE
  5
118
330
1F
100
AcDbEntity
  8
0
  6
Continuous
 62
     7
100
AcDbLine
 10
-14.40506881250286
 20
36.13331083308706
 30
0.0
 11
-14.40506881250289
 21
35.9741493378862
 31
0.0
  0
LINE
  5
119
330
1F
100
AcDbEntity
  8
0
  6
Continuous
 62
     7
100
AcDbLine
 10
-12.25506881250291
 20
36.13331083308706
 30
0.0
 11
-12.25506881250291
 21
35.78331083305728
 31
0.0
  0
LINE
  5
11A
102
{ACAD_REACTORS
330
247
102
}
330
1F
100
AcDbEntity
  8
0
  6
Continuous
 62
     7
100
AcDbLine
 10
-12.60506881250288
 20
38.18331083305726
 30
0.0
 11
-12.60506881250288
 21
37.38331083305719
 31
0.0
  0
LINE
  5
11B
330
1F
100
AcDbEntity
  8
0
  6
Continuous
 62
     7
100
AcDbLine
 10
-12.40506881250289
 20
32.78331083305728
 30
0.0
 11
-12.5327625221716
 21
27.78331083305728
 31
0.0
  0
LINE
  5
11C
330
1F
100
AcDbEntity
  8
0
  6
Continuous
 62
     7
100
AcDbLine
 10
-14.25506881250291
 20
32.78331083305728
 30
0.0
 11
-14.12737510283418
 21
27.78331083305728
 31
0.0
  0
LINE
  5
11D
330
1F
100
AcDbEntity
  8
1
  6
Continuous
 62
     7
100
AcDbLine
 10
-5.19999999999974
 20
13.23575856997963
 30
0.0
 11
-33.60000000000036
 21
13.23575856997963
 31
0.0
  0
LINE
  5
11E
330
1F
100
AcDbEntity
  8
1
  6
Continuous
 62
     7
100
AcDbLine
 10
-8.79999999999985
 20
17.07575856997959
 30
0.0
 11
-33.60000000000032
 21
17.07575856997959
 31
0.0
  0
LINE
  5
11F
330
1F
100
AcDbEntity
  8
1
  6
Continuous
 62
     7
100
AcDbLine
 10
-33.60000000000032
 20
18.35575856997961
 30
0.0
 11
-5.19999999999977
 21
18.35575856997961
 31
0.0
  0
LINE
  5
120
330
1F
100
AcDbEntity
  8
1
  6
Continuous
 62
     7
100
AcDbLine
 10
-33.60000000000032
 20
15.7957585699796
 30
0.0
 11
-8.79999999999985
 21
15.7957585699796
 31
0.0
  0
LINE
  5
121
330
1F
100
AcDbEntity
  8
1
  6
Continuous
 62
     7
100
AcDbLine
 10
-33.60000000000026
 20
20.75575856997964
 30
0.0
 11
-5.19999999999974
 21
20.7557585699796
 31
0.0
  0
LINE
  5
122
330
1F
100
AcDbEntity
  8
1
  6
Continuous
 62
     7
100
AcDbLine
 10
-23.2000000000002
 20
20.7557585699796
 30
0.0
 11
-23.2000000000002
 21
13.23575856997963
 31
0.0
  0
LINE
  5
123
330
1F
100
AcDbEntity
  8
1
  6
Continuous
 62
     7
100
AcDbLine
 10
-20.4000000000001
 20
20.7557585699796
 30
0.0
 11
-20.4000000000001
 21
13.23575856997963
 31
0.0
  0
LINE
  5
124
330
1F
100
AcDbEntity
  8
1
  6
Continuous
 62
     7
100
AcDbLine
 10
-16.80000000000002
 20
19.5557585699796
 30
0.0
 11
-16.80000000000002
 21
13.23575856997963
 31
0.0
  0
LINE
  5
125
330
1F
100
AcDbEntity
  8
1
  6
Continuous
 62
     7
100
AcDbLine
 10
-8.79999999999985
 20
20.7557585699796
 30
0.0
 11
-8.79999999999985
 21
13.23575856997963
 31
0.0
  0
LINE
  5
126
330
1F
100
AcDbEntity
  8
1
  6
Continuous
 62
     7
100
AcDbLine
 10
-5.19999999999974
 20
20.7557585699796
 30
0.0
 11
-5.19999999999974
 21
13.23575856997963
 31
0.0
  0
LINE
  5
127
330
1F
100
AcDbEntity
  8
1
  6
Continuous
 62
     7
100
AcDbLine
 10
-13.19999999999994
 20
20.7557585699796
 30
0.0
 11
-13.19999999999994
 21
13.23575856997963
 31
0.0
  0
LINE
  5
128
330
1F
100
AcDbEntity
  8
1
  6
Continuous
 62
     7
100
AcDbLine
 10
-33.60000000000026
 20
20.75575856997964
 30
0.0
 11
-33.60000000000036
 21
13.23575856997963
 31
0.0
  0
LINE
  5
129
330
1F
100
AcDbEntity
  8
0
  6
Continuous
 62
     7
100
AcDbLine
 10
-12.25506881250291
 20
36.5814724666805
 30
0.0
 11
-12.25506881250291
 21
36.43331083308707
 31
0.0
  0
LINE
  5
12A
330
1F
100
AcDbEntity
  8
0
  6
Continuous
 62
     7
100
AcDbLine
 10
-14.40506881250286
 20
36.5433594072719
 30
0.0
 11
-14.40506881250286
 21
36.43331083308707
 31
0.0
  0
LINE
  5
12B
330
1F
100
AcDbEntity
  8
0
  6
Continuous
 62
     7
100
AcDbLine
 10
-6.05780477483723
 20
54.89825809639859
 30
0.0
 11
-2.79097144575533
 21
53.26484143185762
 31
0.0
  0
LINE
  5
12C
330
1F
100
AcDbEntity
  8
0
  6
Continuous
 62
     7
100
AcDbLine
 10
-8.92586521015063
 20
56.26856037669656
 30
0.0
 11
-7.14395612156054
 21
55.37760583240154
 31
0.0
  0
LINE
  5
12D
330
1F
100
AcDbEntity
  8
0
  6
Continuous
 62
     7
100
AcDbLine
 10
-5.08624912279289
 20
54.18968917627217
 30
0.0
 11
-5.08624912279289
 21
54.33818160032138
 31
0.0
  0
LINE
  5
12E
330
1F
100
AcDbEntity
  8
0
  6
Continuous
 62
     7
100
AcDbLine
 10
-5.99654771469767
 20
54.86762956632884
 30
0.0
 11
-6.03052206594137
 21
54.92895866032534
 31
0.0
  0
LINE
  5
12F
330
1F
100
AcDbEntity
  8
0
  6
Continuous
 62
     7
100
AcDbLine
 10
-6.82365728179481
 20
55.38180740886493
 30
0.0
 11
-6.14483477185579
 21
55.0423961538954
 31
0.0
  0
LINE
  5
130
330
1F
100
AcDbEntity
  8
0
  6
Continuous
 62
     7
100
AcDbLine
 10
-7.40056281998982
 20
54.227996332475
 30
0.0
 11
-6.7217403100507
 21
53.88858507750548
 31
0.0
  0
LINE
  5
131
330
1F
100
AcDbEntity
  8
0
  6
Continuous
 62
     7
100
AcDbLine
 10
-6.49295480570263
 20
53.87481538431889
 30
0.0
 11
-6.56240269164606
 21
53.86519740891598
 31
0.0
  0
LINE
  5
132
330
1F
100
AcDbEntity
  8
0
  6
Continuous
 62
     7
100
AcDbLine
 10
-9.37128995126861
 20
55.37771089446062
 30
0.0
 11
-7.58938086267851
 21
54.48675635016559
 31
0.0
  0
LINE
  5
133
330
1F
100
AcDbEntity
  8
0
  6
Continuous
 62
     7
100
AcDbLine
 10
-6.55421186584219
 20
53.90544391438868
 30
0.0
 11
-3.28737853676032
 21
52.27202724984778
 31
0.0
  0
LINE
  5
134
330
1F
100
AcDbEntity
  8
0
  6
Continuous
 62
     7
100
AcDbLine
 10
-5.08624912279289
 20
54.33818160032138
 30
0.0
 11
-2.96492877923327
 21
53.2775214285416
 31
0.0
  0
LINE
  5
135
330
1F
100
AcDbEntity
  8
0
  6
Continuous
 62
     7
100
AcDbLine
 10
-3.11342120328245
 20
53.20327521651699
 30
0.0
 11
-5.23474154684208
 21
54.26393538829682
 31
0.0
  0
LINE
  5
136
330
1F
100
AcDbEntity
  8
0
  6
Continuous
 62
     7
100
AcDbLine
 10
-2.96492877923327
 20
53.2775214285416
 30
0.0
 11
-2.96492877923364
 21
53.21118196535444
 31
0.0
  0
LINE
  5
137
330
1F
100
AcDbEntity
  8
0
  6
Continuous
 62
     7
100
AcDbLine
 10
-3.07099479641137
 20
52.58765457743125
 30
0.0
 11
-3.36246280746888
 21
52.73338858295998
 31
0.0
  0
LINE
  5
138
330
1F
100
AcDbEntity
  8
0
  6
Continuous
 62
     7
100
AcDbLine
 10
-3.11342120328245
 20
53.13693575332992
 30
0.0
 11
-3.11342120328245
 21
53.20327521651699
 31
0.0
  0
LINE
  5
139
330
1F
100
AcDbEntity
  8
0
  6
Continuous
 62
     7
100
AcDbLine
 10
-3.07099479641117
 20
53.1295263334767
 30
0.0
 11
-3.11342120328245
 21
53.15073953691244
 31
0.0
  0
LINE
  5
13A
330
1F
100
AcDbEntity
  8
0
  6
Continuous
 62
     7
100
AcDbLine
 10
-3.21948722046049
 20
52.51340836540689
 30
0.0
 11
-3.34713846330193
 21
52.57723398682738
 31
0.0
  0
LINE
  5
13B
330
1F
100
AcDbEntity
  8
0
  6
Continuous
 62
     7
100
AcDbLine
 10
-2.96492877923327
 20
52.39993292837553
 30
0.0
 11
-2.96492877923327
 21
52.33359346518843
 31
0.0
  0
LINE
  5
13C
330
1F
100
AcDbEntity
  8
0
  6
Continuous
 62
     7
100
AcDbLine
 10
-2.96492877923327
 20
52.33359346518843
 30
0.0
 11
-3.17848158975108
 21
52.44036987044733
 31
0.0
  0
LINE
  5
13D
330
1F
100
AcDbEntity
  8
0
  6
Continuous
 62
     7
100
AcDbLine
 10
-3.11342120328245
 20
52.25934725316385
 30
0.0
 11
-3.11342120328245
 21
52.32568671635096
 31
0.0
  0
LINE
  5
13E
330
1F
100
AcDbEntity
  8
0
  6
Continuous
 62
     7
100
AcDbLine
 10
-12.42118885126019
 20
17.43957606997959
 30
0.0
 11
-11.09018885126023
 21
17.43957606997963
 31
0.0
  0
LINE
  5
13F
330
1F
100
AcDbEntity
  8
0
  6
Continuous
 62
     7
100
AcDbLine
 10
-10.19176385126021
 20
18.02355231997963
 30
0.0
 11
-9.62608885126019
 21
18.02355231997963
 31
0.0
  0
LINE
  5
140
330
1F
100
AcDbEntity
  8
0
  6
Continuous
 62
     7
100
AcDbLine
 10
-10.19176385126021
 20
18.02355231997963
 30
0.0
 11
-10.2915888512602
 21
18.07346481997962
 31
0.0
  0
LINE
  5
141
330
1F
100
AcDbEntity
  8
0
  6
Continuous
 62
     7
100
AcDbLine
 10
-11.09018885126023
 20
17.43957606997963
 30
0.0
 11
-11.09018885126023
 21
17.99194106997961
 31
0.0
  0
LINE
  5
142
330
1F
100
AcDbEntity
  8
0
  6
Continuous
 62
     7
100
AcDbLine
 10
-11.09018885126019
 20
17.95700231997963
 30
0.0
 11
-10.82398885126019
 21
17.95700231997963
 31
0.0
  0
LINE
  5
143
330
1F
100
AcDbEntity
  8
0
  6
Continuous
 62
     7
100
AcDbLine
 10
-10.19176385126021
 20
17.40796481997962
 30
0.0
 11
-9.62608885126019
 21
17.40796481997962
 31
0.0
  0
LINE
  5
144
330
1F
100
AcDbEntity
  8
0
  6
Continuous
 62
     7
100
AcDbLine
 10
-12.42118885126019
 20
17.99194106997961
 30
0.0
 11
-12.42118885126019
 21
17.43957606997959
 31
0.0
  0
LINE
  5
145
330
1F
100
AcDbEntity
  8
0
  6
Continuous
 62
     7
100
AcDbLine
 10
-10.82398885126019
 20
17.35805231997962
 30
0.0
 11
-10.82398885126019
 21
18.07346481997962
 31
0.0
  0
LINE
  5
146
330
1F
100
AcDbEntity
  8
0
  6
Continuous
 62
     7
100
AcDbLine
 10
-12.42118885126019
 20
17.99194106997961
 30
0.0
 11
-11.09018885126023
 21
17.99194106997961
 31
0.0
  0
LINE
  5
147
330
1F
100
AcDbEntity
  8
0
  6
Continuous
 62
     7
100
AcDbLine
 10
-10.19176385126021
 20
17.40796481997962
 30
0.0
 11
-10.2915888512602
 21
17.35805231997962
 31
0.0
  0
LINE
  5
148
330
1F
100
AcDbEntity
  8
0
  6
Continuous
 62
     7
100
AcDbLine
 10
-10.2915888512602
 20
17.35805231997962
 30
0.0
 11
-10.2915888512602
 21
18.07346481997962
 31
0.0
  0
LINE
  5
149
330
1F
100
AcDbEntity
  8
0
  6
Continuous
 62
     7
100
AcDbLine
 10
-11.09018885126019
 20
17.47451481997959
 30
0.0
 11
-10.82398885126019
 21
17.47451481997959
 31
0.0
  0
LINE
  5
14A
330
1F
100
AcDbEntity
  8
0
  6
Continuous
 62
     7
100
AcDbLine
 10
-10.19176385126021
 20
17.40796481997962
 30
0.0
 11
-10.19176385126021
 21
18.02355231997963
 31
0.0
  0
LINE
  5
14B
330
1F
100
AcDbEntity
  8
0
  6
Continuous
 62
     7
100
AcDbLine
 10
-10.82398885126019
 20
17.35805231997962
 30
0.0
 11
-10.2915888512602
 21
17.35805231997962
 31
0.0
  0
LINE
  5
14C
330
1F
100
AcDbEntity
  8
0
  6
Continuous
 62
     7
100
AcDbLine
 10
-10.82398885126019
 20
18.07346481997962
 30
0.0
 11
-10.2915888512602
 21
18.07346481997962
 31
0.0
  0
LINE
  5
14D
330
1F
100
AcDbEntity
  8
0
  6
Continuous
 62
     7
100
AcDbLine
 10
-10.60770135126019
 20
16.79346481997962
 30
0.0
 11
-10.2915888512602
 21
16.79346481997963
 31
0.0
  0
LINE
  5
14E
330
1F
100
AcDbEntity
  8
0
  6
Continuous
 62
     7
100
AcDbLine
 10
-10.60770135126019
 20
16.07805231997962
 30
0.0
 11
-10.2915888512602
 21
16.07805231997963
 31
0.0
  0
LINE
  5
14F
330
1F
100
AcDbEntity
  8
1
  6
Continuous
 62
     7
100
AcDbLine
 10
-10.65761385126018
 20
16.74355231997964
 30
0.0
 11
-10.65761385126018
 21
16.12796481997958
 31
0.0
  0
LINE
  5
150
330
1F
100
AcDbEntity
  8
1
  6
Continuous
 62
     7
100
AcDbLine
 10
-10.7075263512602
 20
16.79346481997962
 30
0.0
 11
-10.65761385126018
 21
16.74355231997964
 31
0.0
  0
LINE
  5
151
330
1F
100
AcDbEntity
  8
1
  6
Continuous
 62
     7
100
AcDbLine
 10
-10.65761385126018
 20
16.74355231997964
 30
0.0
 11
-10.60770135126019
 21
16.79346481997962
 31
0.0
  0
LINE
  5
152
330
1F
100
AcDbEntity
  8
1
  6
Continuous
 62
     7
100
AcDbLine
 10
-10.60770135126019
 20
16.07805231997962
 30
0.0
 11
-10.60770135126019
 21
16.79346481997962
 31
0.0
  0
LINE
  5
153
330
1F
100
AcDbEntity
  8
1
  6
Continuous
 62
     7
100
AcDbLine
 10
-10.7075263512602
 20
16.07805231997962
 30
0.0
 11
-10.7075263512602
 21
16.79346481997962
 31
0.0
  0
LINE
  5
154
330
1F
100
AcDbEntity
  8
1
  6
Continuous
 62
     7
100
AcDbLine
 10
-10.65761385126018
 20
16.12796481997958
 30
0.0
 11
-10.7075263512602
 21
16.07805231997962
 31
0.0
  0
LINE
  5
155
330
1F
100
AcDbEntity
  8
1
  6
Continuous
 62
     7
100
AcDbLine
 10
-10.60770135126019
 20
16.07805231997962
 30
0.0
 11
-10.65761385126018
 21
16.12796481997958
 31
0.0
  0
LINE
  5
156
330
1F
100
AcDbEntity
  8
0
  6
Continuous
 62
     7
100
AcDbLine
 10
-10.19176385126021
 20
16.12796481997962
 30
0.0
 11
-10.19176385126021
 21
16.74355231997964
 31
0.0
  0
LINE
  5
157
330
1F
100
AcDbEntity
  8
0
  6
Continuous
 62
     7
100
AcDbLine
 10
-11.09018885126019
 20
16.1945148199796
 30
0.0
 11
-10.82398885126019
 21
16.1945148199796
 31
0.0
  0
LINE
  5
158
330
1F
100
AcDbEntity
  8
0
  6
Continuous
 62
     7
100
AcDbLine
 10
-11.09018885126023
 20
16.15957606997964
 30
0.0
 11
-11.09018885126023
 21
16.71194106997962
 31
0.0
  0
LINE
  5
159
330
1F
100
AcDbEntity
  8
0
  6
Continuous
 62
     7
100
AcDbLine
 10
-10.82398885126019
 20
16.07805231997963
 30
0.0
 11
-10.82398885126019
 21
16.79346481997963
 31
0.0
  0
LINE
  5
15A
330
1F
100
AcDbEntity
  8
0
  6
Continuous
 62
     7
100
AcDbLine
 10
-10.2915888512602
 20
16.07805231997963
 30
0.0
 11
-10.2915888512602
 21
16.79346481997963
 31
0.0
  0
LINE
  5
15B
330
1F
100
AcDbEntity
  8
0
  6
Continuous
 62
     7
100
AcDbLine
 10
-10.19176385126021
 20
16.12796481997962
 30
0.0
 11
-10.2915888512602
 21
16.07805231997963
 31
0.0
  0
LINE
  5
15C
330
1F
100
AcDbEntity
  8
0
  6
Continuous
 62
     7
100
AcDbLine
 10
-12.42118885126019
 20
16.71194106997962
 30
0.0
 11
-11.09018885126023
 21
16.71194106997962
 31
0.0
  0
LINE
  5
15D
330
1F
100
AcDbEntity
  8
0
  6
Continuous
 62
     7
100
AcDbLine
 10
-10.82398885126019
 20
16.79346481997963
 30
0.0
 11
-10.7075263512602
 21
16.79346481997962
 31
0.0
  0
LINE
  5
15E
330
1F
100
AcDbEntity
  8
0
  6
Continuous
 62
     7
100
AcDbLine
 10
-12.42118885126019
 20
16.71194106997962
 30
0.0
 11
-12.42118885126019
 21
16.1595760699796
 31
0.0
  0
LINE
  5
15F
330
1F
100
AcDbEntity
  8
0
  6
Continuous
 62
     7
100
AcDbLine
 10
-10.19176385126021
 20
16.12796481997962
 30
0.0
 11
-9.62608885126019
 21
16.12796481997962
 31
0.0
  0
LINE
  5
160
330
1F
100
AcDbEntity
  8
0
  6
Continuous
 62
     7
100
AcDbLine
 10
-11.09018885126019
 20
16.67700231997964
 30
0.0
 11
-10.82398885126019
 21
16.67700231997964
 31
0.0
  0
LINE
  5
161
330
1F
100
AcDbEntity
  8
0
  6
Continuous
 62
     7
100
AcDbLine
 10
-10.19176385126021
 20
16.74355231997964
 30
0.0
 11
-10.2915888512602
 21
16.79346481997963
 31
0.0
  0
LINE
  5
162
330
1F
100
AcDbEntity
  8
0
  6
Continuous
 62
     7
100
AcDbLine
 10
-10.19176385126021
 20
16.74355231997964
 30
0.0
 11
-9.62608885126019
 21
16.74355231997964
 31
0.0
  0
LINE
  5
163
330
1F
100
AcDbEntity
  8
0
  6
Continuous
 62
     7
100
AcDbLine
 10
-12.42118885126019
 20
16.1595760699796
 30
0.0
 11
-11.09018885126023
 21
16.15957606997964
 31
0.0
  0
LINE
  5
164
330
1F
100
AcDbEntity
  8
0
  6
Continuous
 62
     7
100
AcDbLine
 10
-10.82398885126019
 20
16.07805231997963
 30
0.0
 11
-10.7075263512602
 21
16.07805231997962
 31
0.0
  0
LINE
  5
165
330
1F
100
AcDbEntity
  8
0
  6
Continuous
 62
     7
100
AcDbLine
 10
-10.82398885126019
 20
14.79805231997963
 30
0.0
 11
-10.7075263512602
 21
14.79805231997963
 31
0.0
  0
LINE
  5
166
330
1F
100
AcDbEntity
  8
0
  6
Continuous
 62
     7
100
AcDbLine
 10
-12.42118885126019
 20
14.8795760699796
 30
0.0
 11
-11.09018885126023
 21
14.87957606997961
 31
0.0
  0
LINE
  5
167
330
1F
100
AcDbEntity
  8
0
  6
Continuous
 62
     7
100
AcDbLine
 10
-10.19176385126021
 20
15.46355231997963
 30
0.0
 11
-9.62608885126019
 21
15.46355231997963
 31
0.0
  0
LINE
  5
168
330
1F
100
AcDbEntity
  8
0
  6
Continuous
 62
     7
100
AcDbLine
 10
-10.19176385126021
 20
15.46355231997963
 30
0.0
 11
-10.2915888512602
 21
15.51346481997963
 31
0.0
  0
LINE
  5
169
330
1F
100
AcDbEntity
  8
0
  6
Continuous
 62
     7
100
AcDbLine
 10
-11.09018885126023
 20
14.87957606997961
 30
0.0
 11
-11.09018885126023
 21
15.43194106997962
 31
0.0
  0
LINE
  5
16A
330
1F
100
AcDbEntity
  8
0
  6
Continuous
 62
     7
100
AcDbLine
 10
-11.09018885126019
 20
15.39700231997962
 30
0.0
 11
-10.82398885126019
 21
15.39700231997962
 31
0.0
  0
LINE
  5
16B
330
1F
100
AcDbEntity
  8
0
  6
Continuous
 62
     7
100
AcDbLine
 10
-10.19176385126021
 20
14.84796481997963
 30
0.0
 11
-9.62608885126019
 21
14.84796481997963
 31
0.0
  0
LINE
  5
16C
330
1F
100
AcDbEntity
  8
0
  6
Continuous
 62
     7
100
AcDbLine
 10
-12.42118885126019
 20
15.43194106997962
 30
0.0
 11
-12.42118885126019
 21
14.8795760699796
 31
0.0
  0
LINE
  5
16D
330
1F
100
AcDbEntity
  8
0
  6
Continuous
 62
     7
100
AcDbLine
 10
-10.82398885126019
 20
14.79805231997963
 30
0.0
 11
-10.82398885126019
 21
15.51346481997963
 31
0.0
  0
LINE
  5
16E
330
1F
100
AcDbEntity
  8
0
  6
Continuous
 62
     7
100
AcDbLine
 10
-10.82398885126019
 20
15.51346481997963
 30
0.0
 11
-10.7075263512602
 21
15.51346481997963
 31
0.0
  0
LINE
  5
16F
330
1F
100
AcDbEntity
  8
0
  6
Continuous
 62
     7
100
AcDbLine
 10
-12.42118885126019
 20
15.43194106997962
 30
0.0
 11
-11.09018885126023
 21
15.43194106997962
 31
0.0
  0
LINE
  5
170
330
1F
100
AcDbEntity
  8
0
  6
Continuous
 62
     7
100
AcDbLine
 10
-10.19176385126021
 20
14.84796481997963
 30
0.0
 11
-10.2915888512602
 21
14.79805231997963
 31
0.0
  0
LINE
  5
171
330
1F
100
AcDbEntity
  8
0
  6
Continuous
 62
     7
100
AcDbLine
 10
-10.2915888512602
 20
14.79805231997963
 30
0.0
 11
-10.2915888512602
 21
15.51346481997963
 31
0.0
  0
LINE
  5
172
330
1F
100
AcDbEntity
  8
0
  6
Continuous
 62
     7
100
AcDbLine
 10
-11.09018885126019
 20
14.9145148199796
 30
0.0
 11
-10.82398885126019
 21
14.9145148199796
 31
0.0
  0
LINE
  5
173
330
1F
100
AcDbEntity
  8
0
  6
Continuous
 62
     7
100
AcDbLine
 10
-10.19176385126021
 20
14.84796481997963
 30
0.0
 11
-10.19176385126021
 21
15.46355231997963
 31
0.0
  0
LINE
  5
174
330
1F
100
AcDbEntity
  8
1
  6
Continuous
 62
     7
100
AcDbLine
 10
-10.40805135126019
 20
14.79805231997964
 30
0.0
 11
-10.4579638512602
 21
14.84796481997959
 31
0.0
  0
LINE
  5
175
330
1F
100
AcDbEntity
  8
1
  6
Continuous
 62
     7
100
AcDbLine
 10
-10.4579638512602
 20
14.84796481997959
 30
0.0
 11
-10.50787635126021
 21
14.79805231997964
 31
0.0
  0
LINE
  5
176
330
1F
100
AcDbEntity
  8
1
  6
Continuous
 62
     7
100
AcDbLine
 10
-10.60770135126019
 20
14.79805231997963
 30
0.0
 11
-10.65761385126018
 21
14.84796481997959
 31
0.0
  0
LINE
  5
177
330
1F
100
AcDbEntity
  8
1
  6
Continuous
 62
     7
100
AcDbLine
 10
-10.65761385126018
 20
14.84796481997959
 30
0.0
 11
-10.7075263512602
 21
14.79805231997963
 31
0.0
  0
LINE
  5
178
330
1F
100
AcDbEntity
  8
1
  6
Continuous
 62
     7
100
AcDbLine
 10
-10.7075263512602
 20
14.79805231997963
 30
0.0
 11
-10.7075263512602
 21
15.51346481997963
 31
0.0
  0
LINE
  5
179
330
1F
100
AcDbEntity
  8
1
  6
Continuous
 62
     7
100
AcDbLine
 10
-10.60770135126019
 20
14.79805231997963
 30
0.0
 11
-10.60770135126019
 21
15.51346481997963
 31
0.0
  0
LINE
  5
17A
330
1F
100
AcDbEntity
  8
1
  6
Continuous
 62
     7
100
AcDbLine
 10
-10.50787635126021
 20
14.79805231997964
 30
0.0
 11
-10.50787635126021
 21
15.51346481997961
 31
0.0
  0
LINE
  5
17B
330
1F
100
AcDbEntity
  8
1
  6
Continuous
 62
     7
100
AcDbLine
 10
-10.40805135126019
 20
14.79805231997964
 30
0.0
 11
-10.40805135126019
 21
15.51346481997961
 31
0.0
  0
LINE
  5
17C
330
1F
100
AcDbEntity
  8
1
  6
Continuous
 62
     7
100
AcDbLine
 10
-10.4579638512602
 20
15.46355231997967
 30
0.0
 11
-10.40805135126019
 21
15.51346481997961
 31
0.0
  0
LINE
  5
17D
330
1F
100
AcDbEntity
  8
1
  6
Continuous
 62
     7
100
AcDbLine
 10
-10.50787635126021
 20
15.51346481997961
 30
0.0
 11
-10.4579638512602
 21
15.46355231997967
 31
0.0
  0
LINE
  5
17E
330
1F
100
AcDbEntity
  8
1
  6
Continuous
 62
     7
100
AcDbLine
 10
-10.65761385126018
 20
15.46355231997965
 30
0.0
 11
-10.60770135126019
 21
15.51346481997963
 31
0.0
  0
LINE
  5
17F
330
1F
100
AcDbEntity
  8
1
  6
Continuous
 62
     7
100
AcDbLine
 10
-10.7075263512602
 20
15.51346481997963
 30
0.0
 11
-10.65761385126018
 21
15.46355231997965
 31
0.0
  0
LINE
  5
180
330
1F
100
AcDbEntity
  8
1
  6
Continuous
 62
     7
100
AcDbLine
 10
-10.65761385126018
 20
15.46355231997965
 30
0.0
 11
-10.65761385126018
 21
14.84796481997959
 31
0.0
  0
LINE
  5
181
330
1F
100
AcDbEntity
  8
1
  6
Continuous
 62
     7
100
AcDbLine
 10
-10.4579638512602
 20
15.46355231997967
 30
0.0
 11
-10.4579638512602
 21
14.84796481997959
 31
0.0
  0
LINE
  5
182
330
1F
100
AcDbEntity
  8
0
  6
Continuous
 62
     7
100
AcDbLine
 10
-10.40805135126019
 20
14.79805231997964
 30
0.0
 11
-10.2915888512602
 21
14.79805231997963
 31
0.0
  0
LINE
  5
183
330
1F
100
AcDbEntity
  8
0
  6
Continuous
 62
     7
100
AcDbLine
 10
-10.60770135126019
 20
14.79805231997963
 30
0.0
 11
-10.50787635126021
 21
14.79805231997964
 31
0.0
  0
LINE
  5
184
330
1F
100
AcDbEntity
  8
0
  6
Continuous
 62
     7
100
AcDbLine
 10
-10.60770135126019
 20
15.51346481997963
 30
0.0
 11
-10.50787635126021
 21
15.51346481997961
 31
0.0
  0
LINE
  5
185
330
1F
100
AcDbEntity
  8
0
  6
Continuous
 62
     7
100
AcDbLine
 10
-10.40805135126019
 20
15.51346481997961
 30
0.0
 11
-10.2915888512602
 21
15.51346481997963
 31
0.0
  0
LINE
  5
186
330
1F
100
AcDbEntity
  8
0
  6
Continuous
 62
     7
100
AcDbLine
 10
-11.09018885126019
 20
13.56962856997966
 30
0.0
 11
-10.89053885126012
 21
13.6345148199796
 31
0.0
  0
LINE
  5
187
330
1F
100
AcDbEntity
  8
0
  6
Continuous
 62
     7
100
AcDbLine
 10
-12.42118885126017
 20
14.18188856997963
 30
0.0
 11
-11.09018885126019
 21
14.18188856997963
 31
0.0
  0
LINE
  5
188
330
1F
100
AcDbEntity
  8
0
  6
Continuous
 62
     7
100
AcDbLine
 10
-12.42118885126017
 20
14.18188856997963
 30
0.0
 11
-12.42118885126017
 21
13.56962856997962
 31
0.0
  0
LINE
  5
189
330
1F
100
AcDbEntity
  8
0
  6
Continuous
 62
     7
100
AcDbLine
 10
-11.09018885126019
 20
14.18188856997963
 30
0.0
 11
-10.8905388512599
 21
14.11700231997955
 31
0.0
  0
LINE
  5
18A
330
1F
100
AcDbEntity
  8
0
  6
Continuous
 62
     7
100
AcDbLine
 10
-12.42118885126017
 20
13.56962856997962
 30
0.0
 11
-11.09018885126019
 21
13.56962856997966
 31
0.0
  0
LINE
  5
18B
330
1F
100
AcDbEntity
  8
0
  6
Continuous
 62
     7
100
AcDbLine
 10
-10.8905388512599
 20
14.11700231997955
 30
0.0
 11
-10.82398885126019
 21
14.11700231997963
 31
0.0
  0
LINE
  5
18C
330
1F
100
AcDbEntity
  8
0
  6
Continuous
 62
     7
100
AcDbLine
 10
-10.89053885126012
 20
13.6345148199796
 30
0.0
 11
-10.82398885126019
 21
13.63451481997961
 31
0.0
  0
LINE
  5
18D
330
1F
100
AcDbEntity
  8
1
  6
Continuous
 62
     7
100
AcDbLine
 10
-10.8905388512599
 20
14.11700231997955
 30
0.0
 11
-10.89053885126012
 21
13.6345148199796
 31
0.0
  0
LINE
  5
18E
330
1F
100
AcDbEntity
  8
1
  6
Continuous
 62
     7
100
AcDbLine
 10
-11.09018885126019
 20
14.18188856997963
 30
0.0
 11
-11.09018885126019
 21
13.56962856997966
 31
0.0
  0
LINE
  5
18F
330
1F
100
AcDbEntity
  8
0
  6
Continuous
 62
     7
100
AcDbLine
 10
-10.40805135126019
 20
14.23346481997962
 30
0.0
 11
-10.2915888512602
 21
14.23346481997963
 31
0.0
  0
LINE
  5
190
330
1F
100
AcDbEntity
  8
0
  6
Continuous
 62
     7
100
AcDbLine
 10
-10.40805135126019
 20
13.51805231997965
 30
0.0
 11
-10.2915888512602
 21
13.51805231997965
 31
0.0
  0
LINE
  5
191
330
1F
100
AcDbEntity
  8
1
  6
Continuous
 62
     7
100
AcDbLine
 10
-10.4579638512602
 20
14.18355231997968
 30
0.0
 11
-10.4579638512602
 21
13.5679648199796
 31
0.0
  0
LINE
  5
192
330
1F
100
AcDbEntity
  8
1
  6
Continuous
 62
     7
100
AcDbLine
 10
-10.50787635126021
 20
14.23346481997962
 30
0.0
 11
-10.4579638512602
 21
14.18355231997968
 31
0.0
  0
LINE
  5
193
330
1F
100
AcDbEntity
  8
1
  6
Continuous
 62
     7
100
AcDbLine
 10
-10.4579638512602
 20
14.18355231997968
 30
0.0
 11
-10.40805135126019
 21
14.23346481997962
 31
0.0
  0
LINE
  5
194
330
1F
100
AcDbEntity
  8
1
  6
Continuous
 62
     7
100
AcDbLine
 10
-10.40805135126019
 20
13.51805231997965
 30
0.0
 11
-10.40805135126019
 21
14.23346481997962
 31
0.0
  0
LINE
  5
195
330
1F
100
AcDbEntity
  8
1
  6
Continuous
 62
     7
100
AcDbLine
 10
-10.50787635126021
 20
13.51805231997965
 30
0.0
 11
-10.50787635126021
 21
14.23346481997962
 31
0.0
  0
LINE
  5
196
330
1F
100
AcDbEntity
  8
1
  6
Continuous
 62
     7
100
AcDbLine
 10
-10.4579638512602
 20
13.5679648199796
 30
0.0
 11
-10.50787635126021
 21
13.51805231997965
 31
0.0
  0
LINE
  5
197
330
1F
100
AcDbEntity
  8
1
  6
Continuous
 62
     7
100
AcDbLine
 10
-10.40805135126019
 20
13.51805231997965
 30
0.0
 11
-10.4579638512602
 21
13.5679648199796
 31
0.0
  0
LINE
  5
198
330
1F
100
AcDbEntity
  8
0
  6
Continuous
 62
     7
100
AcDbLine
 10
-10.19176385126021
 20
13.5679648199796
 30
0.0
 11
-10.19176385126021
 21
14.18355231997968
 31
0.0
  0
LINE
  5
199
330
1F
100
AcDbEntity
  8
0
  6
Continuous
 62
     7
100
AcDbLine
 10
-10.82398885126019
 20
13.51805231997965
 30
0.0
 11
-10.82398885126019
 21
14.23346481997963
 31
0.0
  0
LINE
  5
19A
330
1F
100
AcDbEntity
  8
0
  6
Continuous
 62
     7
100
AcDbLine
 10
-10.2915888512602
 20
13.51805231997965
 30
0.0
 11
-10.2915888512602
 21
14.23346481997963
 31
0.0
  0
LINE
  5
19B
330
1F
100
AcDbEntity
  8
0
  6
Continuous
 62
     7
100
AcDbLine
 10
-10.19176385126021
 20
13.5679648199796
 30
0.0
 11
-10.2915888512602
 21
13.51805231997965
 31
0.0
  0
LINE
  5
19C
330
1F
100
AcDbEntity
  8
0
  6
Continuous
 62
     7
100
AcDbLine
 10
-10.82398885126019
 20
14.23346481997963
 30
0.0
 11
-10.50787635126021
 21
14.23346481997962
 31
0.0
  0
LINE
  5
19D
330
1F
100
AcDbEntity
  8
0
  6
Continuous
 62
     7
100
AcDbLine
 10
-10.19176385126021
 20
13.5679648199796
 30
0.0
 11
-9.62608885126019
 21
13.56796481997963
 31
0.0
  0
LINE
  5
19E
330
1F
100
AcDbEntity
  8
0
  6
Continuous
 62
     7
100
AcDbLine
 10
-10.19176385126021
 20
14.18355231997968
 30
0.0
 11
-10.2915888512602
 21
14.23346481997963
 31
0.0
  0
LINE
  5
19F
330
1F
100
AcDbEntity
  8
0
  6
Continuous
 62
     7
100
AcDbLine
 10
-10.19176385126021
 20
14.18355231997968
 30
0.0
 11
-9.62608885126019
 21
14.18355231997964
 31
0.0
  0
LINE
  5
1A0
330
1F
100
AcDbEntity
  8
0
  6
Continuous
 62
     7
100
AcDbLine
 10
-10.82398885126019
 20
13.51805231997965
 30
0.0
 11
-10.50787635126021
 21
13.51805231997965
 31
0.0
  0
LINE
  5
1A1
330
1F
100
AcDbEntity
  8
1
  6
Continuous
 62
     7
100
AcDbLine
 10
-33.60000000000036
 20
14.51575856997958
 30
0.0
 11
-8.79999999999985
 21
14.51575856997962
 31
0.0
  0
LINE
  5
1A2
330
1F
100
AcDbEntity
  8
1
  6
Continuous
 62
     7
100
AcDbLine
 10
-32.80000000000001
 20
5.0
 30
0.0
 11
-32.80000000000001
 21
6.0
 31
0.0
  0
LINE
  5
1A3
330
1F
100
AcDbEntity
  8
1
  6
Continuous
 62
     7
100
AcDbLine
 10
-36.40000000000001
 20
5.0
 30
0.0
 11
-36.40000000000001
 21
6.0
 31
0.0
  0
ARC
  5
1A4
102
{ACAD_REACTORS
330
242
102
}
330
1F
100
AcDbEntity
  8
1
  6
Continuous
 62
     7
100
AcDbCircle
 10
-3.94507995308972
 20
3.14624346240692
 30
0.0
 40
0.0529932424950235
100
AcDbArc
 50
30.0000000000402
 51
180.0
  0
ARC
  5
1A5
102
{ACAD_REACTORS
330
242
102
}
330
1F
100
AcDbEntity
  8
1
  6
Continuous
 62
     7
100
AcDbCircle
 10
-3.93140652891816
 20
2.16951701452658
 30
0.0
 40
0.0666666666666562
100
AcDbArc
 50
180.0
 51
0.0
  0
ARC
  5
1A6
102
{ACAD_REACTORS
330
242
102
}
330
1F
100
AcDbEntity
  8
1
  6
Continuous
 62
     7
100
AcDbCircle
 10
-3.39807319558476
 20
1.86165381412036
 30
0.0
 40
0.066666666666698
100
AcDbArc
 50
180.0
 51
0.0
  0
ARC
  5
1A7
102
{ACAD_REACTORS
330
242
102
}
330
1F
100
AcDbEntity
  8
1
  6
Continuous
 62
     7
100
AcDbCircle
 10
-3.3843997714132
 20
3.14624346240692
 30
0.0
 40
0.0529932424950412
100
AcDbArc
 50
0.0
 51
149.9999999999641
  0
ARC
  5
1A8
102
{ACAD_REACTORS
330
243
102
}
330
1F
100
AcDbEntity
  8
1
  6
Continuous
 62
     7
100
AcDbCircle
 10
-4.19807319558481
 20
2.98450003203348
 30
0.0
 40
0.0666666666666487
100
AcDbArc
 50
0.0
 51
180.0
  0
ARC
  5
1A9
102
{ACAD_REACTORS
330
243
102
}
330
1F
100
AcDbEntity
  8
1
  6
Continuous
 62
     7
100
AcDbCircle
 10
-3.73140652891816
 20
1.74626919873574
 30
0.0
 40
0.0666666666666659
100
AcDbArc
 50
240.0183606311618
 51
60.01836063113552
  0
ARC
  5
1AA
102
{ACAD_REACTORS
330
244
102
}
330
1F
100
AcDbEntity
  8
1
  6
Continuous
 62
     7
100
AcDbCircle
 10
-4.46473986225146
 20
2.83065387818733
 30
0.0
 40
0.0666666666666487
100
AcDbArc
 50
0.0
 51
180.0
  0
ARC
  5
1AB
102
{ACAD_REACTORS
330
244
102
}
330
1F
100
AcDbEntity
  8
1
  6
Continuous
 62
     7
100
AcDbCircle
 10
-4.46473986225146
 20
2.16934612181265
 30
0.0
 40
0.0666666666666984
100
AcDbArc
 50
180.0
 51
0.0
  0
ARC
  5
1AC
102
{ACAD_REACTORS
330
245
102
}
330
1F
100
AcDbEntity
  8
1
  6
Continuous
 62
     7
100
AcDbCircle
 10
-2.86473986225146
 20
2.83065387818733
 30
0.0
 40
0.0666666666666627
100
AcDbArc
 50
240.0183606311681
 51
60.0183606311571
  0
ARC
  5
1AD
102
{ACAD_REACTORS
330
245
102
}
330
1F
100
AcDbEntity
  8
1
  6
Continuous
 62
     7
100
AcDbCircle
 10
-2.86473986225146
 20
2.5
 30
0.0
 40
0.0666666666666731
100
AcDbArc
 50
270.0
 51
90.0
  0
ARC
  5
1AE
102
{ACAD_REACTORS
330
245
102
}
330
1F
100
AcDbEntity
  8
1
  6
Continuous
 62
     7
100
AcDbCircle
 10
-2.86473986225146
 20
2.16934612181265
 30
0.0
 40
0.0666666666666623
100
AcDbArc
 50
299.981639368833
 51
119.9816393688226
  0
ARC
  5
1AF
330
1F
100
AcDbEntity
  8
0
  6
Continuous
 62
     7
100
AcDbCircle
 10
-8.079773440077
 20
55.00350829031929
 30
0.0
 40
0.1008718289693166
100
AcDbArc
 50
63.27589113953268
 51
116.4062139670073
  0
CIRCLE
  5
1B0
330
1F
100
AcDbEntity
  8
0
  6
Continuous
 62
     7
100
AcDbCircle
 10
-25.31417968040898
 20
38.78331083308706
 30
0.0
 40
0.3000000000000114
  0
SPLINE
  5
1B1
330
1F
100
AcDbEntity
  8
0
  6
Continuous
 62
     7
100
AcDbSpline
210
0.0
220
0.0
230
1.0
 70
     8
 71
     3
 72
    33
 73
    29
 74
    27
 42
0.000000001
 43
0.0000000001
 44
0.00000001
 40
0.0
 40
0.0
 40
0.0
 40
0.0
 40
0.000225665026534
 40
0.0018053213961823
 40
0.003447174231024
 40
0.007147629507212
 40
0.0155301815020136
 40
0.0280285398435118
 40
0.0494735348951643
 40
0.0758685249860174
 40
0.1067136279731486
 40
0.1676798297400837
 40
0.2271055182016629
 40
0.2529839785672923
 40
0.283899408466981
 40
0.3195012762241902
 40
0.3594900618212659
 40
0.4023507123853391
 40
0.4402349578716139
 40
0.4726179354887864
 40
0.4823577251011696
 40
0.4972633305613061
 40
0.5170226786619204
 40
0.5413325339765511
 40
0.5698997366515235
 40
0.5900459235575727
 40
0.6048912475193635
 40
0.6134817414985567
 40
0.6134817414985567
 40
0.6134817414985567
 40
0.6134817414985567
 10
-12.50006881250286
 20
38.48330969645702
 30
0.0
 10
-12.50009541521003
 20
38.48338005682466
 30
0.0
 10
-12.50030819573296
 20
38.48394295575289
 30
0.0
 10
-12.50072034453602
 20
38.48501560904126
 30
0.0
 10
-12.5015009011542
 20
38.48718697982709
 30
0.0
 10
-12.50305113406535
 20
38.49149123605275
 30
0.0
 10
-12.50573698812672
 20
38.49923261094567
 30
0.0
 10
-12.51024167013846
 20
38.51260286428496
 30
0.0
 10
-12.51642825324648
 20
38.53174169462612
 30
0.0
 10
-12.52391364077042
 20
38.55688281515578
 30
0.0
 10
-12.53401146954051
 20
38.59497519227919
 30
0.0
 10
-12.54448415003556
 20
38.64432994513524
 30
0.0
 10
-12.55125819463824
 20
38.69265922245798
 30
0.0
 10
-12.55460514789587
 20
38.73125987089784
 30
0.0
 10
-12.55612975400915
 20
38.76202946548366
 30
0.0
 10
-12.55635031212727
 20
38.79754325781013
 30
0.0
 10
-12.55467941655229
 20
38.83700885682492
 30
0.0
 10
-12.550868093459
 20
38.87709237862956
 30
0.0
 10
-12.54542604604722
 20
38.91442072229708
 30
0.0
 10
-12.54044430999639
 20
38.94062708163547
 30
0.0
 10
-12.53647923986145
 20
38.95921862526116
 30
0.0
 10
-12.53315925722624
 20
38.97364402350923
 30
0.0
 10
-12.5283711904405
 20
38.99271178835822
 30
0.0
 10
-12.52195104902446
 20
39.01605943921408
 30
0.0
 10
-12.51493146389684
 20
39.03936940595873
 30
0.0
 10
-12.50838895602155
 20
39.05952097267223
 30
0.0
 10
-12.503695853131
 20
39.07327031827174
 30
0.0
 10
-12.50104170683102
 20
39.08061764348709
 30
0.0
 10
-12.50006881250286
 20
39.08331083305729
 30
0.0
 11
-12.50006881250286
 21
38.48330969645702
 31
0.0
 11
-12.50014866763311
 21
38.48352076030637
 31
0.0
 11
-12.50070765354485
 21
38.48499820725184
 31
0.0
 11
-12.50126884678143
 21
38.48654117291476
 31
0.0
 11
-12.50251810026416
 21
38.49002438047959
 31
0.0
 11
-12.50527772878277
 21
38.49793965872806
 31
0.0
 11
-12.50927155001173
 21
38.50978273093237
 31
0.0
 11
-12.51584957182688
 21
38.53019394078996
 31
0.0
 11
-12.52337216228703
 21
38.55549426437057
 31
0.0
 11
-12.53127071280281
 21
38.5853109260477
 31
0.0
 11
-12.54388275944884
 21
38.64495833661071
 31
0.0
 11
-12.55208682453676
 21
38.70381499061956
 31
0.0
 11
-12.55431509000603
 21
38.72959734009386
 31
0.0
 11
-12.55584509459698
 21
38.76047488691929
 31
0.0
 11
-12.55606998328916
 21
38.79607604456373
 31
0.0
 11
-12.5543829010621
 21
38.83602922649505
 31
0.0
 11
-12.55033476722364
 21
38.87869827855378
 31
0.0
 11
-12.54487217641408
 21
38.91618662577649
 31
0.0
 11
-12.53885362949592
 21
38.94800539927582
 31
0.0
 11
-12.53681825531539
 21
38.95753014362237
 31
0.0
 11
-12.53348100376608
 21
38.97205735358311
 31
0.0
 11
-12.52867686819338
 21
38.99122378580967
 31
0.0
 11
-12.52224084194267
 21
39.01466619695371
 31
0.0
 11
-12.51400791835934
 21
39.04202134366685
 31
0.0
 11
-12.50778824139426
 21
39.06118340182348
 31
0.0
 11
-12.50296996168057
 21
39.07522504799256
 31
0.0
 11
-12.50006881250286
 21
39.08331083305729
 31
0.0
  0
SPLINE
  5
1B2
330
1F
100
AcDbEntity
  8
0
  6
Continuous
 62
     7
100
AcDbSpline
210
0.0
220
0.0
230
1.0
 70
     8
 71
     3
 72
    32
 73
    28
 74
    26
 42
0.000000001
 43
0.0000000001
 44
0.00000001
 40
0.0
 40
0.0
 40
0.0
 40
0.0
 40
0.0212728936793531
 40
0.0350416177966839
 40
0.0416249314426497
 40
0.0705641988540626
 40
0.1048784765182849
 40
0.1433633829120342
 40
0.2005878080325967
 40
0.2591176054057693
 40
0.3025655361011777
 40
0.3423842784429738
 40
0.3783569406187546
 40
0.4189048379737094
 40
0.4563077308203078
 40
0.4901839867612773
 40
0.5129005073046211
 40
0.5340908777218454
 40
0.5528067849124136
 40
0.568087531478612
 40
0.5789641667467621
 40
0.5844620706798332
 40
0.6043986994423313
 40
0.6199428992124729
 40
0.6292987151422026
 40
0.6302534746101643
 40
0.6312082333990876
 40
0.6312082333990876
 40
0.6312082333990876
 40
0.6312082333990876
 10
-12.77006881250284
 20
39.08331083305729
 30
0.0
 10
-12.77339408254107
 20
39.07704776785447
 30
0.0
 10
-12.77887159767473
 20
39.06673097366735
 30
0.0
 10
-12.78515941591856
 20
39.05436156069676
 30
0.0
 10
-12.79239587851418
 20
39.03961046580024
 30
0.0
 10
-12.80224263977797
 20
39.0185113224341
 30
0.0
 10
-12.81537210297605
 20
38.98723137094591
 30
0.0
 10
-12.83025421691172
 20
38.94650673820951
 30
0.0
 10
-12.84457817232106
 20
38.89705983897464
 30
0.0
 10
-12.85418005727446
 20
38.84474118644899
 30
0.0
 10
-12.85754989485019
 20
38.79752714051808
 30
0.0
 10
-12.85691646708229
 20
38.75774072710724
 30
0.0
 10
-12.85329601615493
 20
38.71909763956407
 30
0.0
 10
-12.846919553687
 20
38.68162214687531
 30
0.0
 10
-12.83801839882063
 20
38.64539679812701
 30
0.0
 10
-12.82868082114523
 20
38.61547035776964
 30
0.0
 10
-12.81983105433792
 20
38.59109482972259
 30
0.0
 10
-12.81211760202267
 20
38.57169523932773
 30
0.0
 10
-12.80491650616695
 20
38.55476606856979
 30
0.0
 10
-12.79879651707898
 20
38.54111683257906
 30
0.0
 10
-12.79433457847136
 20
38.53155443657635
 30
0.0
 10
-12.78908616453157
 20
38.52064782403944
 30
0.0
 10
-12.78309220604424
 20
38.50837264572789
 30
0.0
 10
-12.77628643608062
 20
38.49506660604608
 30
0.0
 10
-12.77232082005931
 20
38.48741408724325
 30
0.0
 10
-12.77052467338677
 20
38.48411638305412
 30
0.0
 10
-12.77022077027432
 20
38.48355711371862
 30
0.0
 10
-12.77006881250284
 20
38.48327748255876
 30
0.0
 11
-12.77006881250284
 21
39.08331083305729
 31
0.0
 11
-12.77997674556821
 21
39.06448614432173
 31
0.0
 11
-12.78620526829729
 21
39.052206760174
 31
0.0
 11
-12.7891067146725
 21
39.04629730765553
 31
0.0
 11
-12.80132663199554
 21
39.02006460202784
 31
0.0
 11
-12.81459783966327
 21
38.98842057054681
 31
0.0
 11
-12.82777527809446
 21
38.95226198691695
 31
0.0
 11
-12.84353596076796
 21
38.89725075365067
 31
0.0
 11
-12.85386196231616
 21
38.83963902782541
 31
0.0
 11
-12.85697694207137
 21
38.7963029040053
 31
0.0
 11
-12.85635616062705
 21
38.75648900053321
 31
0.0
 11
-12.85301814134346
 21
38.72067154555223
 31
0.0
 11
-12.84624521434519
 21
38.68069330801301
 31
0.0
 11
-12.83735020682107
 21
38.64436349568592
 31
0.0
 11
-12.82727951424894
 21
38.61201876058698
 31
0.0
 11
-12.81954696708009
 21
38.5906587974106
 31
0.0
 11
-12.81173054754734
 21
38.57096272196316
 31
0.0
 11
-12.80440750290203
 21
38.55373895350151
 31
0.0
 11
-12.7981550803955
 21
38.53979591128253
 31
0.0
 11
-12.79355052727905
 21
38.52994201456312
 31
0.0
 11
-12.79117109080403
 21
38.52498568260013
 31
0.0
 11
-12.78238789396723
 21
38.5070880716222
 31
0.0
 11
-12.77533166291442
 21
38.49323773394308
 31
0.0
 11
-12.77098082767893
 21
38.48495512715272
 31
0.0
 11
-12.77052482009088
 21
38.48411630485575
 31
0.0
 11
-12.77006881250284
 21
38.48327748255876
 31
0.0
  0
SPLINE
  5
1B3
102
{ACAD_REACTORS
330
247
102
}
330
1F
100
AcDbEntity
  8
1
  6
Continuous
 62
     7
100
AcDbSpline
210
0.0
220
0.0
230
1.0
 70
     8
 71
     3
 72
     9
 73
     5
 74
     3
 42
0.000000001
 43
0.0000000001
 44
0.00000001
 40
0.0
 40
0.0
 40
0.0
 40
0.0
 40
1.080427568004276
 40
2.150516075642549
 40
2.150516075642549
 40
2.150516075642549
 40
2.150516075642549
 10
-14.40506881250286
 20
36.5433594072719
 30
0.0
 10
-14.04488919233752
 20
36.54279827499413
 30
0.0
 10
-13.32797666069171
 20
36.54168140014281
 30
0.0
 10
-12.61155664821619
 20
36.56825135142078
 30
0.0
 10
-12.25506881250291
 20
36.5814724666805
 30
0.0
 11
-14.40506881250286
 21
36.5433594072719
 31
0.0
 11
-13.32465426864183
 21
36.5486644421868
 31
0.0
 11
-12.25506881250291
 21
36.5814724666805
 31
0.0
  0
SPLINE
  5
1B4
330
1F
100
AcDbEntity
  8
0
  6
Continuous
 62
     7
100
AcDbSpline
210
0.0
220
0.0
230
1.0
 70
     8
 71
     3
 72
    11
 73
     7
 74
     5
 42
0.000000001
 43
0.0000000001
 44
0.00000001
 40
0.0
 40
0.0
 40
0.0
 40
0.0
 40
0.1803070666136895
 40
0.4162744288054528
 40
0.6911411269744563
 40
0.954605974196916
 40
0.954605974196916
 40
0.954605974196916
 40
0.954605974196916
 10
-8.925865210150635
 20
56.26856037669656
 30
0.0
 10
-8.987771613545313
 20
56.2773638557084
 30
0.0
 10
-9.130694756235862
 20
56.29768840822172
 30
0.0
 10
-9.319717481992765
 20
56.13243357541216
 30
0.0
 10
-9.46368683673328
 20
55.91578537219291
 30
0.0
 10
-9.488548981512908
 20
55.73536539281756
 30
0.0
 10
-9.500716757740587
 20
55.64706604706318
 30
0.0
 11
-8.925865210150635
 21
56.26856037669656
 31
0.0
 11
-9.106129589790582
 21
56.27248381088629
 31
0.0
 11
-9.299534940776606
 21
56.13729885930096
 31
0.0
 11
-9.44619355333249
 21
55.90482745518882
 31
0.0
 11
-9.500716757740587
 21
55.64706604706318
 31
0.0
  0
SPLINE
  5
1B5
330
1F
100
AcDbEntity
  8
0
  6
Continuous
 62
     7
100
AcDbSpline
210
0.0
220
0.0
230
1.0
 70
     8
 71
     3
 72
     9
 73
     5
 74
     3
 42
0.000000001
 43
0.0000000001
 44
0.00000001
 40
0.0
 40
0.0
 40
0.0
 40
0.0
 40
0.1712913973131583
 40
0.3105855585228582
 40
0.3105855585228582
 40
0.3105855585228582
 40
0.3105855585228582
 10
-9.500716757740587
 20
55.64706604706318
 30
0.0
 10
-9.497044642311756
 20
55.58714312419539
 30
0.0
 10
-9.490386345149973
 20
55.47849088824948
 30
0.0
 10
-9.408165217424822
 20
55.40891493076885
 30
0.0
 10
-9.371289951268606
 20
55.37771089446062
 30
0.0
 11
-9.500716757740587
 21
55.64706604706318
 31
0.0
 11
-9.466716867083829
 21
55.47918289970421
 31
0.0
 11
-9.371289951268606
 21
55.37771089446062
 31
0.0
  0
SPLINE
  5
1B6
330
1F
100
AcDbEntity
  8
0
  6
Continuous
 62
     7
100
AcDbSpline
210
0.0
220
0.0
230
1.0
 70
     8
 71
     3
 72
     9
 73
     5
 74
     3
 42
0.000000001
 43
0.0000000001
 44
0.00000001
 40
0.0
 40
0.0
 40
0.0
 40
0.0
 40
0.0872377978947123
 40
0.1667456876131858
 40
0.1667456876131858
 40
0.1667456876131858
 40
0.1667456876131858
 10
-5.234741546842081
 20
54.26393538829682
 30
0.0
 10
-5.210622224973849
 20
54.28047574771498
 30
0.0
 10
-5.164520720339716
 20
54.31209085206434
 30
0.0
 10
-5.111520675154869
 20
54.32975768662378
 30
0.0
 10
-5.086249122792893
 20
54.33818160032138
 30
0.0
 11
-5.234741546842081
 21
54.26393538829682
 31
0.0
 11
-5.160495334817512
 21
54.3097385928173
 31
0.0
 11
-5.086249122792893
 21
54.33818160032138
 31
0.0
  0
SPLINE
  5
1B7
330
1F
100
AcDbEntity
  8
0
  6
Continuous
 62
     7
100
AcDbSpline
210
0.0
220
0.0
230
1.0
 70
     8
 71
     3
 72
     9
 73
     5
 74
     3
 42
0.000000001
 43
0.0000000001
 44
0.00000001
 40
0.0
 40
0.0
 40
0.0
 40
0.0
 40
0.1804111132186293
 40
0.4022644298242508
 40
0.4022644298242508
 40
0.4022644298242508
 40
0.4022644298242508
 10
-7.400562819989823
 20
54.227996332475
 30
0.0
 10
-7.448322954080864
 20
54.26841119895895
 30
0.0
 10
-7.554814178634029
 20
54.35852463485179
 30
0.0
 10
-7.563437871624693
 20
54.49924891889686
 30
0.0
 10
-7.568193924757674
 20
54.57685993373734
 30
0.0
 11
-7.400562819989823
 21
54.227996332475
 31
0.0
 11
-7.524157921798648
 21
54.35942091757968
 31
0.0
 11
-7.568193924757674
 21
54.57685993373734
 31
0.0
  0
SPLINE
  5
1B8
330
1F
100
AcDbEntity
  8
0
  6
Continuous
 62
     7
100
AcDbSpline
210
0.0
220
0.0
230
1.0
 70
     8
 71
     3
 72
    11
 73
     7
 74
     5
 42
0.000000001
 43
0.0000000001
 44
0.00000001
 40
0.0
 40
0.0
 40
0.0
 40
0.0
 40
0.2936204617480855
 40
0.5999478062188507
 40
0.8629234821403353
 40
1.063868105089216
 40
1.063868105089216
 40
1.063868105089216
 40
1.063868105089216
 10
-6.69845258389825
 20
54.20562887361442
 30
0.0
 10
-6.684892110415415
 20
54.30403477081772
 30
0.0
 10
-6.657184299955375
 20
54.50510523004359
 30
0.0
 10
-6.496736524260013
 20
54.74655051636054
 30
0.0
 10
-6.286078667388106
 20
54.93072006109927
 30
0.0
 10
-6.126796851087448
 20
54.90806920255154
 30
0.0
 10
-6.057804774837226
 20
54.89825809639859
 30
0.0
 11
-6.69845258389825
 21
54.20562887361442
 31
0.0
 11
-6.637688771756699
 21
54.49289309351344
 31
0.0
 11
-6.474243932462517
 21
54.75197267038537
 31
0.0
 11
-6.258701824435938
 21
54.90263059835699
 31
0.0
 11
-6.057804774837226
 21
54.89825809639859
 31
0.0
  0
SPLINE
  5
1B9
330
1F
100
AcDbEntity
  8
0
  6
Continuous
 62
     7
100
AcDbSpline
210
0.0
220
0.0
230
1.0
 70
     8
 71
     3
 72
    11
 73
     7
 74
     5
 42
0.000000001
 43
0.0000000001
 44
0.00000001
 40
0.0
 40
0.0
 40
0.0
 40
0.0
 40
0.3412345899464957
 40
0.6972366391043445
 40
1.002857020914908
 40
1.236387259129891
 40
1.236387259129891
 40
1.236387259129891
 40
1.236387259129891
 10
-6.889371414818623
 20
54.23744867876781
 30
0.0
 10
-6.873611945669759
 20
54.35181228878521
 30
0.0
 10
-6.841410978872232
 20
54.58548876882774
 30
0.0
 10
-6.654944643774416
 20
54.86608734424639
 30
0.0
 10
-6.410126053562982
 20
55.08012222361016
 30
0.0
 10
-6.225014752614769
 20
55.05379825027114
 30
0.0
 10
-6.144834771855793
 20
55.0423961538954
 30
0.0
 11
-6.889371414818623
 21
54.23744867876781
 31
0.0
 11
-6.818754011518986
 21
54.57129628567748
 31
0.0
 11
-6.628804603690581
 21
54.87238876690704
 31
0.0
 11
-6.378309721389408
 21
55.04747771022545
 31
0.0
 11
-6.144834771855793
 21
55.0423961538954
 31
0.0
  0
SPLINE
  5
1BA
330
1F
100
AcDbEntity
  8
0
  6
Continuous
 62
     7
100
AcDbSpline
210
0.0
220
0.0
230
1.0
 70
     8
 71
     3
 72
     9
 73
     5
 74
     3
 42
0.000000001
 43
0.0000000001
 44
0.00000001
 40
0.0
 40
0.0
 40
0.0
 40
0.0
 40
0.1804111132186479
 40
0.4022644298242759
 40
0.4022644298242759
 40
0.4022644298242759
 40
0.4022644298242759
 10
-6.721740310050704
 20
53.88858507750548
 30
0.0
 10
-6.769500444141758
 20
53.92899994398943
 30
0.0
 10
-6.875991668694946
 20
54.01911337988226
 30
0.0
 10
-6.884615361685628
 20
54.15983766392732
 30
0.0
 10
-6.889371414818623
 20
54.23744867876781
 30
0.0
 11
-6.721740310050704
 21
53.88858507750548
 31
0.0
 11
-6.845335411859564
 21
54.02000966261015
 31
0.0
 11
-6.889371414818623
 21
54.23744867876781
 31
0.0
  0
SPLINE
  5
1BB
330
1F
100
AcDbEntity
  8
0
  6
Continuous
 62
     7
100
AcDbSpline
210
0.0
220
0.0
230
1.0
 70
     8
 71
     3
 72
     9
 73
     5
 74
     3
 42
0.000000001
 43
0.0000000001
 44
0.00000001
 40
0.0
 40
0.0
 40
0.0
 40
0.0
 40
0.1552374691315396
 40
0.3461345086192928
 40
0.3461345086192928
 40
0.3461345086192928
 40
0.3461345086192928
 10
-6.554211865842186
 20
53.90544391438868
 30
0.0
 10
-6.59530779507516
 20
53.94021949709158
 30
0.0
 10
-6.686939776672357
 20
54.01775896660965
 30
0.0
 10
-6.694360166094333
 20
54.13884730283888
 30
0.0
 10
-6.69845258389825
 20
54.20562887361442
 30
0.0
 11
-6.554211865842186
 21
53.90544391438868
 31
0.0
 11
-6.660561139491632
 21
54.01853018529273
 31
0.0
 11
-6.69845258389825
 21
54.20562887361442
 31
0.0
  0
SPLINE
  5
1BC
330
1F
100
AcDbEntity
  8
0
  6
Continuous
 62
     7
100
AcDbSpline
210
0.0
220
0.0
230
1.0
 70
     8
 71
     3
 72
     9
 73
     5
 74
     3
 42
0.000000001
 43
0.0000000001
 44
0.00000001
 40
0.0
 40
0.0
 40
0.0
 40
0.0
 40
0.0790535580516225
 40
0.1629193718251349
 40
0.1629193718251349
 40
0.1629193718251349
 40
0.1629193718251349
 10
-6.144834771855793
 20
55.0423961538954
 30
0.0
 10
-6.122110213633908
 20
55.02835499810581
 30
0.0
 10
-6.075277789556964
 20
54.9994179391325
 30
0.0
 10
-6.045731544333801
 20
54.95290307103751
 30
0.0
 10
-6.030522065941367
 20
54.92895866032534
 30
0.0
 11
-6.144834771855793
 21
55.0423961538954
 31
0.0
 11
-6.08073112096936
 21
54.99613399632678
 31
0.0
 11
-6.030522065941367
 21
54.92895866032534
 31
0.0
  0
SPLINE
  5
1BD
330
1F
100
AcDbEntity
  8
0
  6
Continuous
 62
     7
100
AcDbSpline
210
0.0
220
0.0
230
1.0
 70
     8
 71
     3
 72
     9
 73
     5
 74
     3
 42
0.000000001
 43
0.0000000001
 44
0.00000001
 40
0.0
 40
0.0
 40
0.0
 40
0.0
 40
0.0838658137734824
 40
0.1629193718250718
 40
0.1629193718250718
 40
0.1629193718250718
 40
0.1629193718250718
 10
-6.562402691646062
 20
53.86519740891598
 30
0.0
 10
-6.59068390725125
 20
53.86299834520264
 30
0.0
 10
-6.645623548861113
 20
53.85872642052417
 30
0.0
 10
-6.696872650485914
 20
53.87883012440173
 30
0.0
 10
-6.721740310050704
 20
53.88858507750548
 30
0.0
 11
-6.562402691646062
 21
53.86519740891598
 31
0.0
 11
-6.646268393463978
 21
53.86505945133752
 31
0.0
 11
-6.721740310050704
 21
53.88858507750548
 31
0.0
  0
SPLINE
  5
1BE
330
1F
100
AcDbEntity
  8
0
  6
Continuous
 62
     7
100
AcDbSpline
210
0.0
220
0.0
230
1.0
 70
     8
 71
     3
 72
    11
 73
     7
 74
     5
 42
0.000000001
 43
0.0000000001
 44
0.00000001
 40
0.0
 40
0.0
 40
0.0
 40
0.0
 40
0.3412345899464896
 40
0.6972366391043422
 40
1.002857020914924
 40
1.236387259129941
 40
1.236387259129941
 40
1.236387259129941
 40
1.236387259129941
 10
-7.568193924757674
 20
54.57685993373734
 30
0.0
 10
-7.552434455608819
 20
54.69122354375473
 30
0.0
 10
-7.520233488811315
 20
54.92490002379726
 30
0.0
 10
-7.333767153713502
 20
55.20549859921593
 30
0.0
 10
-7.088948563502027
 20
55.41953347857965
 30
0.0
 10
-6.903837262553799
 20
55.39320950524069
 30
0.0
 10
-6.823657281794811
 20
55.38180740886493
 30
0.0
 11
-7.568193924757674
 21
54.57685993373734
 31
0.0
 11
-7.497576521458067
 21
54.91070754064701
 31
0.0
 11
-7.307627113629666
 21
55.21180002187658
 31
0.0
 11
-7.05713223132846
 21
55.38688896519497
 31
0.0
 11
-6.823657281794811
 21
55.38180740886493
 31
0.0
  0
SPLINE
  5
1BF
330
1F
100
AcDbEntity
  8
0
  6
Continuous
 62
     7
100
AcDbSpline
210
0.0
220
0.0
230
1.0
 70
     8
 71
     3
 72
    11
 73
     7
 74
     5
 42
0.000000001
 43
0.0000000001
 44
0.00000001
 40
0.0
 40
0.0
 40
0.0
 40
0.0
 40
0.2634648472224549
 40
0.5383315453914523
 40
0.7742989075832525
 40
0.9546059741969433
 40
0.9546059741969433
 40
0.9546059741969433
 40
0.9546059741969433
 10
-7.71880766915047
 20
54.75611150276809
 30
0.0
 10
-7.706639892922799
 20
54.84441084852249
 30
0.0
 10
-7.68177774814319
 20
55.02483082789782
 30
0.0
 10
-7.537808393402662
 20
55.24147903111707
 30
0.0
 10
-7.348785667645781
 20
55.40673386392666
 30
0.0
 10
-7.20586252495522
 20
55.3864093114134
 30
0.0
 10
-7.143956121560535
 20
55.37760583240154
 30
0.0
 11
-7.71880766915047
 21
54.75611150276809
 31
0.0
 11
-7.664284464742397
 21
55.01387291089374
 31
0.0
 11
-7.517625852186523
 21
55.24634431500587
 31
0.0
 11
-7.324220501200484
 21
55.38152926659124
 31
0.0
 11
-7.143956121560535
 21
55.37760583240154
 31
0.0
  0
SPLINE
  5
1C0
330
1F
100
AcDbEntity
  8
0
  6
Continuous
 62
     7
100
AcDbSpline
210
0.0
220
0.0
230
1.0
 70
     8
 71
     3
 72
     9
 73
     5
 74
     3
 42
0.000000001
 43
0.0000000001
 44
0.00000001
 40
0.0
 40
0.0
 40
0.0
 40
0.0
 40
0.1392941612096782
 40
0.3105855585228
 40
0.3105855585228
 40
0.3105855585228
 40
0.3105855585228
 10
-7.589380862678507
 20
54.48675635016559
 30
0.0
 10
-7.626256128834722
 20
54.51796038647382
 30
0.0
 10
-7.70847725655986
 20
54.58753634395443
 30
0.0
 10
-7.715135553721642
 20
54.69618857990034
 30
0.0
 10
-7.71880766915047
 20
54.75611150276809
 30
0.0
 11
-7.589380862678507
 21
54.48675635016559
 31
0.0
 11
-7.684807778493721
 21
54.58822835540916
 31
0.0
 11
-7.71880766915047
 21
54.75611150276809
 31
0.0
  0
SPLINE
  5
1C1
330
1F
100
AcDbEntity
  8
0
  6
Continuous
 62
     7
100
AcDbSpline
210
0.0
220
0.0
230
1.0
 70
     8
 71
     3
 72
    11
 73
     7
 74
     5
 42
0.000000001
 43
0.0000000001
 44
0.00000001
 40
0.0
 40
0.0
 40
0.0
 40
0.0
 40
0.1549592139221901
 40
0.3570402307258741
 40
0.5971346355616414
 40
0.8272695929405081
 40
0.8272695929405081
 40
0.8272695929405081
 40
0.8272695929405081
 10
-7.178572484782324
 20
55.3243046868625
 30
0.0
 10
-7.23184426457509
 20
55.33013986052544
 30
0.0
 10
-7.354587326566886
 20
55.34358462012976
 30
0.0
 10
-7.516722583940802
 20
55.20144934997375
 30
0.0
 10
-7.641961882371644
 20
55.01305213820595
 30
0.0
 10
-7.663647023248834
 20
54.85549527455125
 30
0.0
 10
-7.67425994193564
 20
54.77838536637547
 30
0.0
 11
-7.178572484782324
 21
55.3243046868625
 31
0.0
 11
-7.333528244059661
 21
55.32326930457582
 31
0.0
 11
-7.498528836756289
 21
55.20660077465544
 31
0.0
 11
-7.626634251338229
 21
55.00353840359364
 31
0.0
 11
-7.67425994193564
 21
54.77838536637547
 31
0.0
  0
SPLINE
  5
1C2
330
1F
100
AcDbEntity
  8
0
  6
Continuous
 62
     7
100
AcDbSpline
210
0.0
220
0.0
230
1.0
 70
     8
 71
     3
 72
     9
 73
     5
 74
     3
 42
0.000000001
 43
0.0000000001
 44
0.00000001
 40
0.0
 40
0.0
 40
0.0
 40
0.0
 40
0.1457511519564774
 40
0.2645366181817139
 40
0.2645366181817139
 40
0.2645366181817139
 40
0.2645366181817139
 10
-7.67425994193564
 20
54.77838536637547
 30
0.0
 10
-7.671229042160224
 20
54.72759119091953
 30
0.0
 10
-7.665727977162008
 20
54.63540036931698
 30
0.0
 10
-7.597940648706373
 20
54.57399795863859
 30
0.0
 10
-7.567501946810927
 20
54.5464263025397
 30
0.0
 11
-7.67425994193564
 21
54.77838536637547
 31
0.0
 11
-7.64625927200119
 21
54.63534914178361
 31
0.0
 11
-7.567501946810927
 21
54.5464263025397
 31
0.0
  0
SPLINE
  5
1C3
330
1F
100
AcDbEntity
  8
0
  6
Continuous
 62
     7
100
AcDbSpline
210
0.0
220
0.0
230
1.0
 70
     8
 71
     3
 72
     9
 73
     5
 74
     3
 42
0.000000001
 43
0.0000000001
 44
0.00000001
 40
0.0
 40
0.0
 40
0.0
 40
0.0
 40
0.0158957255883787
 40
0.0317601663535193
 40
0.0317601663535193
 40
0.0317601663535193
 40
0.0317601663535193
 10
-7.143956121560535
 20
55.37760583240154
 30
0.0
 10
-7.139263394428692
 20
55.37513285838008
 30
0.0
 10
-7.129887186098765
 20
55.37019176020871
 30
0.0
 10
-7.121208435766266
 20
55.36410846846933
 30
0.0
 10
-7.116873340406272
 20
55.36106981032098
 30
0.0
 11
-7.143956121560535
 21
55.37760583240154
 31
0.0
 11
-7.130052653187535
 21
55.36990079037839
 31
0.0
 11
-7.116873340406272
 21
55.36106981032098
 31
0.0
  0
SPLINE
  5
1C4
330
1F
100
AcDbEntity
  8
0
  6
Continuous
 62
     7
100
AcDbSpline
210
0.0
220
0.0
230
1.0
 70
     8
 71
     3
 72
     9
 73
     5
 74
     3
 42
0.000000001
 43
0.0000000001
 44
0.00000001
 40
0.0
 40
0.0
 40
0.0
 40
0.0
 40
0.0158596372135038
 40
0.0317505656480254
 40
0.0317505656480254
 40
0.0317505656480254
 40
0.0317505656480254
 10
-7.559911569620503
 20
54.47501453469755
 30
0.0
 10
-7.564941953726911
 20
54.47665913930263
 30
0.0
 10
-7.575012639940112
 20
54.47995161203685
 30
0.0
 10
-7.584588311981985
 20
54.48448660819049
 30
0.0
 10
-7.589380862678507
 20
54.48675635016559
 30
0.0
 11
-7.559911569620503
 21
54.47501453469755
 31
0.0
 11
-7.574879208913774
 21
54.4802583767902
 31
0.0
 11
-7.589380862678507
 21
54.48675635016559
 31
0.0
  0
SPLINE
  5
1C5
330
1F
100
AcDbEntity
  8
0
  6
Continuous
 62
     7
100
AcDbSpline
210
0.0
220
0.0
230
1.0
 70
     8
 71
     3
 72
    17
 73
    13
 74
    11
 42
0.000000001
 43
0.0000000001
 44
0.00000001
 40
0.0
 40
0.0
 40
0.0
 40
0.0
 40
0.0176332790333799
 40
0.0359980711579208
 40
0.0783379425488545
 40
0.1066266504620104
 40
0.144085941859163
 40
0.1873061903186803
 40
0.2272067567507932
 40
0.2556142229278072
 40
0.2740582559685097
 40
0.3011264481589893
 40
0.3011264481589893
 40
0.3011264481589893
 40
0.3011264481589893
 10
-7.930955206782727
 20
54.85906726091173
 30
0.0
 10
-7.935959805434502
 20
54.86215163748565
 30
0.0
 10
-7.946176611005928
 20
54.86844835573383
 30
0.0
 10
-7.967672463959841
 20
54.88328709313242
 30
0.0
 10
-7.990964450122513
 20
54.90175791719657
 30
0.0
 10
-8.016884061892553
 20
54.92683788132958
 30
0.0
 10
-8.040186053849474
 20
54.95484767591387
 30
0.0
 10
-8.06038635701118
 20
54.98994064033924
 30
0.0
 10
-8.070812817954067
 20
55.02614187869982
 30
0.0
 10
-8.071371203668585
 20
55.05527188938213
 30
0.0
 10
-8.067307834353603
 20
55.07974352710701
 30
0.0
 10
-8.06107662557385
 20
55.09365653367213
 30
0.0
 10
-8.05737063542137
 20
55.10193122954735
 30
0.0
 11
-7.930955206782727
 21
54.85906726091173
 31
0.0
 11
-7.945887662025606
 21
54.86844564572868
 31
0.0
 11
-7.961023321358226
 21
54.87884648038356
 31
0.0
 11
-7.994085505428754
 21
54.90529561444101
 31
0.0
 11
-8.014368979556894
 21
54.92501443024713
 31
0.0
 11
-8.038148579034761
 21
54.95395798264923
 31
0.0
 11
-8.059278603324053
 21
54.99166092795494
 31
0.0
 11
-8.069858393299711
 21
55.0301333003655
 31
0.0
 11
-8.070377656675207
 21
55.05853602330051
 31
0.0
 11
-8.067169430960735
 21
55.07669889076667
 31
0.0
 11
-8.05737063542137
 21
55.10193122954735
 31
0.0
  0
SPLINE
  5
1C6
330
1F
100
AcDbEntity
  8
0
  6
Continuous
 62
     7
100
AcDbSpline
210
0.0
220
0.0
230
1.0
 70
     8
 71
     3
 72
    19
 73
    15
 74
    13
 42
0.000000001
 43
0.0000000001
 44
0.00000001
 40
0.0
 40
0.0
 40
0.0
 40
0.0
 40
0.0154328925768412
 40
0.035167326989351
 40
0.053277511896979
 40
0.0844354509599603
 40
0.1299578633108641
 40
0.1583299457203693
 40
0.1937064473958243
 40
0.2439842745490394
 40
0.2745322147532277
 40
0.307932614332826
 40
0.3403260662357377
 40
0.3649234016876205
 40
0.3649234016876205
 40
0.3649234016876205
 40
0.3649234016876205
 10
-7.963637508243169
 20
54.77186172021624
 30
0.0
 10
-7.959302594845475
 20
54.77474330421678
 30
0.0
 10
-7.949424517580635
 20
54.78130964238236
 30
0.0
 10
-7.940686227309216
 20
54.79747097199321
 30
0.0
 10
-7.933932062461501
 20
54.81941636631792
 30
0.0
 10
-7.930208174797994
 20
54.8510254201103
 30
0.0
 10
-7.931224032379538
 20
54.88611099897155
 30
0.0
 10
-7.935753685507493
 20
54.92228142743203
 30
0.0
 10
-7.943425659907261
 20
54.95954928728341
 30
0.0
 10
-7.955390509800367
 20
54.99654573367293
 30
0.0
 10
-7.971907013979081
 20
55.0309612611893
 30
0.0
 10
-7.989788642080304
 20
55.05773215770103
 30
0.0
 10
-8.010863480348338
 20
55.07981416432875
 30
0.0
 10
-8.027312474156489
 20
55.08944746931386
 30
0.0
 10
-8.034411895987153
 20
55.0936052170005
 30
0.0
 11
-7.963637508243169
 21
54.77186172021624
 31
0.0
 11
-7.951424298520479
 21
54.78129633629506
 31
0.0
 11
-7.941100375518971
 21
54.79811490551803
 31
0.0
 11
-7.935599304210375
 21
54.81536938233827
 31
0.0
 11
-7.931392301215686
 21
54.84624199518729
 31
0.0
 11
-7.932281214882866
 21
54.89175572677199
 31
0.0
 11
-7.935789489643383
 21
54.91991006990369
 31
0.0
 11
-7.942944440785397
 21
54.95455546642992
 31
0.0
 11
-7.958723986881346
 21
55.00229293345117
 31
0.0
 11
-7.972093038339399
 21
55.0297600976487
 31
0.0
 11
-7.990781715236226
 21
55.05744258524726
 31
0.0
 11
-8.013702565170883
 21
55.08033298111398
 31
0.0
 11
-8.034411895987153
 21
55.0936052170005
 31
0.0
  0
SPLINE
  5
1C7
330
1F
100
AcDbEntity
  8
0
  6
Continuous
 62
     7
100
AcDbSpline
210
0.0
220
0.0
230
1.0
 70
     8
 71
     3
 72
    23
 73
    19
 74
    17
 42
0.000000001
 43
0.0000000001
 44
0.00000001
 40
0.0
 40
0.0
 40
0.0
 40
0.0
 40
0.0259864695372563
 40
0.043766533612709
 40
0.0629066672627838
 40
0.0894634638415095
 40
0.132097276882615
 40
0.1624453163971969
 40
0.2075026116822615
 40
0.2435446365352198
 40
0.2967338799673451
 40
0.3333254077912906
 40
0.3599498292289833
 40
0.4036181745538221
 40
0.4262874528082176
 40
0.4408199350431642
 40
0.4563551883770238
 40
0.4689461152431185
 40
0.4689461152431185
 40
0.4689461152431185
 40
0.4689461152431185
 10
-8.12463440262317
 20
55.09385550897625
 30
0.0
 10
-8.132126873253176
 20
55.08941743699091
 30
0.0
 10
-8.144745720681891
 20
55.08194280557171
 30
0.0
 10
-8.159392673030208
 20
55.06670802267261
 30
0.0
 10
-8.171560900527766
 20
55.04930645083657
 30
0.0
 10
-8.183236195599214
 20
55.02197841841249
 30
0.0
 10
-8.187076402724955
 20
54.98834842311462
 30
0.0
 10
-8.181468957008361
 20
54.94920311173894
 30
0.0
 10
-8.168201025340622
 20
54.91410032047418
 30
0.0
 10
-8.145051844500784
 20
54.87564921976882
 30
0.0
 10
-8.11776767184407
 20
54.84348051268685
 30
0.0
 10
-8.088921762830466
 20
54.81743123988009
 30
0.0
 10
-8.060357454975176
 20
54.7960970126093
 30
0.0
 10
-8.033509966023587
 20
54.78030960922432
 30
0.0
 10
-8.008177310085408
 20
54.77067284683677
 30
0.0
 10
-7.990932473004085
 20
54.76724512977314
 30
0.0
 10
-7.976403429850469
 20
54.76696662011344
 30
0.0
 10
-7.967585106615365
 20
54.77034801024108
 30
0.0
 10
-7.963637508243169
 20
54.77186172021624
 30
0.0
 11
-8.12463440262317
 21
55.09385550897625
 31
0.0
 11
-8.14625569960596
 21
55.07943967103811
 31
0.0
 11
-8.158723736497215
 21
55.06676375599594
 31
0.0
 11
-8.169662026366192
 21
55.05105711424026
 31
0.0
 11
-8.180157154443183
 21
55.02666211862454
 31
0.0
 11
-8.185406416297528
 21
54.98435269458427
 31
0.0
 11
-8.181293862240913
 21
54.95428459944115
 31
0.0
 11
-8.165792676218821
 21
54.91197771545905
 31
0.0
 11
-8.147360471095627
 21
54.88100544804716
 31
0.0
 11
-8.113192938163527
 21
54.84024179496877
 31
0.0
 11
-8.086040126201707
 21
54.81571294042578
 31
0.0
 11
-8.0646949886225
 21
54.79979927005665
 31
0.0
 11
-8.026742574412543
 21
54.77819976619462
 31
0.0
 11
-8.005438572943046
 21
54.77045149810369
 31
0.0
 11
-7.991164914886081
 21
54.76772098658387
 31
0.0
 11
-7.975632841277967
 21
54.76803501454434
 31
0.0
 11
-7.963637508243169
 21
54.77186172021624
 31
0.0
  0
SPLINE
  5
1C8
330
1F
100
AcDbEntity
  8
0
  6
Continuous
 62
     7
100
AcDbSpline
210
0.0
220
0.0
230
1.0
 70
     8
 71
     3
 72
    11
 73
     7
 74
     5
 42
0.000000001
 43
0.0000000001
 44
0.00000001
 40
0.0
 40
0.0
 40
0.0
 40
0.0
 40
0.1054974730946568
 40
0.2043967106511111
 40
0.3138745493857619
 40
0.4433945701514909
 40
0.4433945701514909
 40
0.4433945701514909
 40
0.4433945701514909
 10
-3.113421203282453
 20
52.32568671635096
 30
0.0
 10
-3.149254640177224
 20
52.32168760553103
 30
0.0
 10
-3.218680346535572
 20
52.31393951734532
 30
0.0
 10
-3.31374468499463
 20
52.37269577862935
 30
0.0
 10
-3.369920897539551
 20
52.47507206470601
 30
0.0
 10
-3.375540710441379
 20
52.55526810296401
 30
0.0
 10
-3.378586246227249
 20
52.59872871336803
 30
0.0
 11
-3.113421203282453
 21
52.32568671635096
 31
0.0
 11
-3.218918360785191
 21
52.32594663551278
 31
0.0
 11
-3.304127817247589
 21
52.37615030672268
 31
0.0
 11
-3.359430723611363
 21
52.47063303808517
 31
0.0
 11
-3.378586246227249
 21
52.59872871336803
 31
0.0
  0
SPLINE
  5
1C9
330
1F
100
AcDbEntity
  8
0
  6
Continuous
 62
     7
100
AcDbSpline
210
0.0
220
0.0
230
1.0
 70
     8
 71
     3
 72
    11
 73
     7
 74
     5
 42
0.000000001
 43
0.0000000001
 44
0.00000001
 40
0.0
 40
0.0
 40
0.0
 40
0.0
 40
0.202010153193291
 40
0.4667026944649016
 40
0.774695340897515
 40
1.068995378927336
 40
1.068995378927336
 40
1.068995378927336
 40
1.068995378927336
 10
-3.287378536760323
 20
52.27202724984778
 30
0.0
 10
-3.336801861619356
 20
52.32169462039777
 30
0.0
 10
-3.450984223119529
 20
52.43644082028197
 30
0.0
 10
-3.428831201324622
 20
52.71709198553539
 30
0.0
 10
-3.330485457874048
 20
52.99132146679283
 30
0.0
 10
-3.184670969094534
 20
53.13370294293574
 30
0.0
 10
-3.113421203282453
 20
53.20327521651699
 30
0.0
 11
-3.287378536760323
 21
52.27202724984778
 31
0.0
 11
-3.411755457590363
 21
52.43120791884804
 31
0.0
 11
-3.419690304133857
 21
52.69578150999744
 31
0.0
 11
-3.308667879469535
 21
52.98306793874262
 31
0.0
 11
-3.113421203282453
 21
53.20327521651699
 31
0.0
  0
SPLINE
  5
1CA
330
1F
100
AcDbEntity
  8
0
  6
Continuous
 62
     7
100
AcDbSpline
210
0.0
220
0.0
230
1.0
 70
     8
 71
     3
 72
    13
 73
     9
 74
     7
 42
0.000000001
 43
0.0000000001
 44
0.00000001
 40
0.0
 40
0.0
 40
0.0
 40
0.0
 40
0.1371797191706574
 40
0.2730712557919052
 40
0.4404638260792489
 40
0.6410762898215229
 40
0.8552925539962389
 40
1.05697768841962
 40
1.05697768841962
 40
1.05697768841962
 40
1.05697768841962
 10
-2.964928779233642
 20
53.21118196535444
 30
0.0
 10
-2.916930914262466
 20
53.21428337652424
 30
0.0
 10
-2.821385909268644
 20
53.22045706581662
 30
0.0
 10
-2.713971610318732
 20
53.09670879539418
 30
0.0
 10
-2.689672102286598
 20
52.92637601481134
 30
0.0
 10
-2.726530697602156
 20
52.73364596650976
 30
0.0
 10
-2.815740711806782
 20
52.54383084185982
 30
0.0
 10
-2.916208452931704
 20
52.4469256438591
 30
0.0
 10
-2.964928779233268
 20
52.39993292837553
 30
0.0
 11
-2.964928779233642
 21
53.21118196535444
 31
0.0
 11
-2.828241657489751
 21
53.19956695524601
 31
0.0
 11
-2.733566057054171
 21
53.10208340699516
 31
0.0
 11
-2.699766077302153
 21
52.93813879783058
 31
0.0
 11
-2.733566057054171
 21
52.74039420891395
 31
0.0
 11
-2.828241657489705
 21
52.54823506022755
 31
0.0
 11
-2.964928779233268
 21
52.39993292837553
 31
0.0
  0
SPLINE
  5
1CB
330
1F
100
AcDbEntity
  8
0
  6
Continuous
 62
     7
100
AcDbSpline
210
0.0
220
0.0
230
1.0
 70
     8
 71
     3
 72
    11
 73
     7
 74
     5
 42
0.000000001
 43
0.0000000001
 44
0.00000001
 40
0.0
 40
0.0
 40
0.0
 40
0.0
 40
0.0510505316304185
 40
0.107827716777137
 40
0.1593600660290819
 40
0.215614679985028
 40
0.215614679985028
 40
0.215614679985028
 40
0.215614679985028
 10
-3.07099479641137
 20
52.58765457743125
 30
0.0
 10
-3.062686428900041
 20
52.57280383825343
 30
0.0
 10
-3.045137679419954
 20
52.54143646832966
 30
0.0
 10
-3.019026067858046
 20
52.49517707504752
 30
0.0
 10
-2.991981307237795
 20
52.44745263279187
 30
0.0
 10
-2.974205879956874
 20
52.41622881059656
 30
0.0
 10
-2.964928779233268
 20
52.39993292837553
 30
0.0
 11
-3.07099479641137
 21
52.58765457743125
 31
0.0
 11
-3.04604298528762
 21
52.54311735812651
 31
0.0
 11
-3.018152145508148
 21
52.49366283544772
 31
0.0
 11
-2.99274331728315
 21
52.44883009663176
 31
0.0
 11
-2.964928779233268
 21
52.39993292837553
 31
0.0
  0
SPLINE
  5
1CC
330
1F
100
AcDbEntity
  8
0
  6
Continuous
 62
     7
100
AcDbSpline
210
0.0
220
0.0
230
1.0
 70
     8
 71
     3
 72
    11
 73
     7
 74
     5
 42
0.000000001
 43
0.0000000001
 44
0.00000001
 40
0.0
 40
0.0
 40
0.0
 40
0.0
 40
0.0349016412466664
 40
0.066884417994275
 40
0.1021390778068441
 40
0.1338594399726924
 40
0.1338594399726924
 40
0.1338594399726924
 40
0.1338594399726924
 10
-2.964928779233642
 20
53.21118196535444
 30
0.0
 10
-2.974206555284205
 20
53.20416266629184
 30
0.0
 10
-2.991986187442107
 20
53.19071108859562
 30
0.0
 10
-3.019031990744764
 20
53.17003058440455
 30
0.0
 10
-3.04514774877378
 20
53.14987946998666
 30
0.0
 10
-3.062687645928255
 20
53.13606776653744
 30
0.0
 10
-3.070994796411166
 20
53.1295263334767
 30
0.0
 11
-2.964928779233642
 21
53.21118196535444
 31
0.0
 11
-2.992743302884219
 21
53.19009934610672
 31
0.0
 11
-3.018152145507943
 21
53.17067542455729
 31
0.0
 11
-3.046042981715821
 21
53.14911174443915
 31
0.0
 11
-3.070994796411166
 21
53.1295263334767
 31
0.0
  0
SPLINE
  5
1CD
330
1F
100
AcDbEntity
  8
0
  6
Continuous
 62
     7
100
AcDbSpline
210
0.0
220
0.0
230
1.0
 70
     8
 71
     3
 72
    11
 73
     7
 74
     5
 42
0.000000001
 43
0.0000000001
 44
0.00000001
 40
0.0
 40
0.0
 40
0.0
 40
0.0
 40
0.1124842439533893
 40
0.2576178842364935
 40
0.4284791071003731
 40
0.5977028227690818
 40
0.5977028227690818
 40
0.5977028227690818
 40
0.5977028227690818
 10
-2.997660521920741
 20
53.11662832247164
 30
0.0
 10
-2.969597165768047
 20
53.08964576831345
 30
0.0
 10
-2.905324865878328
 20
53.02784876211617
 30
0.0
 10
-2.910114876875651
 20
52.87289100609942
 30
0.0
 10
-2.958176876481945
 20
52.71748922420008
 30
0.0
 10
-3.033509728637907
 20
52.63079364442398
 30
0.0
 10
-3.07099479641137
 20
52.58765457743125
 30
0.0
 11
-2.997660521920741
 21
53.11662832247164
 31
0.0
 11
-2.926272867801266
 21
53.02970013942622
 31
0.0
 11
-2.915684761749324
 21
52.88495322765064
 31
0.0
 11
-2.968851244067196
 21
52.7225744017323
 31
0.0
 11
-3.07099479641137
 21
52.58765457743125
 31
0.0
  0
SPLINE
  5
1CE
330
1F
100
AcDbEntity
  8
0
  6
Continuous
 62
     7
100
AcDbSpline
210
0.0
220
0.0
230
1.0
 70
     8
 71
     3
 72
     9
 73
     5
 74
     3
 42
0.000000001
 43
0.0000000001
 44
0.00000001
 40
0.0
 40
0.0
 40
0.0
 40
0.0
 40
0.0385259199463421
 40
0.0751887080973727
 40
0.0751887080973727
 40
0.0751887080973727
 40
0.0751887080973727
 10
-3.070994796411166
 20
53.1295263334767
 30
0.0
 10
-3.058000688749268
 20
53.12993595715285
 30
0.0
 10
-3.032640876825778
 20
53.13073537536353
 30
0.0
 10
-3.009126413796254
 20
53.12125235172398
 30
0.0
 10
-2.997660521920741
 20
53.11662832247164
 30
0.0
 11
-3.070994796411166
 21
53.1295263334767
 31
0.0
 11
-3.03249695771371
 21
53.12805560903183
 31
0.0
 11
-2.997660521920741
 21
53.11662832247164
 31
0.0
  0
SPLINE
  5
1CF
330
1F
100
AcDbEntity
  8
0
  6
Continuous
 62
     7
100
AcDbSpline
210
0.0
220
0.0
230
1.0
 70
     8
 71
     3
 72
     9
 73
     5
 74
     3
 42
0.000000001
 43
0.0000000001
 44
0.00000001
 40
0.0
 40
0.0
 40
0.0
 40
0.0
 40
0.092513858048456
 40
0.177366953087091
 40
0.177366953087091
 40
0.177366953087091
 40
0.177366953087091
 10
-2.964928779233268
 20
53.2775214285416
 30
0.0
 10
-2.934015350478654
 20
53.28357538559715
 30
0.0
 10
-2.87474833049539
 20
53.29518197234555
 30
0.0
 10
-2.81808122518225
 20
53.27465948509185
 30
0.0
 10
-2.790971445755329
 20
53.26484143185762
 30
0.0
 11
-2.964928779233268
 21
53.2775214285416
 31
0.0
 11
-2.872895830548368
 21
53.28694218348141
 31
0.0
 11
-2.790971445755329
 21
53.26484143185762
 31
0.0
  0
SPLINE
  5
1D0
330
1F
100
AcDbEntity
  8
0
  6
Continuous
 62
     7
100
AcDbSpline
210
0.0
220
0.0
230
1.0
 70
     8
 71
     3
 72
    11
 73
     7
 74
     5
 42
0.000000001
 43
0.0000000001
 44
0.00000001
 40
0.0
 40
0.0
 40
0.0
 40
0.0
 40
0.1484919158172278
 40
0.3081607855097525
 40
0.4681525535918009
 40
0.6175319673553208
 40
0.6175319673553208
 40
0.6175319673553208
 40
0.6175319673553208
 10
-3.378586246227249
 20
52.59872871336803
 30
0.0
 10
-3.374502354424559
 20
52.64830705247306
 30
0.0
 10
-3.366027162150002
 20
52.75119547920143
 30
0.0
 10
-3.307981803243309
 20
52.89779356992415
 30
0.0
 10
-3.22692522095956
 20
53.03333720792502
 30
0.0
 10
-3.150380643576253
 20
53.10320176246489
 30
0.0
 10
-3.113421203282453
 20
53.13693575332992
 30
0.0
 11
-3.378586246227249
 21
52.59872871336803
 31
0.0
 11
-3.359430723611363
 21
52.74597991126675
 31
0.0
 11
-3.304127817247589
 21
52.89576554899305
 31
0.0
 11
-3.218918360785191
 21
53.03117867666537
 31
0.0
 11
-3.113421203282453
 21
53.13693575332992
 31
0.0
  0
SPLINE
  5
1D1
330
1F
100
AcDbEntity
  8
0
  6
Continuous
 62
     7
100
AcDbSpline
210
0.0
220
0.0
230
1.0
 70
     8
 71
     3
 72
     9
 73
     5
 74
     3
 42
0.000000001
 43
0.0000000001
 44
0.00000001
 40
0.0
 40
0.0
 40
0.0
 40
0.0
 40
0.0742382712770134
 40
0.1603619468488768
 40
0.1603619468488768
 40
0.1603619468488768
 40
0.1603619468488768
 10
-3.292821494950673
 20
52.52630637641164
 30
0.0
 10
-3.313190234661127
 20
52.54172124655694
 30
0.0
 10
-3.357188695638373
 20
52.57501889046095
 30
0.0
 10
-3.368949244621467
 20
52.62926652842555
 30
0.0
 10
-3.375265333100474
 20
52.65840066410983
 30
0.0
 11
-3.292821494950673
 21
52.52630637641164
 31
0.0
 11
-3.347018633151253
 21
52.5770408961102
 31
0.0
 11
-3.375265333100474
 21
52.65840066410983
 31
0.0
  0
SPLINE
  5
1D2
330
1F
100
AcDbEntity
  8
0
  6
Continuous
 62
     7
100
AcDbSpline
210
0.0
220
0.0
230
1.0
 70
     8
 71
     3
 72
     9
 73
     5
 74
     3
 42
0.000000001
 43
0.0000000001
 44
0.00000001
 40
0.0
 40
0.0
 40
0.0
 40
0.0
 40
0.0385259199460957
 40
0.0751887080971106
 40
0.0751887080971106
 40
0.0751887080971106
 40
0.0751887080971106
 10
-3.219487220460489
 20
52.51340836540689
 30
0.0
 10
-3.232481328122308
 20
52.51299874173065
 30
0.0
 10
-3.257841140045714
 20
52.51219932351977
 30
0.0
 10
-3.281355603075161
 20
52.52168234715928
 30
0.0
 10
-3.292821494950673
 20
52.52630637641164
 30
0.0
 11
-3.219487220460489
 21
52.51340836540689
 31
0.0
 11
-3.257985059157709
 21
52.51487908985149
 31
0.0
 11
-3.292821494950673
 21
52.52630637641164
 31
0.0
  0
SPLINE
  5
1D3
330
1F
100
AcDbEntity
  8
0
  6
Continuous
 62
     7
100
AcDbSpline
210
0.0
220
0.0
230
1.0
 70
     8
 71
     3
 72
    11
 73
     7
 74
     5
 42
0.000000001
 43
0.0000000001
 44
0.00000001
 40
0.0
 40
0.0
 40
0.0
 40
0.0
 40
0.2020101531932233
 40
0.4667026944648259
 40
0.7746953408974561
 40
1.068995378927307
 40
1.068995378927307
 40
1.068995378927307
 40
1.068995378927307
 10
-2.790971445755329
 20
53.26484143185762
 30
0.0
 10
-2.741548120896302
 20
53.21517406130764
 30
0.0
 10
-2.627365759396128
 20
53.10042786142353
 30
0.0
 10
-2.649518781191092
 20
52.81977669617005
 30
0.0
 10
-2.747864524641695
 20
52.54554721491265
 30
0.0
 10
-2.893679013421194
 20
52.40316573876971
 30
0.0
 10
-2.964928779233268
 20
52.33359346518843
 30
0.0
 11
-2.790971445755329
 21
53.26484143185762
 31
0.0
 11
-2.666594524925308
 21
53.10566076285743
 31
0.0
 11
-2.658659678381847
 21
52.84108717170804
 31
0.0
 11
-2.769682103046196
 21
52.55380074296285
 31
0.0
 11
-2.964928779233268
 21
52.33359346518843
 31
0.0
  0
SPLINE
  5
1D4
330
1F
100
AcDbEntity
  8
0
  6
Continuous
 62
     7
100
AcDbSpline
210
0.0
220
0.0
230
1.0
 70
     8
 71
     3
 72
    11
 73
     7
 74
     5
 42
0.000000001
 43
0.0000000001
 44
0.00000001
 40
0.0
 40
0.0
 40
0.0
 40
0.0
 40
0.0562548491016461
 40
0.1077874974204767
 40
0.1645643931599717
 40
0.215614679985411
 40
0.215614679985411
 40
0.215614679985411
 40
0.215614679985411
 10
-3.113421203282453
 20
52.32568671635096
 30
0.0
 10
-3.122698342759861
 20
52.34198266670327
 30
0.0
 10
-3.140473858091861
 20
52.37320664367671
 30
0.0
 10
-3.167518658348334
 20
52.42093115726539
 30
0.0
 10
-3.193630230481748
 20
52.4671904827956
 30
0.0
 10
-3.21117889286432
 20
52.49855769740238
 30
0.0
 10
-3.219487220460489
 20
52.51340836540689
 30
0.0
 11
-3.113421203282453
 21
52.32568671635096
 31
0.0
 11
-3.141235857443327
 21
52.37458408908645
 31
0.0
 11
-3.166644832540605
 21
52.41941708842111
 31
0.0
 11
-3.194535529307563
 21
52.46887135949524
 31
0.0
 11
-3.219487220460489
 21
52.51340836540689
 31
0.0
  0
SPLINE
  5
1D5
330
1F
100
AcDbEntity
  8
0
  6
Continuous
 62
     7
100
AcDbSpline
210
0.0
220
0.0
230
1.0
 70
     8
 71
     3
 72
     9
 73
     5
 74
     3
 42
0.000000001
 43
0.0000000001
 44
0.00000001
 40
0.0
 40
0.0
 40
0.0
 40
0.0
 40
0.0925138580484578
 40
0.177366953087004
 40
0.177366953087004
 40
0.177366953087004
 40
0.177366953087004
 10
-3.113421203282453
 20
52.25934725316385
 30
0.0
 10
-3.144334632037067
 20
52.25329329610832
 30
0.0
 10
-3.203601652020301
 20
52.24168670935993
 30
0.0
 10
-3.260268757333424
 20
52.26220919661358
 30
0.0
 10
-3.287378536760323
 20
52.27202724984778
 30
0.0
 11
-3.113421203282453
 21
52.25934725316385
 31
0.0
 11
-3.205454151967357
 21
52.24992649822406
 31
0.0
 11
-3.287378536760323
 21
52.27202724984778
 31
0.0
  0
SPLINE
  5
1D6
330
1F
100
AcDbEntity
  8
1
  6
Continuous
 62
     7
100
AcDbSpline
210
0.0
220
0.0
230
1.0
 70
     8
 71
     3
 72
     9
 73
     5
 74
     3
 42
0.000000001
 43
0.0000000001
 44
0.00000001
 40
0.0
 40
0.0
 40
0.0
 40
0.0
 40
0.31094557145007
 40
0.6228071541987521
 40
0.6228071541987521
 40
0.6228071541987521
 40
0.6228071541987521
 10
-9.626088851260192
 20
18.02355231997963
 30
0.0
 10
-9.602473090891758
 20
17.92111063777318
 30
0.0
 10
-9.555172020272911
 20
17.71592548997334
 30
0.0
 10
-9.602426734004649
 20
17.51071898057883
 30
0.0
 10
-9.626088851260192
 20
17.40796481997962
 30
0.0
 11
-9.626088851260192
 21
18.02355231997963
 31
0.0
 11
-9.578811041586421
 21
17.71622194715418
 31
0.0
 11
-9.626088851260192
 21
17.40796481997962
 31
0.0
  0
SPLINE
  5
1D7
330
1F
100
AcDbEntity
  8
1
  6
Continuous
 62
     7
100
AcDbSpline
210
0.0
220
0.0
230
1.0
 70
     8
 71
     3
 72
     9
 73
     5
 74
     3
 42
0.000000001
 43
0.0000000001
 44
0.00000001
 40
0.0
 40
0.0
 40
0.0
 40
0.0
 40
0.31094557145007
 40
0.6228071541987626
 40
0.6228071541987626
 40
0.6228071541987626
 40
0.6228071541987626
 10
-9.626088851260192
 20
16.74355231997964
 30
0.0
 10
-9.602473090891758
 20
16.64111063777319
 30
0.0
 10
-9.555172020272913
 20
16.43592548997336
 30
0.0
 10
-9.602426734004645
 20
16.23071898057883
 30
0.0
 10
-9.626088851260192
 20
16.12796481997962
 30
0.0
 11
-9.626088851260192
 21
16.74355231997964
 31
0.0
 11
-9.578811041586421
 21
16.43622194715419
 31
0.0
 11
-9.626088851260192
 21
16.12796481997962
 31
0.0
  0
SPLINE
  5
1D8
330
1F
100
AcDbEntity
  8
1
  6
Continuous
 62
     7
100
AcDbSpline
210
0.0
220
0.0
230
1.0
 70
     8
 71
     3
 72
     9
 73
     5
 74
     3
 42
0.000000001
 43
0.0000000001
 44
0.00000001
 40
0.0
 40
0.0
 40
0.0
 40
0.0
 40
0.3109455714500717
 40
0.6228071541987451
 40
0.6228071541987451
 40
0.6228071541987451
 40
0.6228071541987451
 10
-9.626088851260192
 20
15.46355231997963
 30
0.0
 10
-9.602473090891758
 20
15.36111063777319
 30
0.0
 10
-9.555172020272913
 20
15.15592548997335
 30
0.0
 10
-9.602426734004647
 20
14.95071898057883
 30
0.0
 10
-9.626088851260192
 20
14.84796481997963
 30
0.0
 11
-9.626088851260192
 21
15.46355231997963
 31
0.0
 11
-9.578811041586421
 21
15.15622194715418
 31
0.0
 11
-9.626088851260192
 21
14.84796481997963
 31
0.0
  0
SPLINE
  5
1D9
330
1F
100
AcDbEntity
  8
1
  6
Continuous
 62
     7
100
AcDbSpline
210
0.0
220
0.0
230
1.0
 70
     8
 71
     3
 72
     9
 73
     5
 74
     3
 42
0.000000001
 43
0.0000000001
 44
0.00000001
 40
0.0
 40
0.0
 40
0.0
 40
0.0
 40
0.31094557145007
 40
0.6228071541987539
 40
0.6228071541987539
 40
0.6228071541987539
 40
0.6228071541987539
 10
-9.626088851260192
 20
14.18355231997964
 30
0.0
 10
-9.602473090891758
 20
14.08111063777319
 30
0.0
 10
-9.555172020272913
 20
13.87592548997336
 30
0.0
 10
-9.602426734004645
 20
13.67071898057884
 30
0.0
 10
-9.626088851260192
 20
13.56796481997963
 30
0.0
 11
-9.626088851260192
 21
14.18355231997964
 31
0.0
 11
-9.578811041586421
 21
13.87622194715419
 31
0.0
 11
-9.626088851260192
 21
13.56796481997963
 31
0.0
  0
ARC
  5
1DA
102
{ACAD_REACTORS
330
242
102
}
330
1F
100
AcDbEntity
  8
1
  6
Continuous
 62
     7
100
AcDbCircle
 10
-3.66473986225147
 20
2.56666666666665
 30
0.0
 40
0.0333333333333373
100
AcDbArc
 50
209.9999999999651
 51
330.0000000000422
  0
ARC
  5
1DB
102
{ACAD_REACTORS
330
243
102
}
330
1F
100
AcDbEntity
  8
1
  6
Continuous
 62
     7
100
AcDbCircle
 10
-4.13140652891816
 20
2.05400422960654
 30
0.0
 40
0.1333333333333044
100
AcDbArc
 50
180.0000000000107
 51
240.018360631167
  0
ARC
  5
1DC
330
1F
100
AcDbEntity
  8
1
  6
Continuous
 62
     7
100
AcDbCircle
 10
-5.33136950216345
 20
2.5
 30
0.0
 40
0.0333333333333203
100
AcDbArc
 50
119.9816393688785
 51
240.0183606311413
  0
ARC
  5
1DD
330
1F
100
AcDbEntity
  8
1
  6
Continuous
 62
     7
100
AcDbCircle
 10
-1.99811022233948
 20
2.5
 30
0.0
 40
0.0333333333333435
100
AcDbArc
 50
299.9816393688683
 51
60.01836063111187
  0
ARC
  5
1DE
102
{ACAD_REACTORS
330
245
102
}
330
1F
100
AcDbEntity
  8
1
  6
Continuous
 62
     7
100
AcDbCircle
 10
-3.13140652891816
 20
2.98450003203348
 30
0.0
 40
0.0666666666666866
100
AcDbArc
 50
60.01836063113014
 51
180.0
  0
ARC
  5
1DF
102
{ACAD_REACTORS
330
245
102
}
330
1F
100
AcDbEntity
  8
1
  6
Continuous
 62
     7
100
AcDbCircle
 10
-3.13140652891816
 20
2.01549996796652
 30
0.0
 40
0.066666666666606
100
AcDbArc
 50
180.0
 51
299.9816393688698
  0
MTEXT
  5
1E1
330
1F
100
AcDbEntity
  8
1
 62
     7
100
AcDbMText
 10
-31.0000000000002
 20
18.9557585699796
 30
0.0
 40
0.4
 41
0.0
 71
     5
 72
     1
  1
SILVER PLATED
  7
CONVERTER_11
 73
     1
 44
1.32052821128451
  0
MTEXT
  5
1E2
330
1F
100
AcDbEntity
  8
1
 62
     7
100
AcDbMText
 10
-31.0000000000002
 20
17.71575856997961
 30
0.0
 40
0.4
 41
0.0
 71
     5
 72
     1
  1
CIFA 0.2
  7
CONVERTER_11
 73
     1
 44
1.32052821128451
  0
MTEXT
  5
1E3
330
1F
100
AcDbEntity
  8
1
 62
     7
100
AcDbMText
 10
-31.0000000000002
 20
16.43575856997959
 30
0.0
 40
0.4
 41
0.0
 71
     5
 72
     1
  1
CIFA 0.3
  7
CONVERTER_11
 73
     1
 44
1.32052821128451
  0
MTEXT
  5
1E4
330
1F
100
AcDbEntity
  8
1
 62
     7
100
AcDbMText
 10
-31.0000000000002
 20
15.15575856997959
 30
0.0
 40
0.4
 41
0.0
 71
     5
 72
     1
  1
CIFA 0.5
  7
CONVERTER_11
 73
     1
 44
1.32052821128451
  0
MTEXT
  5
1E6
330
1F
100
AcDbEntity
  8
1
 62
     7
100
AcDbMText
 10
-34.80000000000001
 20
3.49999999999999
 30
0.0
 40
0.5
 41
0.0
 71
     5
 72
     1
  1
dimensions in mm
  7
CONVERTER_12
 73
     1
 44
0.60024009603842
  0
MTEXT
  5
1E8
330
1F
100
AcDbEntity
  8
1
 62
     7
100
AcDbMText
 10
-38.80000000000001
 20
30.29999999999997
 30
0.0
 40
0.8
 41
0.0
 71
     5
 72
     1
  1
Diritti riservati      All rights reserved
  7
CONVERTER_13
 11
0.0
 21
1.0
 31
0.0
 73
     1
 44
1.32052821128451
  0
MTEXT
  5
1E9
330
1F
100
AcDbEntity
  8
1
 62
     7
100
AcDbMText
 10
-37.60000000000001
 20
2.49999999999998
 30
0.0
 40
0.6
 41
0.0
 71
     4
 72
     1
  1
Date
  7
CONVERTER_13
 73
     1
 44
1.32052821128451
  0
MTEXT
  5
1EA
330
1F
100
AcDbEntity
  8
1
 62
     7
100
AcDbMText
 10
-35.48000000000003
 20
2.49999999999998
 30
0.0
 40
0.6
 41
0.0
 71
     4
 72
     1
  1
10/06/09
  7
CONVERTER_13
 73
     1
 44
1.32052821128451
  0
MTEXT
  5
1EB
330
1F
100
AcDbEntity
  8
1
 62
     7
100
AcDbMText
 10
-37.60000000000001
 20
1.49999999999998
 30
0.0
 40
0.6
 41
0.0
 71
     4
 72
     1
  1
Sign.
  7
CONVERTER_13
 73
     1
 44
1.32052821128451
  0
MTEXT
  5
1EC
330
1F
100
AcDbEntity
  8
1
 62
     7
100
AcDbMText
 10
-35.48000000000003
 20
1.49999999999998
 30
0.0
 40
0.6
 41
0.0
 71
     4
 72
     1
  1
T. Tedeschi
  7
CONVERTER_13
 73
     1
 44
1.32052821128451
  0
MTEXT
  5
1ED
330
1F
100
AcDbEntity
  8
1
 62
     7
100
AcDbMText
 10
-30.54473986225149
 20
2.5
 30
0.0
 40
0.9
 41
0.0
 71
     4
 72
     1
  1
CIFA / CIFD\PFemale crimp contact 5A
  7
CONVERTER_13
 73
     1
 44
0.90036014405762
  0
MTEXT
  5
1EE
330
1F
100
AcDbEntity
  8
1
 62
     7
100
AcDbMText
 10
-8.06473986225146
 20
3.2521278841512
 30
0.0
 40
0.6
 41
0.0
 71
     5
 72
     1
  1
Scale
  7
CONVERTER_13
 73
     1
 44
1.32052821128451
  0
MTEXT
  5
1EF
330
1F
100
AcDbEntity
  8
1
 62
     7
100
AcDbMText
 10
-8.06473986225146
 20
2.01212788415121
 30
0.0
 40
0.9
 41
0.0
 71
     5
 72
     1
  1
5:1
  7
CONVERTER_13
 73
     1
 44
1.32052821128451
  0
MTEXT
  5
1F0
330
1F
100
AcDbEntity
  8
1
 62
     7
100
AcDbMText
 10
-34.60000000000004
 20
4.5
 30
0.0
 40
0.6
 41
0.0
 71
     5
 72
     1
  1
06/05/16
  7
CONVERTER_13
 73
     1
 44
1.32052821128451
  0
MTEXT
  5
1F1
330
1F
100
AcDbEntity
  8
1
 62
     7
100
AcDbMText
 10
-32.40000000000001
 20
4.56
 30
0.0
 40
0.6
 41
0.0
 71
     4
 72
     1
  1
Added new part numbers : SILVER PLATED
  7
CONVERTER_13
 73
     1
 44
1.32052821128451
  0
MTEXT
  5
1F2
330
1F
100
AcDbEntity
  8
1
 62
     7
100
AcDbMText
 10
-6.99999999999975
 20
15.79575856997962
 30
0.0
 40
0.4
 41
0.0
 71
     5
 72
     1
  1
4,0
  7
CONVERTER_11
 73
     1
 44
1.32052821128451
  0
MTEXT
  5
1F3
330
1F
100
AcDbEntity
  8
1
 62
     7
100
AcDbMText
 10
-28.40000000000028
 20
20.15575856997961
 30
0.0
 40
0.4
 41
0.0
 71
     5
 72
     1
  1
PART NUMBERS
  7
CONVERTER_11
 73
     1
 44
1.32052821128451
  0
MTEXT
  5
1F4
330
1F
100
AcDbEntity
  8
1
 62
     7
100
AcDbMText
 10
-25.80000000000019
 20
17.71575856997961
 30
0.0
 40
0.4
 41
0.0
 71
     5
 72
     1
  1
CIFD 0.2
  7
CONVERTER_11
 73
     1
 44
1.32052821128451
  0
MTEXT
  5
1F5
330
1F
100
AcDbEntity
  8
1
 62
     7
100
AcDbMText
 10
-25.80000000000019
 20
16.43575856997959
 30
0.0
 40
0.4
 41
0.0
 71
     5
 72
     1
  1
CIFD 0.3
  7
CONVERTER_11
 73
     1
 44
1.32052821128451
  0
MTEXT
  5
1F6
330
1F
100
AcDbEntity
  8
1
 62
     7
100
AcDbMText
 10
-25.80000000000019
 20
15.15575856997959
 30
0.0
 40
0.4
 41
0.0
 71
     5
 72
     1
  1
CIFD 0.5
  7
CONVERTER_11
 73
     1
 44
1.32052821128451
  0
MTEXT
  5
1F7
330
1F
100
AcDbEntity
  8
1
 62
     7
100
AcDbMText
 10
-21.80000000000013
 20
15.15575856997959
 30
0.0
 40
0.4
 41
0.0
 71
     5
 72
     1
  1
1,12
  7
CONVERTER_11
 73
     1
 44
1.32052821128451
  0
MTEXT
  5
1F8
330
1F
100
AcDbEntity
  8
1
 62
     7
100
AcDbMText
 10
-21.80000000000013
 20
16.43575856997959
 30
0.0
 40
0.4
 41
0.0
 71
     5
 72
     1
  1
0,90
  7
CONVERTER_11
 73
     1
 44
1.32052821128451
  0
MTEXT
  5
1F9
330
1F
100
AcDbEntity
  8
1
 62
     7
100
AcDbMText
 10
-21.80000000000013
 20
17.71575856997961
 30
0.0
 40
0.4
 41
0.0
 71
     5
 72
     1
  1
0,64
  7
CONVERTER_11
 73
     1
 44
1.32052821128451
  0
MTEXT
  5
1FA
330
1F
100
AcDbEntity
  8
1
 62
     7
100
AcDbMText
 10
-21.80000000000013
 20
20.15575856997961
 30
0.0
 40
0.4
 41
0.0
 71
     5
 72
     1
  1
\U+00f8A
  7
CONVERTER_11
 73
     1
 44
1.32052821128451
  0
MTEXT
  5
1FB
330
1F
100
AcDbEntity
  8
1
 62
     7
100
AcDbMText
 10
-18.60000000000003
 20
18.9557585699796
 30
0.0
 40
0.4
 41
0.0
 71
     5
 72
     1
  1
mm
  7
CONVERTER_11
 73
     1
 44
1.32052821128451
  0
MTEXT
  5
1FC
330
1F
100
AcDbEntity
  8
1
 62
     7
100
AcDbMText
 10
-16.80000000000002
 20
20.15575856997961
 30
0.0
 40
0.4
 41
0.0
 71
     5
 72
     1
  1
WIRE GAUGE
  7
CONVERTER_11
 73
     1
 44
1.32052821128451
  0
MTEXT
  5
1FD
330
1F
100
AcDbEntity
  8
1
 62
     7
100
AcDbMText
 10
-25.80000000000019
 20
18.9557585699796
 30
0.0
 40
0.4
 41
0.0
 71
     5
 72
     1
  1
GOLD PLATED
  7
CONVERTER_11
 73
     1
 44
1.32052821128451
  0
MTEXT
  5
1FE
330
1F
100
AcDbEntity
  8
1
 62
     7
100
AcDbMText
 10
-14.99999999999995
 20
18.9557585699796
 30
0.0
 40
0.4
 41
0.0
 71
     5
 72
     1
  1
AWG
  7
CONVERTER_11
 73
     1
 44
1.32052821128451
  0
MTEXT
  5
1FF
330
1F
100
AcDbEntity
  8
1
 62
     7
100
AcDbMText
 10
-6.99999999999975
 20
19.5557585699796
 30
0.0
 40
0.4
 41
0.0
 71
     5
 72
     1
  1
STRIPPING\P LENGTH\P   mm
  7
CONVERTER_11
 73
     1
 44
1.02040816326531
  0
MTEXT
  5
201
330
1F
100
AcDbEntity
  8
1
 62
     7
100
AcDbMText
 10
-10.99999999999984
 20
19.5557585699796
 30
0.0
 40
0.4
 41
0.0
 71
     5
 72
     1
  1
IDENTIFICATION
  7
CONVERTER_14
 73
     1
 44
1.32052821128451
  0
TEXT
  5
202
330
1F
100
AcDbEntity
  8
1
 62
     7
100
AcDbText
 10
-17.97668857346017
 20
19.01979529597575
 30
0.0
 40
0.3
  1
2
 41
0.95
  7
CONVERTER_11
100
AcDbText
  0
MTEXT
  5
203
330
1F
100
AcDbEntity
  8
1
 62
     7
100
AcDbMText
 10
-21.80000000000013
 20
18.9557585699796
 30
0.0
 40
0.4
 41
0.0
 71
     5
 72
     1
  1
mm
  7
CONVERTER_11
 73
     1
 44
1.32052821128451
  0
MTEXT
  5
204
330
1F
100
AcDbEntity
  8
1
 62
     7
100
AcDbMText
 10
-18.60000000000002
 20
15.15575856997959
 30
0.0
 40
0.4
 41
0.0
 71
     5
 72
     1
  1
0,33-0,52
  7
CONVERTER_11
 73
     1
 44
1.32052821128451
  0
MTEXT
  5
205
330
1F
100
AcDbEntity
  8
1
 62
     7
100
AcDbMText
 10
-18.60000000000002
 20
16.43575856997961
 30
0.0
 40
0.4
 41
0.0
 71
     5
 72
     1
  1
0,13-0,33
  7
CONVERTER_11
 73
     1
 44
1.32052821128451
  0
MTEXT
  5
206
330
1F
100
AcDbEntity
  8
1
 62
     7
100
AcDbMText
 10
-18.60000000000002
 20
17.71575856997961
 30
0.0
 40
0.4
 41
0.0
 71
     5
 72
     1
  1
0,08-0,21
  7
CONVERTER_11
 73
     1
 44
1.32052821128451
  0
MTEXT
  5
207
330
1F
100
AcDbEntity
  8
1
 62
     7
100
AcDbMText
 10
-14.99999999999994
 20
17.71575856997961
 30
0.0
 40
0.4
 41
0.0
 71
     5
 72
     1
  1
28-24
  7
CONVERTER_11
 73
     1
 44
1.32052821128451
  0
MTEXT
  5
208
330
1F
100
AcDbEntity
  8
1
 62
     7
100
AcDbMText
 10
-14.99999999999994
 20
16.43575856997961
 30
0.0
 40
0.4
 41
0.0
 71
     5
 72
     1
  1
26-22
  7
CONVERTER_11
 73
     1
 44
1.32052821128451
  0
MTEXT
  5
209
330
1F
100
AcDbEntity
  8
1
 62
     7
100
AcDbMText
 10
-14.99999999999994
 20
15.15575856997959
 30
0.0
 40
0.4
 41
0.0
 71
     5
 72
     1
  1
22-20
  7
CONVERTER_11
 73
     1
 44
1.32052821128451
  0
MTEXT
  5
20A
330
1F
100
AcDbEntity
  8
1
 62
     7
100
AcDbMText
 10
-14.99999999999994
 20
13.8757585699796
 30
0.0
 40
0.4
 41
0.0
 71
     5
 72
     1
  1
20-18
  7
CONVERTER_11
 73
     1
 44
1.32052821128451
  0
MTEXT
  5
20B
330
1F
100
AcDbEntity
  8
1
 62
     7
100
AcDbMText
 10
-18.60000000000002
 20
13.8757585699796
 30
0.0
 40
0.4
 41
0.0
 71
     5
 72
     1
  1
0,52-0,75
  7
CONVERTER_11
 73
     1
 44
1.32052821128451
  0
MTEXT
  5
20C
330
1F
100
AcDbEntity
  8
1
 62
     7
100
AcDbMText
 10
-21.80000000000013
 20
13.8757585699796
 30
0.0
 40
0.4
 41
0.0
 71
     5
 72
     1
  1
1,30
  7
CONVERTER_11
 73
     1
 44
1.32052821128451
  0
MTEXT
  5
20D
330
1F
100
AcDbEntity
  8
1
 62
     7
100
AcDbMText
 10
-25.80000000000019
 20
13.8757585699796
 30
0.0
 40
0.4
 41
0.0
 71
     5
 72
     1
  1
CIFD 0.7
  7
CONVERTER_11
 73
     1
 44
1.32052821128451
  0
MTEXT
  5
20E
330
1F
100
AcDbEntity
  8
1
 62
     7
100
AcDbMText
 10
-31.0000000000002
 20
13.8757585699796
 30
0.0
 40
0.4
 41
0.0
 71
     5
 72
     1
  1
CIFA 0.7
  7
CONVERTER_11
 73
     1
 44
1.32052821128451
  0
MTEXT
  5
20F
330
1F
100
AcDbEntity
  8
1
 62
     7
100
AcDbMText
 10
-32.40000000000001
 20
5.56
 30
0.0
 40
0.6
 41
0.0
 71
     4
 72
     1
  1
Added : CIFA 0.7 - CIFD 0.7
  7
CONVERTER_13
 73
     1
 44
1.32052821128451
  0
MTEXT
  5
210
330
1F
100
AcDbEntity
  8
1
 62
     7
100
AcDbMText
 10
-34.60000000000004
 20
5.5
 30
0.0
 40
0.6
 41
0.0
 71
     5
 72
     1
  1
27/11/17
  7
CONVERTER_13
 73
     1
 44
1.32052821128451
  0
DIMENSION
  5
21C
330
1F
100
AcDbEntity
  8
1
100
AcDbDimension
  2
*D3
 10
-30.37933542428015
 20
42.18331083308707
 30
0.0
 11
-30.37933542428015
 21
34.98331083308705
 31
0.0
 70
    32
  1
<>
 71
     5
 42
-1.0
 53
0.00013888888889
  3
ME10_DIM_10
100
AcDbAlignedDimension
 13
-26.22247478663826
 23
27.78331083308704
 33
0.0
 14
-26.14417968040908
 24
42.18331083308707
 34
0.0
 50
90.0
100
AcDbRotatedDimension
  0
DIMENSION
  5
229
330
1F
100
AcDbEntity
  8
1
100
AcDbDimension
  2
*D4
 10
-13.89006881250302
 20
44.3996424271353
 30
0.0
 11
-13.3300688125029
 21
45.0996424271353
 31
0.0
 70
    32
  1
øA
 71
     5
 42
-1.0
 53
0.00013888888889
  3
ME10_DIM_11
100
AcDbAlignedDimension
 13
-12.77006881250279
 23
42.03087240892146
 33
0.0
 14
-13.89006881250302
 24
42.03087240892146
 34
0.0
100
AcDbRotatedDimension
  0
DIMENSION
  5
235
330
1F
100
AcDbEntity
  8
1
100
AcDbDimension
  2
*D5
 10
-9.48543122037367
 20
42.18331083305728
 30
0.0
 11
-9.48543122037367
 21
40.18331083305723
 31
0.0
 70
    32
  1
<>
 71
     5
 42
-1.0
 53
0.00013888888889
  3
ME10_DIM_12
100
AcDbAlignedDimension
 13
-12.77006881250279
 23
38.18331083305717
 33
0.0
 14
-12.50006881250292
 24
42.18331083305728
 34
0.0
 50
90.0
100
AcDbRotatedDimension
  0
DIMENSION
  5
241
330
1F
100
AcDbEntity
  8
1
100
AcDbDimension
  2
*D6
 10
-26.38917968040897
 20
35.9700719760417
 30
0.0
 11
-22.2158098627997
 21
36.7000719760417
 31
0.0
 70
    32
  1
<>
 71
     5
 42
-1.0
 53
0.00013888888889
  3
ME10_DIM_13
100
AcDbAlignedDimension
 13
-24.239179680409
 23
35.78331083308704
 33
0.0
 14
-26.38917968040897
 24
35.78331083308704
 34
0.0
100
AcDbRotatedDimension
  0
HATCH
  5
242
330
1F
100
AcDbEntity
  8
1
  6
Continuous
 62
     7
100
AcDbHatch
 10
0.0
 20
0.0
 30
0.0
210
0.0
220
0.0
230
1.0
  2
SOLID
 70
     1
 71
     1
 91
        1
 92
        1
 93
       16
 72
     2
 10
-3.945079953089724
 20
3.146243462406915
 40
0.0529932424950235
 50
30.0000000000402
 51
180.0
 73
     1
 72
     1
 10
-3.998073195584816
 20
3.146243462406915
 11
-3.998073195584816
 21
2.5
 72
     1
 10
-3.998073195584816
 20
2.5
 11
-3.998073195584816
 21
2.169517014526582
 72
     2
 10
-3.93140652891816
 20
2.169517014526582
 40
0.0666666666666562
 50
180.0
 51
360.0
 73
     1
 72
     1
 10
-3.864739862251462
 20
2.169517014526582
 11
-3.864739862251462
 21
2.5
 72
     1
 10
-3.864739862251462
 20
2.5
 11
-3.864739862251462
 21
2.846410161513768
 72
     1
 10
-3.864739862251462
 20
2.846410161513768
 11
-3.693607375710961
 21
2.550000000000001
 72
     2
 10
-3.664739862251466
 20
2.566666666666652
 40
0.0333333333333373
 50
209.9999999999651
 51
330.0000000000422
 73
     1
 72
     1
 10
-3.635872348791963
 20
2.550000000000001
 11
-3.464739862251463
 21
2.846410161513768
 72
     1
 10
-3.464739862251463
 20
2.846410161513768
 11
-3.464739862251463
 21
2.5
 72
     1
 10
-3.464739862251463
 20
2.5
 11
-3.464739862251463
 21
1.861653814120359
 72
     2
 10
-3.398073195584765
 20
1.861653814120359
 40
0.066666666666698
 50
180.0
 51
360.0
 73
     1
 72
     1
 10
-3.331406528918159
 20
1.861653814120359
 11
-3.331406528918159
 21
3.146243462406915
 72
     2
 10
-3.3843997714132
 20
3.146243462406915
 40
0.0529932424950412
 50
0.0
 51
149.9999999999641
 73
     1
 72
     1
 10
-3.430293265642789
 20
3.172740083654459
 11
-3.664739862251466
 21
2.766666666666652
 72
     1
 10
-3.664739862251466
 20
2.766666666666652
 11
-3.899186458860143
 21
3.172740083654459
 97
       16
330
9A
330
1A7
330
99
330
1A6
330
98
330
8C
330
8D
330
1DA
330
8E
330
8F
330
97
330
1A5
330
96
330
94
330
1A4
330
95
 75
     0
 76
     1
 98
        1
 10
0.0
 20
0.0
  0
HATCH
  5
243
330
1F
100
AcDbEntity
  8
1
  6
Continuous
 62
     7
100
AcDbHatch
 10
0.0
 20
0.0
 30
0.0
210
0.0
220
0.0
230
1.0
  2
SOLID
 70
     1
 71
     1
 91
        1
 92
        1
 93
        7
 72
     1
 10
-4.131406528918163
 20
2.984500032033475
 11
-4.131406528918163
 21
2.054004229606541
 72
     1
 10
-4.131406528918163
 20
2.054004229606541
 11
-3.698091698685495
 21
1.80401490447232
 72
     2
 10
-3.731406528918157
 20
1.746269198735741
 40
0.0666666666666659
 50
299.9816393688645
 51
479.9816393688383
 73
     0
 72
     1
 10
-3.764721359150784
 20
1.688523492999162
 11
-4.198036189383402
 21
1.938512818133383
 72
     2
 10
-4.131406528918163
 20
2.054004229606541
 40
0.1333333333333044
 50
119.9816393688331
 51
179.9999999999893
 73
     0
 72
     1
 10
-4.264739862251467
 20
2.054004229606516
 11
-4.264739862251467
 21
2.984500032033475
 72
     2
 10
-4.198073195584811
 20
2.984500032033475
 40
0.0666666666666487
 50
180.0
 51
360.0
 73
     0
 97
        7
330
9C
330
9D
330
1A9
330
9E
330
1DB
330
9B
330
1A8
 75
     0
 76
     1
 98
        1
 10
0.0
 20
0.0
  0
HATCH
  5
244
330
1F
100
AcDbEntity
  8
1
  6
Continuous
 62
     7
100
AcDbHatch
 10
0.0
 20
0.0
 30
0.0
210
0.0
220
0.0
230
1.0
  2
SOLID
 70
     1
 71
     1
 91
        1
 92
        1
 93
        5
 72
     1
 10
-4.398073195584814
 20
2.830653878187333
 11
-4.398073195584814
 21
2.20785038345266
 72
     1
 10
-4.398073195584814
 20
2.20785038345266
 11
-4.398073195584814
 21
2.169346121812646
 72
     2
 10
-4.464739862251463
 20
2.169346121812646
 40
0.0666666666666984
 50
0.0
 51
180.0
 73
     0
 72
     1
 10
-4.531406528918161
 20
2.169346121812646
 11
-4.531406528918161
 21
2.830653878187333
 72
     2
 10
-4.464739862251463
 20
2.830653878187333
 40
0.0666666666666487
 50
180.0
 51
360.0
 73
     0
 97
        5
330
9F
330
A0
330
1AB
330
A1
330
1AA
 75
     0
 76
     1
 98
        1
 10
0.0
 20
0.0
  0
HATCH
  5
245
330
1F
100
AcDbEntity
  8
1
  6
Continuous
 62
     7
100
AcDbHatch
 10
0.0
 20
0.0
 30
0.0
210
0.0
220
0.0
230
1.0
  2
SOLID
 70
     1
 71
     1
 91
        1
 92
        1
 93
       14
 72
     1
 10
-2.898054692484081
 20
2.772908172450753
 11
-3.064739862251464
 21
2.86907269347039
 72
     1
 10
-3.064739862251464
 20
2.86907269347039
 11
-3.064739862251464
 21
2.566666666666652
 72
     1
 10
-3.064739862251464
 20
2.566666666666652
 11
-2.864739862251462
 21
2.566666666666652
 72
     2
 10
-2.864739862251462
 20
2.5
 40
0.0666666666666731
 50
270.0
 51
450.0
 73
     0
 72
     1
 10
-2.864739862251462
 20
2.433333333333327
 11
-3.064739862251464
 21
2.433333333333327
 72
     1
 10
-3.064739862251464
 20
2.433333333333327
 11
-3.064739862251464
 21
2.130927306529589
 72
     1
 10
-3.064739862251464
 20
2.130927306529589
 11
-2.898054692484081
 21
2.227091827549248
 72
     2
 10
-2.864739862251462
 20
2.169346121812646
 40
0.0666666666666623
 50
240.0183606311774
 51
420.0183606311671
 73
     0
 72
     1
 10
-2.831425032018842
 20
2.111600416076067
 11
-3.098091698685494
 21
1.957754262229946
 72
     2
 10
-3.131406528918163
 20
2.015499967966525
 40
0.066666666666606
 50
60.0183606311302
 51
180.0
 73
     0
 72
     1
 10
-3.198073195584769
 20
2.015499967966525
 11
-3.198073195584769
 21
2.984500032033475
 72
     2
 10
-3.131406528918163
 20
2.984500032033475
 40
0.0666666666666866
 50
180.0
 51
299.9816393688699
 73
     0
 72
     1
 10
-3.098091698685494
 20
3.042245737770054
 11
-2.831425032018842
 21
2.888399583923889
 72
     2
 10
-2.864739862251462
 20
2.830653878187333
 40
0.0666666666666627
 50
299.9816393688429
 51
479.981639368832
 73
     0
 97
       14
330
A2
330
1DE
330
8B
330
1DF
330
A9
330
1AE
330
A8
330
A7
330
A6
330
1AD
330
A5
330
A4
330
A3
330
1AC
 75
     0
 76
     1
 98
        1
 10
0.0
 20
0.0
  0
HATCH
  5
246
330
1F
100
AcDbEntity
  8
1
  6
Continuous
 62
     7
100
AcDbHatch
 10
0.0
 20
0.0
 30
0.0
210
0.0
220
0.0
230
1.0
  2
_USER
 70
     0
 71
     1
 91
        1
 92
        1
 93
        5
 72
     1
 10
-12.77006881250284
 20
39.08331083305729
 11
-12.77006881250279
 21
42.03087240892146
 72
     1
 10
-12.77006881250279
 20
42.03087240892146
 11
-12.61763038836696
 21
42.18331083305728
 72
     1
 10
-12.61763038836696
 20
42.18331083305728
 11
-12.50006881250292
 21
42.18331083305728
 72
     1
 10
-12.50006881250292
 20
42.18331083305728
 11
-12.50006881250286
 21
39.08331083305729
 72
     1
 10
-12.50006881250286
 20
39.08331083305729
 11
-12.77006881250284
 21
39.08331083305729
 97
        5
330
D9
330
DC
330
DA
330
DB
330
F4
 75
     1
 76
     0
 52
44.99999999999989
 41
0.25
 77
     0
 78
     1
 53
44.99999999999989
 43
0.0
 44
0.0
 45
-0.1767766952966365
 46
0.1767766952966372
 79
     0
 98
        1
 10
0.0
 20
0.0
  0
HATCH
  5
247
330
1F
100
AcDbEntity
  8
1
  6
Continuous
 62
     7
100
AcDbHatch
 10
0.0
 20
0.0
 30
0.0
210
0.0
220
0.0
230
1.0
  2
_USER
 70
     0
 71
     1
 91
        1
 92
        1
 93
       24
 72
     1
 10
-12.77006881250284
 20
38.48327748255876
 11
-12.50006881250286
 21
38.48327748255876
 72
     1
 10
-12.50006881250286
 20
38.48327748255876
 11
-12.50006881250292
 21
38.18331083305717
 72
     1
 10
-12.50006881250292
 20
38.18331083305717
 11
-12.60506881250288
 21
38.18331083305726
 72
     1
 10
-12.60506881250288
 20
38.18331083305726
 11
-12.60506881250288
 21
37.38331083305719
 72
     1
 10
-12.60506881250288
 20
37.38331083305719
 11
-12.25506881250291
 21
37.38331083305719
 72
     1
 10
-12.25506881250291
 20
37.38331083305719
 11
-12.25506881250291
 21
37.03331083308706
 72
     1
 10
-12.25506881250291
 20
37.03331083308706
 11
-12.40506881250278
 21
36.88331083308706
 72
     1
 10
-12.40506881250278
 20
36.88331083308706
 11
-12.25506881250291
 21
36.73331083308708
 72
     1
 10
-12.25506881250291
 20
36.73331083308708
 11
-12.25506881250291
 21
36.5814724666805
 72
     4
 94
        3
 73
     0
 74
     0
 95
        9
 96
        5
 40
0.0
 40
0.0
 40
0.0
 40
0.0
 40
1.070088507638273
 40
2.150516075642549
 40
2.150516075642549
 40
2.150516075642549
 40
2.150516075642549
 10
-12.25506881250291
 20
36.5814724666805
 10
-12.61155664821619
 20
36.56825135142078
 10
-13.32797666069171
 20
36.54168140014281
 10
-14.04488919233752
 20
36.54279827499413
 10
-14.40506881250286
 20
36.5433594072719
 72
     1
 10
-14.40506881250286
 20
36.5433594072719
 11
-14.40506881250286
 21
36.73331083308708
 72
     1
 10
-14.40506881250286
 20
36.73331083308708
 11
-14.255068812503
 21
36.88331083308706
 72
     1
 10
-14.255068812503
 20
36.88331083308706
 11
-14.40506881250286
 21
37.03331083308706
 72
     1
 10
-14.40506881250286
 20
37.03331083308706
 11
-14.405068812503
 21
37.38331083305719
 72
     1
 10
-14.405068812503
 20
37.38331083305719
 11
-14.05506881250298
 21
37.38331083305719
 72
     1
 10
-14.05506881250298
 20
37.38331083305719
 11
-14.05506881250298
 21
38.18331083305726
 72
     1
 10
-14.05506881250298
 20
38.18331083305726
 11
-14.16006881250289
 21
38.18331083305726
 72
     1
 10
-14.16006881250289
 20
38.18331083305726
 11
-14.16006881250289
 21
42.18331083305728
 72
     1
 10
-14.16006881250289
 20
42.18331083305728
 11
-14.04250723663861
 21
42.18331083305709
 72
     1
 10
-14.04250723663861
 20
42.18331083305709
 11
-13.89006881250302
 21
42.03087240892146
 72
     1
 10
-13.89006881250302
 20
42.03087240892146
 11
-13.89006881250302
 21
38.18331083305717
 72
     1
 10
-13.89006881250302
 20
38.18331083305717
 11
-13.3300688125029
 21
37.86031083305719
 72
     1
 10
-13.3300688125029
 20
37.86031083305719
 11
-12.77006881250279
 21
38.18331083305717
 72
     1
 10
-12.77006881250279
 20
38.18331083305717
 11
-12.77006881250284
 21
38.48327748255876
 97
       24
330
D6
330
E5
330
EA
330
E9
330
EB
330
E8
330
EC
330
ED
330
EE
330
113
330
10D
330
10E
330
114
330
1B3
330
111
330
117
330
10C
330
112
330
F3
330
11A
330
DD
330
F6
330
F7
330
F5
 75
     1
 76
     0
 52
44.99999999999989
 41
0.25
 77
     0
 78
     1
 53
44.99999999999989
 43
0.0
 44
0.0
 45
-0.1767766952966365
 46
0.1767766952966372
 79
     0
 98
        1
 10
0.0
 20
0.0
  0
ENDSEC
  0
SECTION
  2
OBJECTS
  0
DICTIONARY
  5
C
330
0
100
AcDbDictionary
281
     1
  3
ACAD_GROUP
350
D
  3
ACAD_LAYOUT
350
1A
  3
ACAD_MATERIAL
350
43
  3
ACAD_MLEADERSTYLE
350
24A
  3
ACAD_MLINESTYLE
350
17
  3
ACAD_PLOTSETTINGS
350
19
  3
ACAD_PLOTSTYLENAME
350
E
  3
ACAD_SCALELIST
350
47
  3
ACAD_VISUALSTYLE
350
2A
  3
AcDbVariableDictionary
350
248
  0
DICTIONARY
  5
D
102
{ACAD_REACTORS
330
C
102
}
330
C
100
AcDbDictionary
281
     1
  0
DICTIONARY
  5
1A
102
{ACAD_REACTORS
330
C
102
}
330
C
100
AcDbDictionary
281
     1
  3
Layout1
350
1E
  3
Layout2
350
26
  3
Model
350
22
  0
DICTIONARY
  5
43
102
{ACAD_REACTORS
330
C
102
}
330
C
100
AcDbDictionary
281
     1
  3
ByBlock
350
45
  3
ByLayer
350
44
  3
Global
350
46
  0
DICTIONARY
  5
24A
102
{ACAD_REACTORS
330
C
102
}
330
C
100
AcDbDictionary
281
     1
  0
DICTIONARY
  5
17
102
{ACAD_REACTORS
330
C
102
}
330
C
100
AcDbDictionary
281
     1
  3
Standard
350
18
  0
DICTIONARY
  5
19
102
{ACAD_REACTORS
330
C
102
}
330
C
100
AcDbDictionary
281
     1
  0
ACDBDICTIONARYWDFLT
  5
E
102
{ACAD_REACTORS
330
C
102
}
330
C
100
AcDbDictionary
281
     1
  3
Normal
350
F
100
AcDbDictionaryWithDefault
340
F
  0
DICTIONARY
  5
47
102
{ACAD_REACTORS
330
C
102
}
330
C
100
AcDbDictionary
281
     1
  3
A0
350
48
  3
A1
350
49
  3
A2
350
4A
  3
A3
350
4B
  3
A4
350
4C
  3
A5
350
4D
  3
A6
350
4E
  3
A7
350
4F
  3
A8
350
50
  3
A9
350
51
  3
B0
350
52
  3
B1
350
53
  3
B2
350
54
  3
B3
350
55
  3
B4
350
56
  3
B5
350
57
  3
B6
350
58
  3
B7
350
59
  3
B8
350
5A
  3
B9
350
5B
  3
C0
350
5C
  3
C1
350
5D
  3
C2
350
5E
  3
C3
350
5F
  3
C4
350
60
  3
C5
350
61
  3
C6
350
62
  3
C7
350
63
  3
C8
350
64
  3
C9
350
65
  3
D0
350
66
  3
D1
350
67
  3
D2
350
68
  0
DICTIONARY
  5
2A
102
{ACAD_REACTORS
330
C
102
}
330
C
100
AcDbDictionary
281
     1
  3
2dWireframe
350
2F
  3
Basic
350
32
  3
Brighten
350
36
  3
ColorChange
350
3A
  3
Conceptual
350
34
  3
Dim
350
35
  3
EdgeColorOff
350
3D
  3
Facepattern
350
39
  3
Flat
350
2B
  3
FlatWithEdges
350
2C
  3
Gouraud
350
2D
  3
GouraudWithEdges
350
2E
  3
Hidden
350
31
  3
JitterOff
350
3B
  3
Linepattern
350
38
  3
OverhangOff
350
3C
  3
Realistic
350
33
  3
Shaded
350
42
  3
Shaded with edges
350
41
  3
Shades of Gray
350
3E
  3
Sketchy
350
3F
  3
Thicken
350
37
  3
Wireframe
350
30
  3
X-Ray
350
40
  0
DICTIONARY
  5
248
102
{ACAD_REACTORS
330
C
102
}
330
C
100
AcDbDictionary
281
     1
  3
CANNOSCALE
350
24F
  3
DIMASSOC
350
24D
  3
HIDETEXT
350
24E
  3
MSLTSCALE
350
250
  0
LAYOUT
  5
1E
102
{ACAD_REACTORS
330
1A
102
}
330
1A
100
AcDbPlotSettings
  1

  2
none_device
  4

  6

 40
0.0
 41
0.0
 42
0.0
 43
0.0
 44
0.0
 45
0.0
 46
0.0
 47
0.0
 48
0.0
 49
0.0
140
0.0
141
0.0
142
1.0
143
1.0
 70
   688
 72
     0
 73
     0
 74
     5
  7

 75
    16
147
1.0
148
0.0
149
0.0
100
AcDbLayout
  1
Layout1
 70
     1
 71
     1
 10
0.0
 20
0.0
 11
12.0
 21
9.0
 12
0.0
 22
0.0
 32
0.0
 14
1.00000000000000E+20
 24
1.00000000000000E+20
 34
1.00000000000000E+20
 15
-1.00000000000000E+20
 25
-1.00000000000000E+20
 35
-1.00000000000000E+20
146
0.0
 13
0.0
 23
0.0
 33
0.0
 16
1.0
 26
0.0
 36
0.0
 17
0.0
 27
1.0
 37
0.0
 76
     0
330
1B
  0
LAYOUT
  5
26
102
{ACAD_REACTORS
330
1A
102
}
330
1A
100
AcDbPlotSettings
  1

  2
none_device
  4

  6

 40
0.0
 41
0.0
 42
0.0
 43
0.0
 44
0.0
 45
0.0
 46
0.0
 47
0.0
 48
0.0
 49
0.0
140
0.0
141
0.0
142
1.0
143
1.0
 70
   688
 72
     0
 73
     0
 74
     5
  7

 75
    16
147
1.0
148
0.0
149
0.0
100
AcDbLayout
  1
Layout2
 70
     1
 71
     2
 10
0.0
 20
0.0
 11
0.0
 21
0.0
 12
0.0
 22
0.0
 32
0.0
 14
0.0
 24
0.0
 34
0.0
 15
0.0
 25
0.0
 35
0.0
146
0.0
 13
0.0
 23
0.0
 33
0.0
 16
1.0
 26
0.0
 36
0.0
 17
0.0
 27
1.0
 37
0.0
 76
     0
330
23
  0
LAYOUT
  5
22
102
{ACAD_REACTORS
330
1A
102
}
330
1A
100
AcDbPlotSettings
  1

  2
none_device
  4
Letter_(8.50_x_11.00_Inches)
  6

 40
6.35
 41
6.35
 42
6.35000508
 43
6.35000508
 44
215.9
 45
279.4
 46
0.0
 47
0.0
 48
0.0
 49
0.0
140
0.0
141
0.0
142
1.0
143
1.0
 70
  1712
 72
     0
 73
     0
 74
     0
  7

 75
     0
147
1.0
148
0.0
149
0.0
100
AcDbLayout
  1
Model
 70
     1
 71
     0
 10
0.0
 20
0.0
 11
12.0
 21
9.0
 12
0.0
 22
0.0
 32
0.0
 14
-42.00000000000001
 24
0.0
 34
0.0
 15
0.0
 25
59.40000000000003
 35
0.0
146
0.0
 13
0.0
 23
0.0
 33
0.0
 16
1.0
 26
0.0
 36
0.0
 17
0.0
 27
1.0
 37
0.0
 76
     0
330
1F
331
29
  0
MATERIAL
  5
45
102
{ACAD_REACTORS
330
43
102
}
102
{ACAD_XDICTIONARY
360
283
102
}
330
43
100
AcDbMaterial
  1
ByBlock
  0
MATERIAL
  5
44
102
{ACAD_REACTORS
330
43
102
}
102
{ACAD_XDICTIONARY
360
281
102
}
330
43
100
AcDbMaterial
  1
ByLayer
  0
MATERIAL
  5
46
102
{ACAD_REACTORS
330
43
102
}
102
{ACAD_XDICTIONARY
360
285
102
}
330
43
100
AcDbMaterial
  1
Global
  0
MLINESTYLE
  5
18
102
{ACAD_REACTORS
330
17
102
}
330
17
100
AcDbMlineStyle
  2
Standard
 70
     0
  3

 62
   256
 51
90.0
 52
90.0
 71
     2
 49
0.5
 62
   256
  6
BYLAYER
 49
-0.5
 62
   256
  6
BYLAYER
  0
ACDBPLACEHOLDER
  5
F
102
{ACAD_REACTORS
330
E
102
}
330
E
  0
SCALE
  5
48
102
{ACAD_REACTORS
330
47
102
}
330
47
100
AcDbScale
 70
     0
300
1:1
140
1.0
141
1.0
290
     1
  0
SCALE
  5
49
102
{ACAD_REACTORS
330
47
102
}
330
47
100
AcDbScale
 70
     0
300
1:2
140
1.0
141
2.0
290
     0
  0
SCALE
  5
4A
102
{ACAD_REACTORS
330
47
102
}
330
47
100
AcDbScale
 70
     0
300
1:4
140
1.0
141
4.0
290
     0
  0
SCALE
  5
4B
102
{ACAD_REACTORS
330
47
102
}
330
47
100
AcDbScale
 70
     0
300
1:5
140
1.0
141
5.0
290
     0
  0
SCALE
  5
4C
102
{ACAD_REACTORS
330
47
102
}
330
47
100
AcDbScale
 70
     0
300
1:8
140
1.0
141
8.0
290
     0
  0
SCALE
  5
4D
102
{ACAD_REACTORS
330
47
102
}
330
47
100
AcDbScale
 70
     0
300
1:10
140
1.0
141
10.0
290
     0
  0
SCALE
  5
4E
102
{ACAD_REACTORS
330
47
102
}
330
47
100
AcDbScale
 70
     0
300
1:16
140
1.0
141
16.0
290
     0
  0
SCALE
  5
4F
102
{ACAD_REACTORS
330
47
102
}
330
47
100
AcDbScale
 70
     0
300
1:20
140
1.0
141
20.0
290
     0
  0
SCALE
  5
50
102
{ACAD_REACTORS
330
47
102
}
330
47
100
AcDbScale
 70
     0
300
1:30
140
1.0
141
30.0
290
     0
  0
SCALE
  5
51
102
{ACAD_REACTORS
330
47
102
}
330
47
100
AcDbScale
 70
     0
300
1:40
140
1.0
141
40.0
290
     0
  0
SCALE
  5
52
102
{ACAD_REACTORS
330
47
102
}
330
47
100
AcDbScale
 70
     0
300
1:50
140
1.0
141
50.0
290
     0
  0
SCALE
  5
53
102
{ACAD_REACTORS
330
47
102
}
330
47
100
AcDbScale
 70
     0
300
1:100
140
1.0
141
100.0
290
     0
  0
SCALE
  5
54
102
{ACAD_REACTORS
330
47
102
}
330
47
100
AcDbScale
 70
     0
300
2:1
140
2.0
141
1.0
290
     0
  0
SCALE
  5
55
102
{ACAD_REACTORS
330
47
102
}
330
47
100
AcDbScale
 70
     0
300
4:1
140
4.0
141
1.0
290
     0
  0
SCALE
  5
56
102
{ACAD_REACTORS
330
47
102
}
330
47
100
AcDbScale
 70
     0
300
8:1
140
8.0
141
1.0
290
     0
  0
SCALE
  5
57
102
{ACAD_REACTORS
330
47
102
}
330
47
100
AcDbScale
 70
     0
300
10:1
140
10.0
141
1.0
290
     0
  0
SCALE
  5
58
102
{ACAD_REACTORS
330
47
102
}
330
47
100
AcDbScale
 70
     0
300
100:1
140
100.0
141
1.0
290
     0
  0
SCALE
  5
59
102
{ACAD_REACTORS
330
47
102
}
330
47
100
AcDbScale
 70
     0
300
1/128" = 1'-0"
140
0.0078125
141
12.0
290
     0
  0
SCALE
  5
5A
102
{ACAD_REACTORS
330
47
102
}
330
47
100
AcDbScale
 70
     0
300
1/64" = 1'-0"
140
0.015625
141
12.0
290
     0
  0
SCALE
  5
5B
102
{ACAD_REACTORS
330
47
102
}
330
47
100
AcDbScale
 70
     0
300
1/32" = 1'-0"
140
0.03125
141
12.0
290
     0
  0
SCALE
  5
5C
102
{ACAD_REACTORS
330
47
102
}
330
47
100
AcDbScale
 70
     0
300
1/16" = 1'-0"
140
0.0625
141
12.0
290
     0
  0
SCALE
  5
5D
102
{ACAD_REACTORS
330
47
102
}
330
47
100
AcDbScale
 70
     0
300
3/32" = 1'-0"
140
0.09375
141
12.0
290
     0
  0
SCALE
  5
5E
102
{ACAD_REACTORS
330
47
102
}
330
47
100
AcDbScale
 70
     0
300
1/8" = 1'-0"
140
0.125
141
12.0
290
     0
  0
SCALE
  5
5F
102
{ACAD_REACTORS
330
47
102
}
330
47
100
AcDbScale
 70
     0
300
3/16" = 1'-0"
140
0.1875
141
12.0
290
     0
  0
SCALE
  5
60
102
{ACAD_REACTORS
330
47
102
}
330
47
100
AcDbScale
 70
     0
300
1/4" = 1'-0"
140
0.25
141
12.0
290
     0
  0
SCALE
  5
61
102
{ACAD_REACTORS
330
47
102
}
330
47
100
AcDbScale
 70
     0
300
3/8" = 1'-0"
140
0.375
141
12.0
290
     0
  0
SCALE
  5
62
102
{ACAD_REACTORS
330
47
102
}
330
47
100
AcDbScale
 70
     0
300
1/2" = 1'-0"
140
0.5
141
12.0
290
     0
  0
SCALE
  5
63
102
{ACAD_REACTORS
330
47
102
}
330
47
100
AcDbScale
 70
     0
300
3/4" = 1'-0"
140
0.75
141
12.0
290
     0
  0
SCALE
  5
64
102
{ACAD_REACTORS
330
47
102
}
330
47
100
AcDbScale
 70
     0
300
1" = 1'-0"
140
1.0
141
12.0
290
     0
  0
SCALE
  5
65
102
{ACAD_REACTORS
330
47
102
}
330
47
100
AcDbScale
 70
     0
300
1-1/2" = 1'-0"
140
1.5
141
12.0
290
     0
  0
SCALE
  5
66
102
{ACAD_REACTORS
330
47
102
}
330
47
100
AcDbScale
 70
     0
300
3" = 1'-0"
140
3.0
141
12.0
290
     0
  0
SCALE
  5
67
102
{ACAD_REACTORS
330
47
102
}
330
47
100
AcDbScale
 70
     0
300
6" = 1'-0"
140
6.0
141
12.0
290
     0
  0
SCALE
  5
68
102
{ACAD_REACTORS
330
47
102
}
330
47
100
AcDbScale
 70
     0
300
1'-0" = 1'-0"
140
12.0
141
12.0
290
     0
  0
VISUALSTYLE
  5
2F
102
{ACAD_REACTORS
330
2A
102
}
102
{ACAD_XDICTIONARY
360
259
102
}
330
2A
100
AcDbVisualStyle
  2
2dWireframe
 70
     4
 71
     0
 72
     2
 73
     0
 90
        0
 40
0.6
 41
30.0
 62
     5
 63
     7
 74
     1
 91
        4
 64
     7
 65
   257
 75
     1
175
     1
 42
1.0
 92
        0
 66
   257
 43
1.0
 76
     1
 77
     6
 78
     2
 67
     7
 79
     5
170
     0
171
     0
290
     0
174
     0
 93
        1
 44
0.0
173
     0
291
     0
 45
0.0
1001
ACAD
1000
AcDbSavedByObjectVersion
1070
     0
  0
VISUALSTYLE
  5
32
102
{ACAD_REACTORS
330
2A
102
}
102
{ACAD_XDICTIONARY
360
25F
102
}
330
2A
100
AcDbVisualStyle
  2
Basic
 70
     7
 71
     1
 72
     0
 73
     1
 90
        0
 40
0.6
 41
30.0
 62
     5
 63
     7
 74
     0
 91
        4
 64
     7
 65
   257
 75
     1
175
     1
 42
1.0
 92
        8
 66
     7
 43
1.0
 76
     1
 77
     6
 78
     2
 67
     7
 79
     5
170
     0
171
     0
290
     0
174
     0
 93
        1
 44
0.0
173
     0
291
     1
 45
0.0
1001
ACAD
1000
AcDbSavedByObjectVersion
1070
     0
  0
VISUALSTYLE
  5
36
102
{ACAD_REACTORS
330
2A
102
}
102
{ACAD_XDICTIONARY
360
267
102
}
330
2A
100
AcDbVisualStyle
  2
Brighten
 70
    12
 71
     2
 72
     2
 73
     0
 90
        0
 40
0.6
 41
30.0
 62
     5
 63
     7
 74
     1
 91
        4
 64
     7
 65
   257
 75
     1
175
     1
 42
1.0
 92
        8
 66
     7
 43
1.0
 76
     1
 77
     6
 78
     2
 67
     7
 79
     5
170
     0
171
     0
290
     0
174
     0
 93
        1
 44
50.0
173
     0
291
     1
 45
0.0
1001
ACAD
1000
AcDbSavedByObjectVersion
1070
     0
  0
VISUALSTYLE
  5
3A
102
{ACAD_REACTORS
330
2A
102
}
102
{ACAD_XDICTIONARY
360
26F
102
}
330
2A
100
AcDbVisualStyle
  2
ColorChange
 70
    16
 71
     2
 72
     2
 73
     3
 90
        0
 40
0.6
 41
30.0
 62
     5
 63
     8
 74
     1
 91
        4
 64
     7
 65
   257
 75
     1
175
     1
 42
1.0
 92
        8
 66
     8
 43
1.0
 76
     1
 77
     6
 78
     2
 67
     7
 79
     5
170
     0
171
     0
290
     0
174
     0
 93
        1
 44
0.0
173
     0
291
     1
 45
0.0
1001
ACAD
1000
AcDbSavedByObjectVersion
1070
     0
  0
VISUALSTYLE
  5
34
102
{ACAD_REACTORS
330
2A
102
}
102
{ACAD_XDICTIONARY
360
263
102
}
330
2A
100
AcDbVisualStyle
  2
Conceptual
 70
     9
 71
     3
 72
     2
 73
     0
 90
        0
 40
0.6
 41
30.0
 62
     5
 63
     7
 74
     2
 91
        2
 64
     7
 65
   257
 75
     1
175
     1
 42
179.0
 92
        8
 66
     7
 43
1.0
 76
     1
 77
     6
 78
     2
 67
     7
 79
     3
170
     0
171
     0
290
     0
174
     0
 93
        1
 44
0.0
173
     0
291
     0
 45
0.0
1001
ACAD
1000
AcDbSavedByObjectVersion
1070
     0
  0
VISUALSTYLE
  5
35
102
{ACAD_REACTORS
330
2A
102
}
102
{ACAD_XDICTIONARY
360
265
102
}
330
2A
100
AcDbVisualStyle
  2
Dim
 70
    11
 71
     2
 72
     2
 73
     0
 90
        0
 40
0.6
 41
30.0
 62
     5
 63
     7
 74
     1
 91
        4
 64
     7
 65
   257
 75
     1
175
     1
 42
1.0
 92
        8
 66
     7
 43
1.0
 76
     1
 77
     6
 78
     2
 67
     7
 79
     5
170
     0
171
     0
290
     0
174
     0
 93
        1
 44
-50.0
173
     0
291
     1
 45
0.0
1001
ACAD
1000
AcDbSavedByObjectVersion
1070
     0
  0
VISUALSTYLE
  5
3D
102
{ACAD_REACTORS
330
2A
102
}
102
{ACAD_XDICTIONARY
360
275
102
}
330
2A
100
AcDbVisualStyle
  2
EdgeColorOff
 70
    22
 71
     2
 72
     2
 73
     0
 90
        0
 40
0.6
 41
30.0
 62
     5
 63
     7
 74
     1
 91
        4
 64
     7
 65
   257
 75
     1
175
     1
 42
1.0
 92
        8
 66
     7
 43
1.0
 76
     1
 77
     6
 78
     2
 67
     7
 79
     5
170
     0
171
     0
290
     0
174
     0
 93
        1
 44
0.0
173
     0
291
     1
 45
0.0
1001
ACAD
1000
AcDbSavedByObjectVersion
1070
     0
  0
VISUALSTYLE
  5
39
102
{ACAD_REACTORS
330
2A
102
}
102
{ACAD_XDICTIONARY
360
26D
102
}
330
2A
100
AcDbVisualStyle
  2
Facepattern
 70
    15
 71
     2
 72
     2
 73
     0
 90
        0
 40
0.6
 41
30.0
 62
     5
 63
     7
 74
     1
 91
        4
 64
     7
 65
   257
 75
     1
175
     1
 42
1.0
 92
        8
 66
     7
 43
1.0
 76
     1
 77
     6
 78
     2
 67
     7
 79
     5
170
     0
171
     0
290
     0
174
     0
 93
        1
 44
0.0
173
     0
291
     1
 45
0.0
1001
ACAD
1000
AcDbSavedByObjectVersion
1070
     0
  0
VISUALSTYLE
  5
2B
102
{ACAD_REACTORS
330
2A
102
}
102
{ACAD_XDICTIONARY
360
251
102
}
330
2A
100
AcDbVisualStyle
  2
Flat
 70
     0
 71
     2
 72
     1
 73
     1
 90
        2
 40
0.6
 41
30.0
 62
     5
 63
     7
 74
     0
 91
        0
 64
     7
 65
   257
 75
     1
175
     1
 42
1.0
 92
        8
 66
     7
 43
1.0
 76
     1
 77
     6
 78
     2
 67
     7
 79
     5
170
     0
171
     0
290
     0
174
     0
 93
       13
 44
0.0
173
     0
291
     1
 45
0.0
1001
ACAD
1000
AcDbSavedByObjectVersion
1070
     0
  0
VISUALSTYLE
  5
2C
102
{ACAD_REACTORS
330
2A
102
}
102
{ACAD_XDICTIONARY
360
253
102
}
330
2A
100
AcDbVisualStyle
  2
FlatWithEdges
 70
     1
 71
     2
 72
     1
 73
     1
 90
        2
 40
0.6
 41
30.0
 62
     5
 63
     7
 74
     1
 91
        0
 64
     7
 65
   257
 75
     1
175
     1
 42
1.0
 92
        0
 66
   257
 43
1.0
 76
     1
 77
     6
 78
     2
 67
     7
 79
     5
170
     0
171
     0
290
     0
174
     0
 93
       13
 44
0.0
173
     0
291
     1
 45
0.0
1001
ACAD
1000
AcDbSavedByObjectVersion
1070
     0
  0
VISUALSTYLE
  5
2D
102
{ACAD_REACTORS
330
2A
102
}
102
{ACAD_XDICTIONARY
360
255
102
}
330
2A
100
AcDbVisualStyle
  2
Gouraud
 70
     2
 71
     2
 72
     2
 73
     1
 90
        2
 40
0.6
 41
30.0
 62
     5
 63
     7
 74
     0
 91
        0
 64
     7
 65
   257
 75
     1
175
     1
 42
1.0
 92
        0
 66
     7
 43
1.0
 76
     1
 77
     6
 78
     2
 67
     7
 79
     5
170
     0
171
     0
290
     0
174
     0
 93
       13
 44
0.0
173
     0
291
     1
 45
0.0
1001
ACAD
1000
AcDbSavedByObjectVersion
1070
     0
  0
VISUALSTYLE
  5
2E
102
{ACAD_REACTORS
330
2A
102
}
102
{ACAD_XDICTIONARY
360
257
102
}
330
2A
100
AcDbVisualStyle
  2
GouraudWithEdges
 70
     3
 71
     2
 72
     2
 73
     1
 90
        2
 40
0.6
 41
30.0
 62
     5
 63
     7
 74
     1
 91
        0
 64
     7
 65
   257
 75
     1
175
     1
 42
1.0
 92
        0
 66
   257
 43
1.0
 76
     1
 77
     6
 78
     2
 67
     7
 79
     5
170
     0
171
     0
290
     0
174
     0
 93
       13
 44
0.0
173
     0
291
     1
 45
0.0
1001
ACAD
1000
AcDbSavedByObjectVersion
1070
     0
  0
VISUALSTYLE
  5
31
102
{ACAD_REACTORS
330
2A
102
}
102
{ACAD_XDICTIONARY
360
25D
102
}
330
2A
100
AcDbVisualStyle
  2
Hidden
 70
     6
 71
     1
 72
     2
 73
     2
 90
        0
 40
0.6
 41
30.0
 62
     5
 63
     7
 74
     2
 91
        2
 64
     7
 65
   257
 75
     2
175
     1
 42
40.0
 92
        0
 66
   257
 43
1.0
 76
     1
 77
     6
 78
     2
 67
     7
 79
     3
170
     0
171
     0
290
     0
174
     0
 93
        1
 44
0.0
173
     0
291
     0
 45
0.0
1001
ACAD
1000
AcDbSavedByObjectVersion
1070
     0
  0
VISUALSTYLE
  5
3B
102
{ACAD_REACTORS
330
2A
102
}
102
{ACAD_XDICTIONARY
360
271
102
}
330
2A
100
AcDbVisualStyle
  2
JitterOff
 70
    20
 71
     2
 72
     2
 73
     0
 90
        0
 40
0.6
 41
30.0
 62
     5
 63
     7
 74
     1
 91
        4
 64
     7
 65
   257
 75
     1
175
     1
 42
1.0
 92
       10
 66
     7
 43
1.0
 76
     1
 77
     6
 78
     2
 67
     7
 79
     5
170
     0
171
     0
290
     0
174
     0
 93
        1
 44
0.0
173
     0
291
     1
 45
0.0
1001
ACAD
1000
AcDbSavedByObjectVersion
1070
     0
  0
VISUALSTYLE
  5
38
102
{ACAD_REACTORS
330
2A
102
}
102
{ACAD_XDICTIONARY
360
26B
102
}
330
2A
100
AcDbVisualStyle
  2
Linepattern
 70
    14
 71
     2
 72
     2
 73
     0
 90
        0
 40
0.6
 41
30.0
 62
     5
 63
     7
 74
     1
 91
        4
 64
     7
 65
   257
 75
     7
175
     7
 42
1.0
 92
        8
 66
     7
 43
1.0
 76
     1
 77
     6
 78
     2
 67
     7
 79
     5
170
     0
171
     0
290
     0
174
     0
 93
        1
 44
0.0
173
     0
291
     1
 45
0.0
1001
ACAD
1000
AcDbSavedByObjectVersion
1070
     0
  0
VISUALSTYLE
  5
3C
102
{ACAD_REACTORS
330
2A
102
}
102
{ACAD_XDICTIONARY
360
273
102
}
330
2A
100
AcDbVisualStyle
  2
OverhangOff
 70
    21
 71
     2
 72
     2
 73
     0
 90
        0
 40
0.6
 41
30.0
 62
     5
 63
     7
 74
     1
 91
        4
 64
     7
 65
   257
 75
     1
175
     1
 42
1.0
 92
        9
 66
     7
 43
1.0
 76
     1
 77
     6
 78
     2
 67
     7
 79
     5
170
     0
171
     0
290
     0
174
     0
 93
        1
 44
0.0
173
     0
291
     1
 45
0.0
1001
ACAD
1000
AcDbSavedByObjectVersion
1070
     0
  0
VISUALSTYLE
  5
33
102
{ACAD_REACTORS
330
2A
102
}
102
{ACAD_XDICTIONARY
360
261
102
}
330
2A
100
AcDbVisualStyle
  2
Realistic
 70
     8
 71
     2
 72
     3
 73
     0
 90
        2
 40
0.6
 41
30.0
 62
     5
 63
     7
 74
     0
 91
        0
 64
     7
 65
   257
 75
     1
175
     1
 42
1.0
 92
        8
 66
   257
 43
1.0
 76
     1
 77
     6
 78
     2
 67
     7
 79
     3
170
     0
171
     0
290
     0
174
     0
 93
       13
 44
0.0
173
     0
291
     0
 45
0.0
1001
ACAD
1000
AcDbSavedByObjectVersion
1070
     0
  0
VISUALSTYLE
  5
42
102
{ACAD_REACTORS
330
2A
102
}
102
{ACAD_XDICTIONARY
360
27F
102
}
330
2A
100
AcDbVisualStyle
  2
Shaded
 70
    27
 71
     2
 72
     2
 73
     1
 90
        2
 40
0.6
 41
30.0
 62
     5
 63
     7
 74
     0
 91
        4
 64
     7
 65
   257
 75
     1
175
     1
 42
1.0
 92
        8
 66
   257
 43
1.0
 76
     1
 77
     6
 78
     2
 67
     8
 79
     3
170
     0
171
     0
290
     0
174
     0
 93
        5
 44
0.0
173
     0
291
     0
 45
0.0
1001
ACAD
1000
AcDbSavedByObjectVersion
1070
     0
  0
VISUALSTYLE
  5
41
102
{ACAD_REACTORS
330
2A
102
}
102
{ACAD_XDICTIONARY
360
27D
102
}
330
2A
100
AcDbVisualStyle
  2
Shaded with edges
 70
    26
 71
     2
 72
     2
 73
     1
 90
        2
 40
0.6
 41
30.0
 62
     5
 63
     7
 74
     1
 91
       10
 64
     7
 65
   257
 75
     2
175
     1
 42
1.0
 92
        8
 66
   257
 43
1.0
 76
     1
 77
     6
 78
     2
 67
     7
 79
     3
170
     0
171
     0
290
     0
174
     0
 93
        5
 44
0.0
173
     0
291
     0
 45
0.0
1001
ACAD
1000
AcDbSavedByObjectVersion
1070
     0
  0
VISUALSTYLE
  5
3E
102
{ACAD_REACTORS
330
2A
102
}
102
{ACAD_XDICTIONARY
360
277
102
}
330
2A
100
AcDbVisualStyle
  2
Shades of Gray
 70
    23
 71
     2
 72
     2
 73
     3
 90
        0
 40
0.6
 41
30.0
 62
     5
 63
     7
 74
     2
 91
        2
 64
     7
 65
     7
 75
     1
175
     1
 42
40.0
 92
        8
 66
     7
 43
1.0
 76
     1
 77
     6
 78
     2
 67
     7
 79
     3
170
     0
171
     0
290
     0
174
     0
 93
        1
 44
0.0
173
     0
291
     0
 45
0.0
1001
ACAD
1000
AcDbSavedByObjectVersion
1070
     0
  0
VISUALSTYLE
  5
3F
102
{ACAD_REACTORS
330
2A
102
}
102
{ACAD_XDICTIONARY
360
279
102
}
330
2A
100
AcDbVisualStyle
  2
Sketchy
 70
    24
 71
     1
 72
     2
 73
     2
 90
        0
 40
0.6
 41
30.0
 62
     5
 63
     7
 74
     2
 91
        2
 64
     7
 65
     7
 75
     1
175
     1
 42
40.0
 92
       11
 66
     7
 43
1.0
 76
     1
 77
     6
 78
     2
 67
     7
 79
     6
170
     0
171
     0
290
     0
174
     0
 93
        1
 44
0.0
173
     0
291
     0
 45
0.0
1001
ACAD
1000
AcDbSavedByObjectVersion
1070
     0
  0
VISUALSTYLE
  5
37
102
{ACAD_REACTORS
330
2A
102
}
102
{ACAD_XDICTIONARY
360
269
102
}
330
2A
100
AcDbVisualStyle
  2
Thicken
 70
    13
 71
     2
 72
     2
 73
     0
 90
        0
 40
0.6
 41
30.0
 62
     5
 63
     7
 74
     1
 91
        4
 64
     7
 65
   257
 75
     1
175
     1
 42
1.0
 92
       12
 66
     7
 43
1.0
 76
     1
 77
     6
 78
     2
 67
     7
 79
     5
170
     0
171
     0
290
     0
174
     0
 93
        1
 44
0.0
173
     0
291
     1
 45
0.0
1001
ACAD
1000
AcDbSavedByObjectVersion
1070
     0
  0
VISUALSTYLE
  5
30
102
{ACAD_REACTORS
330
2A
102
}
102
{ACAD_XDICTIONARY
360
25B
102
}
330
2A
100
AcDbVisualStyle
  2
Wireframe
 70
     5
 71
     0
 72
     2
 73
     0
 90
        0
 40
0.6
 41
30.0
 62
     5
 63
     7
 74
     1
 91
        4
 64
     7
 65
   257
 75
     1
175
     1
 42
1.0
 92
        0
 66
   257
 43
1.0
 76
     1
 77
     6
 78
     2
 67
     7
 79
     3
170
     0
171
     0
290
     0
174
     0
 93
        1
 44
0.0
173
     0
291
     0
 45
0.0
1001
ACAD
1000
AcDbSavedByObjectVersion
1070
     0
  0
VISUALSTYLE
  5
40
102
{ACAD_REACTORS
330
2A
102
}
102
{ACAD_XDICTIONARY
360
27B
102
}
330
2A
100
AcDbVisualStyle
  2
X-Ray
 70
    25
 71
     2
 72
     2
 73
     1
 90
        1
 40
0.5
 41
30.0
 62
     5
 63
     7
 74
     1
 91
        0
 64
     7
 65
   257
 75
     1
175
     1
 42
1.0
 92
        8
 66
     7
 43
1.0
 76
     1
 77
     6
 78
     2
 67
     7
 79
     3
170
     0
171
     0
290
     0
174
     0
 93
       13
 44
0.0
173
     0
291
     0
 45
0.0
1001
ACAD
1000
AcDbSavedByObjectVersion
1070
     0
  0
DICTIONARYVAR
  5
24F
102
{ACAD_REACTORS
330
248
102
}
330
248
100
DictionaryVariables
280
     0
  1
1:1
  0
DICTIONARYVAR
  5
24D
102
{ACAD_REACTORS
330
248
102
}
330
248
100
DictionaryVariables
280
     0
  1
2
  0
DICTIONARYVAR
  5
24E
102
{ACAD_REACTORS
330
248
102
}
330
248
100
DictionaryVariables
280
     0
  1
1
  0
DICTIONARYVAR
  5
250
102
{ACAD_REACTORS
330
248
102
}
330
248
100
DictionaryVariables
280
     0
  1
1
  0
DICTIONARY
  5
283
330
45
100
AcDbDictionary
280
     1
281
     1
  3
ACAD_XREC_ROUNDTRIP
360
284
  0
DICTIONARY
  5
281
330
44
100
AcDbDictionary
280
     1
281
     1
  3
ACAD_XREC_ROUNDTRIP
360
282
  0
DICTIONARY
  5
285
330
46
100
AcDbDictionary
280
     1
281
     1
  3
ACAD_XREC_ROUNDTRIP
360
286
  0
DICTIONARY
  5
259
330
2F
100
AcDbDictionary
280
     1
281
     1
  3
ACAD_XREC_ROUNDTRIP
360
25A
  0
DICTIONARY
  5
25F
330
32
100
AcDbDictionary
280
     1
281
     1
  3
ACAD_XREC_ROUNDTRIP
360
260
  0
DICTIONARY
  5
267
330
36
100
AcDbDictionary
280
     1
281
     1
  3
ACAD_XREC_ROUNDTRIP
360
268
  0
DICTIONARY
  5
26F
330
3A
100
AcDbDictionary
280
     1
281
     1
  3
ACAD_XREC_ROUNDTRIP
360
270
  0
DICTIONARY
  5
263
330
34
100
AcDbDictionary
280
     1
281
     1
  3
ACAD_XREC_ROUNDTRIP
360
264
  0
DICTIONARY
  5
265
330
35
100
AcDbDictionary
280
     1
281
     1
  3
ACAD_XREC_ROUNDTRIP
360
266
  0
DICTIONARY
  5
275
330
3D
100
AcDbDictionary
280
     1
281
     1
  3
ACAD_XREC_ROUNDTRIP
360
276
  0
DICTIONARY
  5
26D
330
39
100
AcDbDictionary
280
     1
281
     1
  3
ACAD_XREC_ROUNDTRIP
360
26E
  0
DICTIONARY
  5
251
330
2B
100
AcDbDictionary
280
     1
281
     1
  3
ACAD_XREC_ROUNDTRIP
360
252
  0
DICTIONARY
  5
253
330
2C
100
AcDbDictionary
280
     1
281
     1
  3
ACAD_XREC_ROUNDTRIP
360
254
  0
DICTIONARY
  5
255
330
2D
100
AcDbDictionary
280
     1
281
     1
  3
ACAD_XREC_ROUNDTRIP
360
256
  0
DICTIONARY
  5
257
330
2E
100
AcDbDictionary
280
     1
281
     1
  3
ACAD_XREC_ROUNDTRIP
360
258
  0
DICTIONARY
  5
25D
330
31
100
AcDbDictionary
280
     1
281
     1
  3
ACAD_XREC_ROUNDTRIP
360
25E
  0
DICTIONARY
  5
271
330
3B
100
AcDbDictionary
280
     1
281
     1
  3
ACAD_XREC_ROUNDTRIP
360
272
  0
DICTIONARY
  5
26B
330
38
100
AcDbDictionary
280
     1
281
     1
  3
ACAD_XREC_ROUNDTRIP
360
26C
  0
DICTIONARY
  5
273
330
3C
100
AcDbDictionary
280
     1
281
     1
  3
ACAD_XREC_ROUNDTRIP
360
274
  0
DICTIONARY
  5
261
330
33
100
AcDbDictionary
280
     1
281
     1
  3
ACAD_XREC_ROUNDTRIP
360
262
  0
DICTIONARY
  5
27F
330
42
100
AcDbDictionary
280
     1
281
     1
  3
ACAD_XREC_ROUNDTRIP
360
280
  0
DICTIONARY
  5
27D
330
41
100
AcDbDictionary
280
     1
281
     1
  3
ACAD_XREC_ROUNDTRIP
360
27E
  0
DICTIONARY
  5
277
330
3E
100
AcDbDictionary
280
     1
281
     1
  3
ACAD_XREC_ROUNDTRIP
360
278
  0
DICTIONARY
  5
279
330
3F
100
AcDbDictionary
280
     1
281
     1
  3
ACAD_XREC_ROUNDTRIP
360
27A
  0
DICTIONARY
  5
269
330
37
100
AcDbDictionary
280
     1
281
     1
  3
ACAD_XREC_ROUNDTRIP
360
26A
  0
DICTIONARY
  5
25B
330
30
100
AcDbDictionary
280
     1
281
     1
  3
ACAD_XREC_ROUNDTRIP
360
25C
  0
DICTIONARY
  5
27B
330
40
100
AcDbDictionary
280
     1
281
     1
  3
ACAD_XREC_ROUNDTRIP
360
27C
  0
XRECORD
  5
284
102
{ACAD_REACTORS
330
283
102
}
330
283
100
AcDbXrecord
280
     1
102
MATERIAL
148
0.0
149
0.0
149
0.0
 93
        0
 94
      127
282
     0
 72
     1
 77
     1
171
     1
175
     1
179
     1
273
     0
  0
XRECORD
  5
282
102
{ACAD_REACTORS
330
281
102
}
330
281
100
AcDbXrecord
280
     1
102
MATERIAL
148
0.0
149
0.0
149
0.0
 93
        0
 94
      127
282
     0
 72
     1
 77
     1
171
     1
175
     1
179
     1
273
     0
  0
XRECORD
  5
286
102
{ACAD_REACTORS
330
285
102
}
330
285
100
AcDbXrecord
280
     1
102
MATERIAL
148
0.0
149
0.0
149
0.0
 93
        0
 94
      127
282
     0
 72
     1
 77
     1
171
     1
175
     1
179
     1
273
     0
  0
XRECORD
  5
25A
102
{ACAD_REACTORS
330
259
102
}
330
259
100
AcDbXrecord
280
     1
102
RTVSPropertyOp0
 70
     1
102
RTVSPropertyOp1
 70
     1
102
RTVSPropertyOp2
 70
     1
102
RTVSPropertyOp3
 70
     1
102
RTVSPropertyOp4
 70
     1
102
RTVSPropertyOp5
 70
     1
102
RTVSPropertyOp6
 70
     1
102
RTVSPropertyOp7
 70
     1
102
RTVSPropertyOp8
 70
     1
102
RTVSPropertyOp9
 70
     1
102
RTVSPropertyOp10
 70
     1
102
RTVSPropertyOp11
 70
     1
102
RTVSPropertyOp12
 70
     1
102
RTVSPropertyOp13
 70
     1
102
RTVSPropertyOp14
 70
     1
102
RTVSPropertyOp15
 70
     1
102
RTVSPropertyOp16
 70
     1
102
RTVSPropertyOp17
 70
     1
102
RTVSPropertyOp18
 70
     1
102
RTVSPropertyOp19
 70
     1
102
RTVSPropertyOp20
 70
     1
102
RTVSPropertyOp21
 70
     1
102
RTVSPropertyOp22
 70
     1
102
RTVSPropertyOp23
 70
     1
102
RTVSPropertyOp24
 70
     1
102
RTVSPropertyOp25
 70
     1
102
RTVSPropertyOp26
 70
     1
102
RTVSPropertyOp27
 70
     1
102
RTVSPropertyOp28
 70
     1
102
RTVSPropertyOp29
 70
     1
102
RTVSPropertyOp30
 70
     1
102
RTVSPropertyOp31
 70
     1
102
RTVSPropertyOp32
 70
     1
102
RTVSPropertyOp33
 70
     1
102
RTVSPropertyOp34
 70
     1
102
RTVSPropertyOp35
 70
     1
102
RTVSPropertyOp36
 70
     1
102
RTVSPropertyOp37
 70
     1
102
RTVSPropertyOp38
 70
     1
102
RTVSPropertyOp39
 70
     1
102
RTVSPropertyOp40
 70
     1
102
RTVSPropertyOp41
 70
     1
102
RTVSPropertyOp42
 70
     1
102
RTVSPropertyOp43
 70
     1
102
RTVSPropertyOp44
 70
     1
102
RTVSPropertyOp45
 70
     1
102
RTVSPropertyOp46
 70
     1
102
RTVSPropertyOp47
 70
     1
102
RTVSPropertyOp48
 70
     1
102
RTVSPropertyOp49
 70
     1
102
RTVSPropertyOp50
 70
     1
102
RTVSPropertyOp51
 70
     0
102
RTVSPropertyOp52
 70
     0
102
RTVSPropertyOp53
 70
     1
102
RTVSPropertyOp54
 70
     1
102
RTVSPropertyOp55
 70
     1
102
RTVSPropertyOp56
 70
     1
102
RTVSPropertyOp57
 70
     1
102
RTVSPost2010Prop28
280
     1
102
RTVSPost2010PropOp28
 70
     1
102
RTVSPost2010Prop29
280
     1
102
RTVSPost2010PropOp29
 70
     1
102
RTVSPost2010Prop30
280
     0
102
RTVSPost2010PropOp30
 70
     1
102
RTVSPost2010Prop31
280
     0
102
RTVSPost2010PropOp31
 70
     1
102
RTVSPost2010Prop32
280
     0
102
RTVSPost2010PropOp32
 70
     1
102
RTVSPost2010Prop33
280
     0
102
RTVSPost2010PropOp33
 70
     1
102
RTVSPost2010Prop34
280
     0
102
RTVSPost2010PropOp34
 70
     1
102
RTVSPost2010Prop35
280
     0
102
RTVSPost2010PropOp35
 70
     1
102
RTVSPost2010Prop36
280
     0
102
RTVSPost2010PropOp36
 70
     1
102
RTVSPost2010Prop37
 90
       50
102
RTVSPost2010PropOp37
 70
     1
102
RTVSPost2010Prop38
140
0.0
102
RTVSPost2010PropOp38
 70
     1
102
RTVSPost2010Prop39
140
1.0
102
RTVSPost2010PropOp39
 70
     1
102
RTVSPost2010Prop40
 90
        0
102
RTVSPost2010PropOp40
 70
     1
102
RTVSPost2010Prop41ColorIndex
 90
       18
102
RTVSPost2010Prop41ColorRGB
 90
        0
102
RTVSPost2010PropOp41
 70
     1
102
RTVSPost2010Prop42
 90
       50
102
RTVSPost2010PropOp42
 70
     1
102
RTVSPost2010Prop43
 90
        3
102
RTVSPost2010PropOp43
 70
     1
102
RTVSPost2010Prop44ColorIndex
 90
        5
102
RTVSPost2010Prop44ColorRGB
 90
      255
102
RTVSPost2010PropOp44
 70
     1
102
RTVSPost2010Prop45
280
     0
102
RTVSPost2010PropOp45
 70
     1
102
RTVSPost2010Prop46
 90
       50
102
RTVSPost2010PropOp46
 70
     1
102
RTVSPost2010Prop47
 90
       50
102
RTVSPost2010PropOp47
 70
     1
102
RTVSPost2010Prop48
 90
       50
102
RTVSPost2010PropOp48
 70
     1
102
RTVSPost2010Prop49
280
     0
102
RTVSPost2010PropOp49
 70
     1
102
RTVSPost2010Prop50
 90
       50
102
RTVSPost2010PropOp50
 70
     1
102
RTVSPost2010Prop51ColorIndex
 90
      256
102
RTVSPost2010Prop51ColorRGB
 90
-16777216
102
RTVSPost2010PropOp51
 70
     0
102
RTVSPost2010Prop52
140
1.0
102
RTVSPost2010PropOp52
 70
     0
102
RTVSPost2010Prop53
 90
        2
102
RTVSPost2010PropOp53
 70
     1
102
RTVSPost2010Prop54
  1
strokes_ogs.tif
102
RTVSPost2010PropOp54
 70
     1
102
RTVSPost2010Prop55
280
     0
102
RTVSPost2010PropOp55
 70
     1
102
RTVSPost2010Prop56
140
1.0
102
RTVSPost2010PropOp56
 70
     1
102
RTVSPost2010Prop57
140
1.0
102
RTVSPost2010PropOp57
 70
     1
  0
XRECORD
  5
260
102
{ACAD_REACTORS
330
25F
102
}
330
25F
100
AcDbXrecord
280
     1
102
RTVSPropertyOp0
 70
     1
102
RTVSPropertyOp1
 70
     1
102
RTVSPropertyOp2
 70
     1
102
RTVSPropertyOp3
 70
     1
102
RTVSPropertyOp4
 70
     1
102
RTVSPropertyOp5
 70
     1
102
RTVSPropertyOp6
 70
     1
102
RTVSPropertyOp7
 70
     1
102
RTVSPropertyOp8
 70
     1
102
RTVSPropertyOp9
 70
     1
102
RTVSPropertyOp10
 70
     1
102
RTVSPropertyOp11
 70
     1
102
RTVSPropertyOp12
 70
     1
102
RTVSPropertyOp13
 70
     1
102
RTVSPropertyOp14
 70
     1
102
RTVSPropertyOp15
 70
     1
102
RTVSPropertyOp16
 70
     1
102
RTVSPropertyOp17
 70
     1
102
RTVSPropertyOp18
 70
     1
102
RTVSPropertyOp19
 70
     1
102
RTVSPropertyOp20
 70
     1
102
RTVSPropertyOp21
 70
     1
102
RTVSPropertyOp22
 70
     1
102
RTVSPropertyOp23
 70
     1
102
RTVSPropertyOp24
 70
     1
102
RTVSPropertyOp25
 70
     1
102
RTVSPropertyOp26
 70
     1
102
RTVSPropertyOp27
 70
     1
102
RTVSPropertyOp28
 70
     1
102
RTVSPropertyOp29
 70
     1
102
RTVSPropertyOp30
 70
     1
102
RTVSPropertyOp31
 70
     1
102
RTVSPropertyOp32
 70
     1
102
RTVSPropertyOp33
 70
     1
102
RTVSPropertyOp34
 70
     1
102
RTVSPropertyOp35
 70
     1
102
RTVSPropertyOp36
 70
     1
102
RTVSPropertyOp37
 70
     1
102
RTVSPropertyOp38
 70
     1
102
RTVSPropertyOp39
 70
     1
102
RTVSPropertyOp40
 70
     1
102
RTVSPropertyOp41
 70
     1
102
RTVSPropertyOp42
 70
     1
102
RTVSPropertyOp43
 70
     1
102
RTVSPropertyOp44
 70
     1
102
RTVSPropertyOp45
 70
     1
102
RTVSPropertyOp46
 70
     1
102
RTVSPropertyOp47
 70
     1
102
RTVSPropertyOp48
 70
     1
102
RTVSPropertyOp49
 70
     1
102
RTVSPropertyOp50
 70
     1
102
RTVSPropertyOp51
 70
     0
102
RTVSPropertyOp52
 70
     0
102
RTVSPropertyOp53
 70
     1
102
RTVSPropertyOp54
 70
     1
102
RTVSPropertyOp55
 70
     1
102
RTVSPropertyOp56
 70
     1
102
RTVSPropertyOp57
 70
     1
102
RTVSPost2010Prop28
280
     0
102
RTVSPost2010PropOp28
 70
     1
102
RTVSPost2010Prop29
280
     1
102
RTVSPost2010PropOp29
 70
     1
102
RTVSPost2010Prop30
280
     1
102
RTVSPost2010PropOp30
 70
     1
102
RTVSPost2010Prop31
280
     0
102
RTVSPost2010PropOp31
 70
     1
102
RTVSPost2010Prop32
280
     0
102
RTVSPost2010PropOp32
 70
     1
102
RTVSPost2010Prop33
280
     0
102
RTVSPost2010PropOp33
 70
     1
102
RTVSPost2010Prop34
280
     0
102
RTVSPost2010PropOp34
 70
     1
102
RTVSPost2010Prop35
280
     0
102
RTVSPost2010PropOp35
 70
     1
102
RTVSPost2010Prop36
280
     0
102
RTVSPost2010PropOp36
 70
     1
102
RTVSPost2010Prop37
 90
       50
102
RTVSPost2010PropOp37
 70
     1
102
RTVSPost2010Prop38
140
0.0
102
RTVSPost2010PropOp38
 70
     1
102
RTVSPost2010Prop39
140
1.0
102
RTVSPost2010PropOp39
 70
     1
102
RTVSPost2010Prop40
 90
        0
102
RTVSPost2010PropOp40
 70
     1
102
RTVSPost2010Prop41ColorIndex
 90
       18
102
RTVSPost2010Prop41ColorRGB
 90
        0
102
RTVSPost2010PropOp41
 70
     1
102
RTVSPost2010Prop42
 90
       50
102
RTVSPost2010PropOp42
 70
     1
102
RTVSPost2010Prop43
 90
        3
102
RTVSPost2010PropOp43
 70
     1
102
RTVSPost2010Prop44ColorIndex
 90
        5
102
RTVSPost2010Prop44ColorRGB
 90
      255
102
RTVSPost2010PropOp44
 70
     1
102
RTVSPost2010Prop45
280
     0
102
RTVSPost2010PropOp45
 70
     1
102
RTVSPost2010Prop46
 90
       50
102
RTVSPost2010PropOp46
 70
     1
102
RTVSPost2010Prop47
 90
       50
102
RTVSPost2010PropOp47
 70
     1
102
RTVSPost2010Prop48
 90
       50
102
RTVSPost2010PropOp48
 70
     1
102
RTVSPost2010Prop49
280
     0
102
RTVSPost2010PropOp49
 70
     1
102
RTVSPost2010Prop50
 90
       50
102
RTVSPost2010PropOp50
 70
     1
102
RTVSPost2010Prop51ColorIndex
 90
      256
102
RTVSPost2010Prop51ColorRGB
 90
-16777216
102
RTVSPost2010PropOp51
 70
     0
102
RTVSPost2010Prop52
140
1.0
102
RTVSPost2010PropOp52
 70
     0
102
RTVSPost2010Prop53
 90
        2
102
RTVSPost2010PropOp53
 70
     1
102
RTVSPost2010Prop54
  1
strokes_ogs.tif
102
RTVSPost2010PropOp54
 70
     1
102
RTVSPost2010Prop55
280
     0
102
RTVSPost2010PropOp55
 70
     1
102
RTVSPost2010Prop56
140
1.0
102
RTVSPost2010PropOp56
 70
     1
102
RTVSPost2010Prop57
140
1.0
102
RTVSPost2010PropOp57
 70
     1
  0
XRECORD
  5
268
102
{ACAD_REACTORS
330
267
102
}
330
267
100
AcDbXrecord
280
     1
102
RTVSPropertyOp0
 70
     1
102
RTVSPropertyOp1
 70
     1
102
RTVSPropertyOp2
 70
     1
102
RTVSPropertyOp3
 70
     1
102
RTVSPropertyOp4
 70
     1
102
RTVSPropertyOp5
 70
     1
102
RTVSPropertyOp6
 70
     1
102
RTVSPropertyOp7
 70
     1
102
RTVSPropertyOp8
 70
     1
102
RTVSPropertyOp9
 70
     1
102
RTVSPropertyOp10
 70
     1
102
RTVSPropertyOp11
 70
     1
102
RTVSPropertyOp12
 70
     1
102
RTVSPropertyOp13
 70
     1
102
RTVSPropertyOp14
 70
     1
102
RTVSPropertyOp15
 70
     1
102
RTVSPropertyOp16
 70
     1
102
RTVSPropertyOp17
 70
     1
102
RTVSPropertyOp18
 70
     1
102
RTVSPropertyOp19
 70
     1
102
RTVSPropertyOp20
 70
     1
102
RTVSPropertyOp21
 70
     1
102
RTVSPropertyOp22
 70
     1
102
RTVSPropertyOp23
 70
     1
102
RTVSPropertyOp24
 70
     1
102
RTVSPropertyOp25
 70
     1
102
RTVSPropertyOp26
 70
     1
102
RTVSPropertyOp27
 70
     1
102
RTVSPropertyOp28
 70
     1
102
RTVSPropertyOp29
 70
     1
102
RTVSPropertyOp30
 70
     1
102
RTVSPropertyOp31
 70
     1
102
RTVSPropertyOp32
 70
     1
102
RTVSPropertyOp33
 70
     1
102
RTVSPropertyOp34
 70
     1
102
RTVSPropertyOp35
 70
     1
102
RTVSPropertyOp36
 70
     1
102
RTVSPropertyOp37
 70
     1
102
RTVSPropertyOp38
 70
     1
102
RTVSPropertyOp39
 70
     1
102
RTVSPropertyOp40
 70
     1
102
RTVSPropertyOp41
 70
     1
102
RTVSPropertyOp42
 70
     1
102
RTVSPropertyOp43
 70
     1
102
RTVSPropertyOp44
 70
     1
102
RTVSPropertyOp45
 70
     1
102
RTVSPropertyOp46
 70
     1
102
RTVSPropertyOp47
 70
     1
102
RTVSPropertyOp48
 70
     1
102
RTVSPropertyOp49
 70
     1
102
RTVSPropertyOp50
 70
     1
102
RTVSPropertyOp51
 70
     0
102
RTVSPropertyOp52
 70
     0
102
RTVSPropertyOp53
 70
     1
102
RTVSPropertyOp54
 70
     1
102
RTVSPropertyOp55
 70
     1
102
RTVSPropertyOp56
 70
     1
102
RTVSPropertyOp57
 70
     1
102
RTVSPost2010Prop28
280
     0
102
RTVSPost2010PropOp28
 70
     1
102
RTVSPost2010Prop29
280
     1
102
RTVSPost2010PropOp29
 70
     1
102
RTVSPost2010Prop30
280
     1
102
RTVSPost2010PropOp30
 70
     1
102
RTVSPost2010Prop31
280
     0
102
RTVSPost2010PropOp31
 70
     1
102
RTVSPost2010Prop32
280
     0
102
RTVSPost2010PropOp32
 70
     1
102
RTVSPost2010Prop33
280
     0
102
RTVSPost2010PropOp33
 70
     1
102
RTVSPost2010Prop34
280
     0
102
RTVSPost2010PropOp34
 70
     1
102
RTVSPost2010Prop35
280
     0
102
RTVSPost2010PropOp35
 70
     1
102
RTVSPost2010Prop36
280
     0
102
RTVSPost2010PropOp36
 70
     1
102
RTVSPost2010Prop37
 90
       50
102
RTVSPost2010PropOp37
 70
     1
102
RTVSPost2010Prop38
140
0.0
102
RTVSPost2010PropOp38
 70
     1
102
RTVSPost2010Prop39
140
1.0
102
RTVSPost2010PropOp39
 70
     1
102
RTVSPost2010Prop40
 90
        0
102
RTVSPost2010PropOp40
 70
     1
102
RTVSPost2010Prop41ColorIndex
 90
       18
102
RTVSPost2010Prop41ColorRGB
 90
        0
102
RTVSPost2010PropOp41
 70
     1
102
RTVSPost2010Prop42
 90
       50
102
RTVSPost2010PropOp42
 70
     1
102
RTVSPost2010Prop43
 90
        3
102
RTVSPost2010PropOp43
 70
     1
102
RTVSPost2010Prop44ColorIndex
 90
        5
102
RTVSPost2010Prop44ColorRGB
 90
      255
102
RTVSPost2010PropOp44
 70
     1
102
RTVSPost2010Prop45
280
     0
102
RTVSPost2010PropOp45
 70
     1
102
RTVSPost2010Prop46
 90
       50
102
RTVSPost2010PropOp46
 70
     1
102
RTVSPost2010Prop47
 90
       50
102
RTVSPost2010PropOp47
 70
     1
102
RTVSPost2010Prop48
 90
       50
102
RTVSPost2010PropOp48
 70
     1
102
RTVSPost2010Prop49
280
     0
102
RTVSPost2010PropOp49
 70
     1
102
RTVSPost2010Prop50
 90
       50
102
RTVSPost2010PropOp50
 70
     1
102
RTVSPost2010Prop51ColorIndex
 90
      256
102
RTVSPost2010Prop51ColorRGB
 90
-16777216
102
RTVSPost2010PropOp51
 70
     0
102
RTVSPost2010Prop52
140
1.0
102
RTVSPost2010PropOp52
 70
     0
102
RTVSPost2010Prop53
 90
        2
102
RTVSPost2010PropOp53
 70
     1
102
RTVSPost2010Prop54
  1
strokes_ogs.tif
102
RTVSPost2010PropOp54
 70
     1
102
RTVSPost2010Prop55
280
     0
102
RTVSPost2010PropOp55
 70
     1
102
RTVSPost2010Prop56
140
1.0
102
RTVSPost2010PropOp56
 70
     1
102
RTVSPost2010Prop57
140
1.0
102
RTVSPost2010PropOp57
 70
     1
  0
XRECORD
  5
270
102
{ACAD_REACTORS
330
26F
102
}
330
26F
100
AcDbXrecord
280
     1
102
RTVSPropertyOp0
 70
     1
102
RTVSPropertyOp1
 70
     1
102
RTVSPropertyOp2
 70
     1
102
RTVSPropertyOp3
 70
     1
102
RTVSPropertyOp4
 70
     1
102
RTVSPropertyOp5
 70
     1
102
RTVSPropertyOp6
 70
     1
102
RTVSPropertyOp7
 70
     1
102
RTVSPropertyOp8
 70
     1
102
RTVSPropertyOp9
 70
     1
102
RTVSPropertyOp10
 70
     1
102
RTVSPropertyOp11
 70
     1
102
RTVSPropertyOp12
 70
     1
102
RTVSPropertyOp13
 70
     1
102
RTVSPropertyOp14
 70
     1
102
RTVSPropertyOp15
 70
     1
102
RTVSPropertyOp16
 70
     1
102
RTVSPropertyOp17
 70
     1
102
RTVSPropertyOp18
 70
     1
102
RTVSPropertyOp19
 70
     1
102
RTVSPropertyOp20
 70
     1
102
RTVSPropertyOp21
 70
     1
102
RTVSPropertyOp22
 70
     1
102
RTVSPropertyOp23
 70
     1
102
RTVSPropertyOp24
 70
     1
102
RTVSPropertyOp25
 70
     1
102
RTVSPropertyOp26
 70
     1
102
RTVSPropertyOp27
 70
     1
102
RTVSPropertyOp28
 70
     1
102
RTVSPropertyOp29
 70
     1
102
RTVSPropertyOp30
 70
     1
102
RTVSPropertyOp31
 70
     1
102
RTVSPropertyOp32
 70
     1
102
RTVSPropertyOp33
 70
     1
102
RTVSPropertyOp34
 70
     1
102
RTVSPropertyOp35
 70
     1
102
RTVSPropertyOp36
 70
     1
102
RTVSPropertyOp37
 70
     1
102
RTVSPropertyOp38
 70
     1
102
RTVSPropertyOp39
 70
     1
102
RTVSPropertyOp40
 70
     1
102
RTVSPropertyOp41
 70
     1
102
RTVSPropertyOp42
 70
     1
102
RTVSPropertyOp43
 70
     1
102
RTVSPropertyOp44
 70
     1
102
RTVSPropertyOp45
 70
     1
102
RTVSPropertyOp46
 70
     1
102
RTVSPropertyOp47
 70
     1
102
RTVSPropertyOp48
 70
     1
102
RTVSPropertyOp49
 70
     1
102
RTVSPropertyOp50
 70
     1
102
RTVSPropertyOp51
 70
     0
102
RTVSPropertyOp52
 70
     0
102
RTVSPropertyOp53
 70
     1
102
RTVSPropertyOp54
 70
     1
102
RTVSPropertyOp55
 70
     1
102
RTVSPropertyOp56
 70
     1
102
RTVSPropertyOp57
 70
     1
102
RTVSPost2010Prop28
280
     0
102
RTVSPost2010PropOp28
 70
     1
102
RTVSPost2010Prop29
280
     1
102
RTVSPost2010PropOp29
 70
     1
102
RTVSPost2010Prop30
280
     1
102
RTVSPost2010PropOp30
 70
     1
102
RTVSPost2010Prop31
280
     0
102
RTVSPost2010PropOp31
 70
     1
102
RTVSPost2010Prop32
280
     0
102
RTVSPost2010PropOp32
 70
     1
102
RTVSPost2010Prop33
280
     0
102
RTVSPost2010PropOp33
 70
     1
102
RTVSPost2010Prop34
280
     0
102
RTVSPost2010PropOp34
 70
     1
102
RTVSPost2010Prop35
280
     0
102
RTVSPost2010PropOp35
 70
     1
102
RTVSPost2010Prop36
280
     0
102
RTVSPost2010PropOp36
 70
     1
102
RTVSPost2010Prop37
 90
       50
102
RTVSPost2010PropOp37
 70
     1
102
RTVSPost2010Prop38
140
0.0
102
RTVSPost2010PropOp38
 70
     1
102
RTVSPost2010Prop39
140
1.0
102
RTVSPost2010PropOp39
 70
     1
102
RTVSPost2010Prop40
 90
        0
102
RTVSPost2010PropOp40
 70
     1
102
RTVSPost2010Prop41ColorIndex
 90
       18
102
RTVSPost2010Prop41ColorRGB
 90
        0
102
RTVSPost2010PropOp41
 70
     1
102
RTVSPost2010Prop42
 90
       50
102
RTVSPost2010PropOp42
 70
     1
102
RTVSPost2010Prop43
 90
        3
102
RTVSPost2010PropOp43
 70
     1
102
RTVSPost2010Prop44ColorIndex
 90
        5
102
RTVSPost2010Prop44ColorRGB
 90
      255
102
RTVSPost2010PropOp44
 70
     1
102
RTVSPost2010Prop45
280
     0
102
RTVSPost2010PropOp45
 70
     1
102
RTVSPost2010Prop46
 90
       50
102
RTVSPost2010PropOp46
 70
     1
102
RTVSPost2010Prop47
 90
       50
102
RTVSPost2010PropOp47
 70
     1
102
RTVSPost2010Prop48
 90
       50
102
RTVSPost2010PropOp48
 70
     1
102
RTVSPost2010Prop49
280
     0
102
RTVSPost2010PropOp49
 70
     1
102
RTVSPost2010Prop50
 90
       50
102
RTVSPost2010PropOp50
 70
     1
102
RTVSPost2010Prop51ColorIndex
 90
      256
102
RTVSPost2010Prop51ColorRGB
 90
-16777216
102
RTVSPost2010PropOp51
 70
     0
102
RTVSPost2010Prop52
140
1.0
102
RTVSPost2010PropOp52
 70
     0
102
RTVSPost2010Prop53
 90
        2
102
RTVSPost2010PropOp53
 70
     1
102
RTVSPost2010Prop54
  1
strokes_ogs.tif
102
RTVSPost2010PropOp54
 70
     1
102
RTVSPost2010Prop55
280
     0
102
RTVSPost2010PropOp55
 70
     1
102
RTVSPost2010Prop56
140
1.0
102
RTVSPost2010PropOp56
 70
     1
102
RTVSPost2010Prop57
140
1.0
102
RTVSPost2010PropOp57
 70
     1
  0
XRECORD
  5
264
102
{ACAD_REACTORS
330
263
102
}
330
263
100
AcDbXrecord
280
     1
102
RTVSPropertyOp0
 70
     1
102
RTVSPropertyOp1
 70
     1
102
RTVSPropertyOp2
 70
     1
102
RTVSPropertyOp3
 70
     1
102
RTVSPropertyOp4
 70
     1
102
RTVSPropertyOp5
 70
     1
102
RTVSPropertyOp6
 70
     1
102
RTVSPropertyOp7
 70
     1
102
RTVSPropertyOp8
 70
     1
102
RTVSPropertyOp9
 70
     1
102
RTVSPropertyOp10
 70
     1
102
RTVSPropertyOp11
 70
     1
102
RTVSPropertyOp12
 70
     1
102
RTVSPropertyOp13
 70
     1
102
RTVSPropertyOp14
 70
     1
102
RTVSPropertyOp15
 70
     1
102
RTVSPropertyOp16
 70
     1
102
RTVSPropertyOp17
 70
     1
102
RTVSPropertyOp18
 70
     1
102
RTVSPropertyOp19
 70
     1
102
RTVSPropertyOp20
 70
     1
102
RTVSPropertyOp21
 70
     1
102
RTVSPropertyOp22
 70
     1
102
RTVSPropertyOp23
 70
     1
102
RTVSPropertyOp24
 70
     1
102
RTVSPropertyOp25
 70
     1
102
RTVSPropertyOp26
 70
     1
102
RTVSPropertyOp27
 70
     1
102
RTVSPropertyOp28
 70
     1
102
RTVSPropertyOp29
 70
     1
102
RTVSPropertyOp30
 70
     1
102
RTVSPropertyOp31
 70
     1
102
RTVSPropertyOp32
 70
     1
102
RTVSPropertyOp33
 70
     1
102
RTVSPropertyOp34
 70
     1
102
RTVSPropertyOp35
 70
     1
102
RTVSPropertyOp36
 70
     1
102
RTVSPropertyOp37
 70
     1
102
RTVSPropertyOp38
 70
     1
102
RTVSPropertyOp39
 70
     1
102
RTVSPropertyOp40
 70
     1
102
RTVSPropertyOp41
 70
     1
102
RTVSPropertyOp42
 70
     1
102
RTVSPropertyOp43
 70
     1
102
RTVSPropertyOp44
 70
     1
102
RTVSPropertyOp45
 70
     1
102
RTVSPropertyOp46
 70
     1
102
RTVSPropertyOp47
 70
     1
102
RTVSPropertyOp48
 70
     1
102
RTVSPropertyOp49
 70
     1
102
RTVSPropertyOp50
 70
     1
102
RTVSPropertyOp51
 70
     0
102
RTVSPropertyOp52
 70
     0
102
RTVSPropertyOp53
 70
     1
102
RTVSPropertyOp54
 70
     1
102
RTVSPropertyOp55
 70
     1
102
RTVSPropertyOp56
 70
     1
102
RTVSPropertyOp57
 70
     1
102
RTVSPost2010Prop28
280
     0
102
RTVSPost2010PropOp28
 70
     1
102
RTVSPost2010Prop29
280
     1
102
RTVSPost2010PropOp29
 70
     1
102
RTVSPost2010Prop30
280
     1
102
RTVSPost2010PropOp30
 70
     1
102
RTVSPost2010Prop31
280
     0
102
RTVSPost2010PropOp31
 70
     1
102
RTVSPost2010Prop32
280
     0
102
RTVSPost2010PropOp32
 70
     1
102
RTVSPost2010Prop33
280
     0
102
RTVSPost2010PropOp33
 70
     1
102
RTVSPost2010Prop34
280
     0
102
RTVSPost2010PropOp34
 70
     1
102
RTVSPost2010Prop35
280
     0
102
RTVSPost2010PropOp35
 70
     1
102
RTVSPost2010Prop36
280
     0
102
RTVSPost2010PropOp36
 70
     1
102
RTVSPost2010Prop37
 90
       50
102
RTVSPost2010PropOp37
 70
     1
102
RTVSPost2010Prop38
140
0.0
102
RTVSPost2010PropOp38
 70
     1
102
RTVSPost2010Prop39
140
1.0
102
RTVSPost2010PropOp39
 70
     1
102
RTVSPost2010Prop40
 90
        0
102
RTVSPost2010PropOp40
 70
     1
102
RTVSPost2010Prop41ColorIndex
 90
       18
102
RTVSPost2010Prop41ColorRGB
 90
        0
102
RTVSPost2010PropOp41
 70
     1
102
RTVSPost2010Prop42
 90
       50
102
RTVSPost2010PropOp42
 70
     1
102
RTVSPost2010Prop43
 90
        3
102
RTVSPost2010PropOp43
 70
     1
102
RTVSPost2010Prop44ColorIndex
 90
        5
102
RTVSPost2010Prop44ColorRGB
 90
      255
102
RTVSPost2010PropOp44
 70
     1
102
RTVSPost2010Prop45
280
     0
102
RTVSPost2010PropOp45
 70
     1
102
RTVSPost2010Prop46
 90
       50
102
RTVSPost2010PropOp46
 70
     1
102
RTVSPost2010Prop47
 90
       50
102
RTVSPost2010PropOp47
 70
     1
102
RTVSPost2010Prop48
 90
       50
102
RTVSPost2010PropOp48
 70
     1
102
RTVSPost2010Prop49
280
     0
102
RTVSPost2010PropOp49
 70
     1
102
RTVSPost2010Prop50
 90
       50
102
RTVSPost2010PropOp50
 70
     1
102
RTVSPost2010Prop51ColorIndex
 90
      256
102
RTVSPost2010Prop51ColorRGB
 90
-16777216
102
RTVSPost2010PropOp51
 70
     0
102
RTVSPost2010Prop52
140
1.0
102
RTVSPost2010PropOp52
 70
     0
102
RTVSPost2010Prop53
 90
        2
102
RTVSPost2010PropOp53
 70
     1
102
RTVSPost2010Prop54
  1
strokes_ogs.tif
102
RTVSPost2010PropOp54
 70
     1
102
RTVSPost2010Prop55
280
     0
102
RTVSPost2010PropOp55
 70
     1
102
RTVSPost2010Prop56
140
1.0
102
RTVSPost2010PropOp56
 70
     1
102
RTVSPost2010Prop57
140
1.0
102
RTVSPost2010PropOp57
 70
     1
  0
XRECORD
  5
266
102
{ACAD_REACTORS
330
265
102
}
330
265
100
AcDbXrecord
280
     1
102
RTVSPropertyOp0
 70
     1
102
RTVSPropertyOp1
 70
     1
102
RTVSPropertyOp2
 70
     1
102
RTVSPropertyOp3
 70
     1
102
RTVSPropertyOp4
 70
     1
102
RTVSPropertyOp5
 70
     1
102
RTVSPropertyOp6
 70
     1
102
RTVSPropertyOp7
 70
     1
102
RTVSPropertyOp8
 70
     1
102
RTVSPropertyOp9
 70
     1
102
RTVSPropertyOp10
 70
     1
102
RTVSPropertyOp11
 70
     1
102
RTVSPropertyOp12
 70
     1
102
RTVSPropertyOp13
 70
     1
102
RTVSPropertyOp14
 70
     1
102
RTVSPropertyOp15
 70
     1
102
RTVSPropertyOp16
 70
     1
102
RTVSPropertyOp17
 70
     1
102
RTVSPropertyOp18
 70
     1
102
RTVSPropertyOp19
 70
     1
102
RTVSPropertyOp20
 70
     1
102
RTVSPropertyOp21
 70
     1
102
RTVSPropertyOp22
 70
     1
102
RTVSPropertyOp23
 70
     1
102
RTVSPropertyOp24
 70
     1
102
RTVSPropertyOp25
 70
     1
102
RTVSPropertyOp26
 70
     1
102
RTVSPropertyOp27
 70
     1
102
RTVSPropertyOp28
 70
     1
102
RTVSPropertyOp29
 70
     1
102
RTVSPropertyOp30
 70
     1
102
RTVSPropertyOp31
 70
     1
102
RTVSPropertyOp32
 70
     1
102
RTVSPropertyOp33
 70
     1
102
RTVSPropertyOp34
 70
     1
102
RTVSPropertyOp35
 70
     1
102
RTVSPropertyOp36
 70
     1
102
RTVSPropertyOp37
 70
     1
102
RTVSPropertyOp38
 70
     1
102
RTVSPropertyOp39
 70
     1
102
RTVSPropertyOp40
 70
     1
102
RTVSPropertyOp41
 70
     1
102
RTVSPropertyOp42
 70
     1
102
RTVSPropertyOp43
 70
     1
102
RTVSPropertyOp44
 70
     1
102
RTVSPropertyOp45
 70
     1
102
RTVSPropertyOp46
 70
     1
102
RTVSPropertyOp47
 70
     1
102
RTVSPropertyOp48
 70
     1
102
RTVSPropertyOp49
 70
     1
102
RTVSPropertyOp50
 70
     1
102
RTVSPropertyOp51
 70
     0
102
RTVSPropertyOp52
 70
     0
102
RTVSPropertyOp53
 70
     1
102
RTVSPropertyOp54
 70
     1
102
RTVSPropertyOp55
 70
     1
102
RTVSPropertyOp56
 70
     1
102
RTVSPropertyOp57
 70
     1
102
RTVSPost2010Prop28
280
     0
102
RTVSPost2010PropOp28
 70
     1
102
RTVSPost2010Prop29
280
     1
102
RTVSPost2010PropOp29
 70
     1
102
RTVSPost2010Prop30
280
     1
102
RTVSPost2010PropOp30
 70
     1
102
RTVSPost2010Prop31
280
     0
102
RTVSPost2010PropOp31
 70
     1
102
RTVSPost2010Prop32
280
     0
102
RTVSPost2010PropOp32
 70
     1
102
RTVSPost2010Prop33
280
     0
102
RTVSPost2010PropOp33
 70
     1
102
RTVSPost2010Prop34
280
     0
102
RTVSPost2010PropOp34
 70
     1
102
RTVSPost2010Prop35
280
     0
102
RTVSPost2010PropOp35
 70
     1
102
RTVSPost2010Prop36
280
     0
102
RTVSPost2010PropOp36
 70
     1
102
RTVSPost2010Prop37
 90
       50
102
RTVSPost2010PropOp37
 70
     1
102
RTVSPost2010Prop38
140
0.0
102
RTVSPost2010PropOp38
 70
     1
102
RTVSPost2010Prop39
140
1.0
102
RTVSPost2010PropOp39
 70
     1
102
RTVSPost2010Prop40
 90
        0
102
RTVSPost2010PropOp40
 70
     1
102
RTVSPost2010Prop41ColorIndex
 90
       18
102
RTVSPost2010Prop41ColorRGB
 90
        0
102
RTVSPost2010PropOp41
 70
     1
102
RTVSPost2010Prop42
 90
       50
102
RTVSPost2010PropOp42
 70
     1
102
RTVSPost2010Prop43
 90
        3
102
RTVSPost2010PropOp43
 70
     1
102
RTVSPost2010Prop44ColorIndex
 90
        5
102
RTVSPost2010Prop44ColorRGB
 90
      255
102
RTVSPost2010PropOp44
 70
     1
102
RTVSPost2010Prop45
280
     0
102
RTVSPost2010PropOp45
 70
     1
102
RTVSPost2010Prop46
 90
       50
102
RTVSPost2010PropOp46
 70
     1
102
RTVSPost2010Prop47
 90
       50
102
RTVSPost2010PropOp47
 70
     1
102
RTVSPost2010Prop48
 90
       50
102
RTVSPost2010PropOp48
 70
     1
102
RTVSPost2010Prop49
280
     0
102
RTVSPost2010PropOp49
 70
     1
102
RTVSPost2010Prop50
 90
       50
102
RTVSPost2010PropOp50
 70
     1
102
RTVSPost2010Prop51ColorIndex
 90
      256
102
RTVSPost2010Prop51ColorRGB
 90
-16777216
102
RTVSPost2010PropOp51
 70
     0
102
RTVSPost2010Prop52
140
1.0
102
RTVSPost2010PropOp52
 70
     0
102
RTVSPost2010Prop53
 90
        2
102
RTVSPost2010PropOp53
 70
     1
102
RTVSPost2010Prop54
  1
strokes_ogs.tif
102
RTVSPost2010PropOp54
 70
     1
102
RTVSPost2010Prop55
280
     0
102
RTVSPost2010PropOp55
 70
     1
102
RTVSPost2010Prop56
140
1.0
102
RTVSPost2010PropOp56
 70
     1
102
RTVSPost2010Prop57
140
1.0
102
RTVSPost2010PropOp57
 70
     1
  0
XRECORD
  5
276
102
{ACAD_REACTORS
330
275
102
}
330
275
100
AcDbXrecord
280
     1
102
RTVSPropertyOp0
 70
     0
102
RTVSPropertyOp1
 70
     0
102
RTVSPropertyOp2
 70
     0
102
RTVSPropertyOp3
 70
     0
102
RTVSPropertyOp4
 70
     0
102
RTVSPropertyOp5
 70
     0
102
RTVSPropertyOp6
 70
     0
102
RTVSPropertyOp7
 70
     0
102
RTVSPropertyOp8
 70
     0
102
RTVSPropertyOp9
 70
     0
102
RTVSPropertyOp10
 70
     0
102
RTVSPropertyOp11
 70
     0
102
RTVSPropertyOp12
 70
     0
102
RTVSPropertyOp13
 70
     0
102
RTVSPropertyOp14
 70
     2
102
RTVSPropertyOp15
 70
     0
102
RTVSPropertyOp16
 70
     0
102
RTVSPropertyOp17
 70
     0
102
RTVSPropertyOp18
 70
     0
102
RTVSPropertyOp19
 70
     0
102
RTVSPropertyOp20
 70
     0
102
RTVSPropertyOp21
 70
     0
102
RTVSPropertyOp22
 70
     0
102
RTVSPropertyOp23
 70
     0
102
RTVSPropertyOp24
 70
     0
102
RTVSPropertyOp25
 70
     0
102
RTVSPropertyOp26
 70
     0
102
RTVSPropertyOp27
 70
     0
102
RTVSPropertyOp28
 70
     0
102
RTVSPropertyOp29
 70
     0
102
RTVSPropertyOp30
 70
     0
102
RTVSPropertyOp31
 70
     0
102
RTVSPropertyOp32
 70
     0
102
RTVSPropertyOp33
 70
     0
102
RTVSPropertyOp34
 70
     0
102
RTVSPropertyOp35
 70
     0
102
RTVSPropertyOp36
 70
     0
102
RTVSPropertyOp37
 70
     0
102
RTVSPropertyOp38
 70
     0
102
RTVSPropertyOp39
 70
     0
102
RTVSPropertyOp40
 70
     0
102
RTVSPropertyOp41
 70
     0
102
RTVSPropertyOp42
 70
     0
102
RTVSPropertyOp43
 70
     0
102
RTVSPropertyOp44
 70
     0
102
RTVSPropertyOp45
 70
     0
102
RTVSPropertyOp46
 70
     0
102
RTVSPropertyOp47
 70
     0
102
RTVSPropertyOp48
 70
     0
102
RTVSPropertyOp49
 70
     0
102
RTVSPropertyOp50
 70
     0
102
RTVSPropertyOp51
 70
     0
102
RTVSPropertyOp52
 70
     0
102
RTVSPropertyOp53
 70
     0
102
RTVSPropertyOp54
 70
     0
102
RTVSPropertyOp55
 70
     0
102
RTVSPropertyOp56
 70
     0
102
RTVSPropertyOp57
 70
     0
102
RTVSPost2010Prop28
280
     0
102
RTVSPost2010PropOp28
 70
     0
102
RTVSPost2010Prop29
280
     1
102
RTVSPost2010PropOp29
 70
     0
102
RTVSPost2010Prop30
280
     1
102
RTVSPost2010PropOp30
 70
     0
102
RTVSPost2010Prop31
280
     0
102
RTVSPost2010PropOp31
 70
     0
102
RTVSPost2010Prop32
280
     0
102
RTVSPost2010PropOp32
 70
     0
102
RTVSPost2010Prop33
280
     0
102
RTVSPost2010PropOp33
 70
     0
102
RTVSPost2010Prop34
280
     0
102
RTVSPost2010PropOp34
 70
     0
102
RTVSPost2010Prop35
280
     0
102
RTVSPost2010PropOp35
 70
     0
102
RTVSPost2010Prop36
280
     0
102
RTVSPost2010PropOp36
 70
     0
102
RTVSPost2010Prop37
 90
       50
102
RTVSPost2010PropOp37
 70
     0
102
RTVSPost2010Prop38
140
0.0
102
RTVSPost2010PropOp38
 70
     0
102
RTVSPost2010Prop39
140
1.0
102
RTVSPost2010PropOp39
 70
     0
102
RTVSPost2010Prop40
 90
        0
102
RTVSPost2010PropOp40
 70
     0
102
RTVSPost2010Prop41ColorIndex
 90
       18
102
RTVSPost2010Prop41ColorRGB
 90
        0
102
RTVSPost2010PropOp41
 70
     0
102
RTVSPost2010Prop42
 90
       50
102
RTVSPost2010PropOp42
 70
     0
102
RTVSPost2010Prop43
 90
        3
102
RTVSPost2010PropOp43
 70
     0
102
RTVSPost2010Prop44ColorIndex
 90
        5
102
RTVSPost2010Prop44ColorRGB
 90
      255
102
RTVSPost2010PropOp44
 70
     0
102
RTVSPost2010Prop45
280
     0
102
RTVSPost2010PropOp45
 70
     0
102
RTVSPost2010Prop46
 90
       50
102
RTVSPost2010PropOp46
 70
     0
102
RTVSPost2010Prop47
 90
       50
102
RTVSPost2010PropOp47
 70
     0
102
RTVSPost2010Prop48
 90
       50
102
RTVSPost2010PropOp48
 70
     0
102
RTVSPost2010Prop49
280
     0
102
RTVSPost2010PropOp49
 70
     0
102
RTVSPost2010Prop50
 90
       50
102
RTVSPost2010PropOp50
 70
     0
102
RTVSPost2010Prop51ColorIndex
 90
      256
102
RTVSPost2010Prop51ColorRGB
 90
-16777216
102
RTVSPost2010PropOp51
 70
     0
102
RTVSPost2010Prop52
140
1.0
102
RTVSPost2010PropOp52
 70
     0
102
RTVSPost2010Prop53
 90
        2
102
RTVSPost2010PropOp53
 70
     0
102
RTVSPost2010Prop54
  1
strokes_ogs.tif
102
RTVSPost2010PropOp54
 70
     0
102
RTVSPost2010Prop55
280
     0
102
RTVSPost2010PropOp55
 70
     0
102
RTVSPost2010Prop56
140
1.0
102
RTVSPost2010PropOp56
 70
     0
102
RTVSPost2010Prop57
140
1.0
102
RTVSPost2010PropOp57
 70
     0
  0
XRECORD
  5
26E
102
{ACAD_REACTORS
330
26D
102
}
330
26D
100
AcDbXrecord
280
     1
102
RTVSPropertyOp0
 70
     1
102
RTVSPropertyOp1
 70
     1
102
RTVSPropertyOp2
 70
     1
102
RTVSPropertyOp3
 70
     1
102
RTVSPropertyOp4
 70
     1
102
RTVSPropertyOp5
 70
     1
102
RTVSPropertyOp6
 70
     1
102
RTVSPropertyOp7
 70
     1
102
RTVSPropertyOp8
 70
     1
102
RTVSPropertyOp9
 70
     1
102
RTVSPropertyOp10
 70
     1
102
RTVSPropertyOp11
 70
     1
102
RTVSPropertyOp12
 70
     1
102
RTVSPropertyOp13
 70
     1
102
RTVSPropertyOp14
 70
     1
102
RTVSPropertyOp15
 70
     1
102
RTVSPropertyOp16
 70
     1
102
RTVSPropertyOp17
 70
     1
102
RTVSPropertyOp18
 70
     1
102
RTVSPropertyOp19
 70
     1
102
RTVSPropertyOp20
 70
     1
102
RTVSPropertyOp21
 70
     1
102
RTVSPropertyOp22
 70
     1
102
RTVSPropertyOp23
 70
     1
102
RTVSPropertyOp24
 70
     1
102
RTVSPropertyOp25
 70
     1
102
RTVSPropertyOp26
 70
     1
102
RTVSPropertyOp27
 70
     1
102
RTVSPropertyOp28
 70
     1
102
RTVSPropertyOp29
 70
     1
102
RTVSPropertyOp30
 70
     1
102
RTVSPropertyOp31
 70
     1
102
RTVSPropertyOp32
 70
     1
102
RTVSPropertyOp33
 70
     1
102
RTVSPropertyOp34
 70
     1
102
RTVSPropertyOp35
 70
     1
102
RTVSPropertyOp36
 70
     1
102
RTVSPropertyOp37
 70
     1
102
RTVSPropertyOp38
 70
     1
102
RTVSPropertyOp39
 70
     1
102
RTVSPropertyOp40
 70
     1
102
RTVSPropertyOp41
 70
     1
102
RTVSPropertyOp42
 70
     1
102
RTVSPropertyOp43
 70
     1
102
RTVSPropertyOp44
 70
     1
102
RTVSPropertyOp45
 70
     1
102
RTVSPropertyOp46
 70
     1
102
RTVSPropertyOp47
 70
     1
102
RTVSPropertyOp48
 70
     1
102
RTVSPropertyOp49
 70
     1
102
RTVSPropertyOp50
 70
     1
102
RTVSPropertyOp51
 70
     0
102
RTVSPropertyOp52
 70
     0
102
RTVSPropertyOp53
 70
     1
102
RTVSPropertyOp54
 70
     1
102
RTVSPropertyOp55
 70
     1
102
RTVSPropertyOp56
 70
     1
102
RTVSPropertyOp57
 70
     1
102
RTVSPost2010Prop28
280
     0
102
RTVSPost2010PropOp28
 70
     1
102
RTVSPost2010Prop29
280
     1
102
RTVSPost2010PropOp29
 70
     1
102
RTVSPost2010Prop30
280
     1
102
RTVSPost2010PropOp30
 70
     1
102
RTVSPost2010Prop31
280
     0
102
RTVSPost2010PropOp31
 70
     1
102
RTVSPost2010Prop32
280
     0
102
RTVSPost2010PropOp32
 70
     1
102
RTVSPost2010Prop33
280
     0
102
RTVSPost2010PropOp33
 70
     1
102
RTVSPost2010Prop34
280
     0
102
RTVSPost2010PropOp34
 70
     1
102
RTVSPost2010Prop35
280
     0
102
RTVSPost2010PropOp35
 70
     1
102
RTVSPost2010Prop36
280
     0
102
RTVSPost2010PropOp36
 70
     1
102
RTVSPost2010Prop37
 90
       50
102
RTVSPost2010PropOp37
 70
     1
102
RTVSPost2010Prop38
140
0.0
102
RTVSPost2010PropOp38
 70
     1
102
RTVSPost2010Prop39
140
1.0
102
RTVSPost2010PropOp39
 70
     1
102
RTVSPost2010Prop40
 90
        0
102
RTVSPost2010PropOp40
 70
     1
102
RTVSPost2010Prop41ColorIndex
 90
       18
102
RTVSPost2010Prop41ColorRGB
 90
        0
102
RTVSPost2010PropOp41
 70
     1
102
RTVSPost2010Prop42
 90
       50
102
RTVSPost2010PropOp42
 70
     1
102
RTVSPost2010Prop43
 90
        3
102
RTVSPost2010PropOp43
 70
     1
102
RTVSPost2010Prop44ColorIndex
 90
        5
102
RTVSPost2010Prop44ColorRGB
 90
      255
102
RTVSPost2010PropOp44
 70
     1
102
RTVSPost2010Prop45
280
     0
102
RTVSPost2010PropOp45
 70
     1
102
RTVSPost2010Prop46
 90
       50
102
RTVSPost2010PropOp46
 70
     1
102
RTVSPost2010Prop47
 90
       50
102
RTVSPost2010PropOp47
 70
     1
102
RTVSPost2010Prop48
 90
       50
102
RTVSPost2010PropOp48
 70
     1
102
RTVSPost2010Prop49
280
     0
102
RTVSPost2010PropOp49
 70
     1
102
RTVSPost2010Prop50
 90
       50
102
RTVSPost2010PropOp50
 70
     1
102
RTVSPost2010Prop51ColorIndex
 90
      256
102
RTVSPost2010Prop51ColorRGB
 90
-16777216
102
RTVSPost2010PropOp51
 70
     0
102
RTVSPost2010Prop52
140
1.0
102
RTVSPost2010PropOp52
 70
     0
102
RTVSPost2010Prop53
 90
        2
102
RTVSPost2010PropOp53
 70
     1
102
RTVSPost2010Prop54
  1
strokes_ogs.tif
102
RTVSPost2010PropOp54
 70
     1
102
RTVSPost2010Prop55
280
     0
102
RTVSPost2010PropOp55
 70
     1
102
RTVSPost2010Prop56
140
1.0
102
RTVSPost2010PropOp56
 70
     1
102
RTVSPost2010Prop57
140
1.0
102
RTVSPost2010PropOp57
 70
     1
  0
XRECORD
  5
252
102
{ACAD_REACTORS
330
251
102
}
330
251
100
AcDbXrecord
280
     1
102
RTVSPropertyOp0
 70
     1
102
RTVSPropertyOp1
 70
     1
102
RTVSPropertyOp2
 70
     1
102
RTVSPropertyOp3
 70
     1
102
RTVSPropertyOp4
 70
     1
102
RTVSPropertyOp5
 70
     1
102
RTVSPropertyOp6
 70
     1
102
RTVSPropertyOp7
 70
     1
102
RTVSPropertyOp8
 70
     1
102
RTVSPropertyOp9
 70
     1
102
RTVSPropertyOp10
 70
     1
102
RTVSPropertyOp11
 70
     1
102
RTVSPropertyOp12
 70
     1
102
RTVSPropertyOp13
 70
     1
102
RTVSPropertyOp14
 70
     1
102
RTVSPropertyOp15
 70
     1
102
RTVSPropertyOp16
 70
     1
102
RTVSPropertyOp17
 70
     1
102
RTVSPropertyOp18
 70
     1
102
RTVSPropertyOp19
 70
     1
102
RTVSPropertyOp20
 70
     1
102
RTVSPropertyOp21
 70
     1
102
RTVSPropertyOp22
 70
     1
102
RTVSPropertyOp23
 70
     1
102
RTVSPropertyOp24
 70
     1
102
RTVSPropertyOp25
 70
     1
102
RTVSPropertyOp26
 70
     1
102
RTVSPropertyOp27
 70
     1
102
RTVSPropertyOp28
 70
     1
102
RTVSPropertyOp29
 70
     1
102
RTVSPropertyOp30
 70
     1
102
RTVSPropertyOp31
 70
     1
102
RTVSPropertyOp32
 70
     1
102
RTVSPropertyOp33
 70
     1
102
RTVSPropertyOp34
 70
     1
102
RTVSPropertyOp35
 70
     1
102
RTVSPropertyOp36
 70
     1
102
RTVSPropertyOp37
 70
     1
102
RTVSPropertyOp38
 70
     1
102
RTVSPropertyOp39
 70
     1
102
RTVSPropertyOp40
 70
     1
102
RTVSPropertyOp41
 70
     1
102
RTVSPropertyOp42
 70
     1
102
RTVSPropertyOp43
 70
     1
102
RTVSPropertyOp44
 70
     1
102
RTVSPropertyOp45
 70
     1
102
RTVSPropertyOp46
 70
     1
102
RTVSPropertyOp47
 70
     1
102
RTVSPropertyOp48
 70
     1
102
RTVSPropertyOp49
 70
     1
102
RTVSPropertyOp50
 70
     1
102
RTVSPropertyOp51
 70
     0
102
RTVSPropertyOp52
 70
     0
102
RTVSPropertyOp53
 70
     1
102
RTVSPropertyOp54
 70
     1
102
RTVSPropertyOp55
 70
     1
102
RTVSPropertyOp56
 70
     1
102
RTVSPropertyOp57
 70
     1
102
RTVSPost2010Prop28
280
     0
102
RTVSPost2010PropOp28
 70
     1
102
RTVSPost2010Prop29
280
     1
102
RTVSPost2010PropOp29
 70
     1
102
RTVSPost2010Prop30
280
     1
102
RTVSPost2010PropOp30
 70
     1
102
RTVSPost2010Prop31
280
     0
102
RTVSPost2010PropOp31
 70
     1
102
RTVSPost2010Prop32
280
     0
102
RTVSPost2010PropOp32
 70
     1
102
RTVSPost2010Prop33
280
     0
102
RTVSPost2010PropOp33
 70
     1
102
RTVSPost2010Prop34
280
     0
102
RTVSPost2010PropOp34
 70
     1
102
RTVSPost2010Prop35
280
     0
102
RTVSPost2010PropOp35
 70
     1
102
RTVSPost2010Prop36
280
     0
102
RTVSPost2010PropOp36
 70
     1
102
RTVSPost2010Prop37
 90
       50
102
RTVSPost2010PropOp37
 70
     1
102
RTVSPost2010Prop38
140
0.0
102
RTVSPost2010PropOp38
 70
     1
102
RTVSPost2010Prop39
140
1.0
102
RTVSPost2010PropOp39
 70
     1
102
RTVSPost2010Prop40
 90
        0
102
RTVSPost2010PropOp40
 70
     1
102
RTVSPost2010Prop41ColorIndex
 90
       18
102
RTVSPost2010Prop41ColorRGB
 90
        0
102
RTVSPost2010PropOp41
 70
     1
102
RTVSPost2010Prop42
 90
       50
102
RTVSPost2010PropOp42
 70
     1
102
RTVSPost2010Prop43
 90
        3
102
RTVSPost2010PropOp43
 70
     1
102
RTVSPost2010Prop44ColorIndex
 90
        5
102
RTVSPost2010Prop44ColorRGB
 90
      255
102
RTVSPost2010PropOp44
 70
     1
102
RTVSPost2010Prop45
280
     0
102
RTVSPost2010PropOp45
 70
     1
102
RTVSPost2010Prop46
 90
       50
102
RTVSPost2010PropOp46
 70
     1
102
RTVSPost2010Prop47
 90
       50
102
RTVSPost2010PropOp47
 70
     1
102
RTVSPost2010Prop48
 90
       50
102
RTVSPost2010PropOp48
 70
     1
102
RTVSPost2010Prop49
280
     0
102
RTVSPost2010PropOp49
 70
     1
102
RTVSPost2010Prop50
 90
       50
102
RTVSPost2010PropOp50
 70
     1
102
RTVSPost2010Prop51ColorIndex
 90
      256
102
RTVSPost2010Prop51ColorRGB
 90
-16777216
102
RTVSPost2010PropOp51
 70
     0
102
RTVSPost2010Prop52
140
1.0
102
RTVSPost2010PropOp52
 70
     0
102
RTVSPost2010Prop53
 90
        2
102
RTVSPost2010PropOp53
 70
     1
102
RTVSPost2010Prop54
  1
strokes_ogs.tif
102
RTVSPost2010PropOp54
 70
     1
102
RTVSPost2010Prop55
280
     0
102
RTVSPost2010PropOp55
 70
     1
102
RTVSPost2010Prop56
140
1.0
102
RTVSPost2010PropOp56
 70
     1
102
RTVSPost2010Prop57
140
1.0
102
RTVSPost2010PropOp57
 70
     1
  0
XRECORD
  5
254
102
{ACAD_REACTORS
330
253
102
}
330
253
100
AcDbXrecord
280
     1
102
RTVSPropertyOp0
 70
     1
102
RTVSPropertyOp1
 70
     1
102
RTVSPropertyOp2
 70
     1
102
RTVSPropertyOp3
 70
     1
102
RTVSPropertyOp4
 70
     1
102
RTVSPropertyOp5
 70
     1
102
RTVSPropertyOp6
 70
     1
102
RTVSPropertyOp7
 70
     1
102
RTVSPropertyOp8
 70
     1
102
RTVSPropertyOp9
 70
     1
102
RTVSPropertyOp10
 70
     1
102
RTVSPropertyOp11
 70
     1
102
RTVSPropertyOp12
 70
     1
102
RTVSPropertyOp13
 70
     1
102
RTVSPropertyOp14
 70
     1
102
RTVSPropertyOp15
 70
     1
102
RTVSPropertyOp16
 70
     1
102
RTVSPropertyOp17
 70
     1
102
RTVSPropertyOp18
 70
     1
102
RTVSPropertyOp19
 70
     1
102
RTVSPropertyOp20
 70
     1
102
RTVSPropertyOp21
 70
     1
102
RTVSPropertyOp22
 70
     1
102
RTVSPropertyOp23
 70
     1
102
RTVSPropertyOp24
 70
     1
102
RTVSPropertyOp25
 70
     1
102
RTVSPropertyOp26
 70
     1
102
RTVSPropertyOp27
 70
     1
102
RTVSPropertyOp28
 70
     1
102
RTVSPropertyOp29
 70
     1
102
RTVSPropertyOp30
 70
     1
102
RTVSPropertyOp31
 70
     1
102
RTVSPropertyOp32
 70
     1
102
RTVSPropertyOp33
 70
     1
102
RTVSPropertyOp34
 70
     1
102
RTVSPropertyOp35
 70
     1
102
RTVSPropertyOp36
 70
     1
102
RTVSPropertyOp37
 70
     1
102
RTVSPropertyOp38
 70
     1
102
RTVSPropertyOp39
 70
     1
102
RTVSPropertyOp40
 70
     1
102
RTVSPropertyOp41
 70
     1
102
RTVSPropertyOp42
 70
     1
102
RTVSPropertyOp43
 70
     1
102
RTVSPropertyOp44
 70
     1
102
RTVSPropertyOp45
 70
     1
102
RTVSPropertyOp46
 70
     1
102
RTVSPropertyOp47
 70
     1
102
RTVSPropertyOp48
 70
     1
102
RTVSPropertyOp49
 70
     1
102
RTVSPropertyOp50
 70
     1
102
RTVSPropertyOp51
 70
     0
102
RTVSPropertyOp52
 70
     0
102
RTVSPropertyOp53
 70
     1
102
RTVSPropertyOp54
 70
     1
102
RTVSPropertyOp55
 70
     1
102
RTVSPropertyOp56
 70
     1
102
RTVSPropertyOp57
 70
     1
102
RTVSPost2010Prop28
280
     0
102
RTVSPost2010PropOp28
 70
     1
102
RTVSPost2010Prop29
280
     1
102
RTVSPost2010PropOp29
 70
     1
102
RTVSPost2010Prop30
280
     1
102
RTVSPost2010PropOp30
 70
     1
102
RTVSPost2010Prop31
280
     0
102
RTVSPost2010PropOp31
 70
     1
102
RTVSPost2010Prop32
280
     0
102
RTVSPost2010PropOp32
 70
     1
102
RTVSPost2010Prop33
280
     0
102
RTVSPost2010PropOp33
 70
     1
102
RTVSPost2010Prop34
280
     0
102
RTVSPost2010PropOp34
 70
     1
102
RTVSPost2010Prop35
280
     0
102
RTVSPost2010PropOp35
 70
     1
102
RTVSPost2010Prop36
280
     0
102
RTVSPost2010PropOp36
 70
     1
102
RTVSPost2010Prop37
 90
       50
102
RTVSPost2010PropOp37
 70
     1
102
RTVSPost2010Prop38
140
0.0
102
RTVSPost2010PropOp38
 70
     1
102
RTVSPost2010Prop39
140
1.0
102
RTVSPost2010PropOp39
 70
     1
102
RTVSPost2010Prop40
 90
        0
102
RTVSPost2010PropOp40
 70
     1
102
RTVSPost2010Prop41ColorIndex
 90
       18
102
RTVSPost2010Prop41ColorRGB
 90
        0
102
RTVSPost2010PropOp41
 70
     1
102
RTVSPost2010Prop42
 90
       50
102
RTVSPost2010PropOp42
 70
     1
102
RTVSPost2010Prop43
 90
        3
102
RTVSPost2010PropOp43
 70
     1
102
RTVSPost2010Prop44ColorIndex
 90
        5
102
RTVSPost2010Prop44ColorRGB
 90
      255
102
RTVSPost2010PropOp44
 70
     1
102
RTVSPost2010Prop45
280
     0
102
RTVSPost2010PropOp45
 70
     1
102
RTVSPost2010Prop46
 90
       50
102
RTVSPost2010PropOp46
 70
     1
102
RTVSPost2010Prop47
 90
       50
102
RTVSPost2010PropOp47
 70
     1
102
RTVSPost2010Prop48
 90
       50
102
RTVSPost2010PropOp48
 70
     1
102
RTVSPost2010Prop49
280
     0
102
RTVSPost2010PropOp49
 70
     1
102
RTVSPost2010Prop50
 90
       50
102
RTVSPost2010PropOp50
 70
     1
102
RTVSPost2010Prop51ColorIndex
 90
      256
102
RTVSPost2010Prop51ColorRGB
 90
-16777216
102
RTVSPost2010PropOp51
 70
     0
102
RTVSPost2010Prop52
140
1.0
102
RTVSPost2010PropOp52
 70
     0
102
RTVSPost2010Prop53
 90
        2
102
RTVSPost2010PropOp53
 70
     1
102
RTVSPost2010Prop54
  1
strokes_ogs.tif
102
RTVSPost2010PropOp54
 70
     1
102
RTVSPost2010Prop55
280
     0
102
RTVSPost2010PropOp55
 70
     1
102
RTVSPost2010Prop56
140
1.0
102
RTVSPost2010PropOp56
 70
     1
102
RTVSPost2010Prop57
140
1.0
102
RTVSPost2010PropOp57
 70
     1
  0
XRECORD
  5
256
102
{ACAD_REACTORS
330
255
102
}
330
255
100
AcDbXrecord
280
     1
102
RTVSPropertyOp0
 70
     1
102
RTVSPropertyOp1
 70
     1
102
RTVSPropertyOp2
 70
     1
102
RTVSPropertyOp3
 70
     1
102
RTVSPropertyOp4
 70
     1
102
RTVSPropertyOp5
 70
     1
102
RTVSPropertyOp6
 70
     1
102
RTVSPropertyOp7
 70
     1
102
RTVSPropertyOp8
 70
     1
102
RTVSPropertyOp9
 70
     1
102
RTVSPropertyOp10
 70
     1
102
RTVSPropertyOp11
 70
     1
102
RTVSPropertyOp12
 70
     1
102
RTVSPropertyOp13
 70
     1
102
RTVSPropertyOp14
 70
     1
102
RTVSPropertyOp15
 70
     1
102
RTVSPropertyOp16
 70
     1
102
RTVSPropertyOp17
 70
     1
102
RTVSPropertyOp18
 70
     1
102
RTVSPropertyOp19
 70
     1
102
RTVSPropertyOp20
 70
     1
102
RTVSPropertyOp21
 70
     1
102
RTVSPropertyOp22
 70
     1
102
RTVSPropertyOp23
 70
     1
102
RTVSPropertyOp24
 70
     1
102
RTVSPropertyOp25
 70
     1
102
RTVSPropertyOp26
 70
     1
102
RTVSPropertyOp27
 70
     1
102
RTVSPropertyOp28
 70
     1
102
RTVSPropertyOp29
 70
     1
102
RTVSPropertyOp30
 70
     1
102
RTVSPropertyOp31
 70
     1
102
RTVSPropertyOp32
 70
     1
102
RTVSPropertyOp33
 70
     1
102
RTVSPropertyOp34
 70
     1
102
RTVSPropertyOp35
 70
     1
102
RTVSPropertyOp36
 70
     1
102
RTVSPropertyOp37
 70
     1
102
RTVSPropertyOp38
 70
     1
102
RTVSPropertyOp39
 70
     1
102
RTVSPropertyOp40
 70
     1
102
RTVSPropertyOp41
 70
     1
102
RTVSPropertyOp42
 70
     1
102
RTVSPropertyOp43
 70
     1
102
RTVSPropertyOp44
 70
     1
102
RTVSPropertyOp45
 70
     1
102
RTVSPropertyOp46
 70
     1
102
RTVSPropertyOp47
 70
     1
102
RTVSPropertyOp48
 70
     1
102
RTVSPropertyOp49
 70
     1
102
RTVSPropertyOp50
 70
     1
102
RTVSPropertyOp51
 70
     0
102
RTVSPropertyOp52
 70
     0
102
RTVSPropertyOp53
 70
     1
102
RTVSPropertyOp54
 70
     1
102
RTVSPropertyOp55
 70
     1
102
RTVSPropertyOp56
 70
     1
102
RTVSPropertyOp57
 70
     1
102
RTVSPost2010Prop28
280
     0
102
RTVSPost2010PropOp28
 70
     1
102
RTVSPost2010Prop29
280
     1
102
RTVSPost2010PropOp29
 70
     1
102
RTVSPost2010Prop30
280
     1
102
RTVSPost2010PropOp30
 70
     1
102
RTVSPost2010Prop31
280
     0
102
RTVSPost2010PropOp31
 70
     1
102
RTVSPost2010Prop32
280
     0
102
RTVSPost2010PropOp32
 70
     1
102
RTVSPost2010Prop33
280
     0
102
RTVSPost2010PropOp33
 70
     1
102
RTVSPost2010Prop34
280
     0
102
RTVSPost2010PropOp34
 70
     1
102
RTVSPost2010Prop35
280
     0
102
RTVSPost2010PropOp35
 70
     1
102
RTVSPost2010Prop36
280
     0
102
RTVSPost2010PropOp36
 70
     1
102
RTVSPost2010Prop37
 90
       50
102
RTVSPost2010PropOp37
 70
     1
102
RTVSPost2010Prop38
140
0.0
102
RTVSPost2010PropOp38
 70
     1
102
RTVSPost2010Prop39
140
1.0
102
RTVSPost2010PropOp39
 70
     1
102
RTVSPost2010Prop40
 90
        0
102
RTVSPost2010PropOp40
 70
     1
102
RTVSPost2010Prop41ColorIndex
 90
       18
102
RTVSPost2010Prop41ColorRGB
 90
        0
102
RTVSPost2010PropOp41
 70
     1
102
RTVSPost2010Prop42
 90
       50
102
RTVSPost2010PropOp42
 70
     1
102
RTVSPost2010Prop43
 90
        3
102
RTVSPost2010PropOp43
 70
     1
102
RTVSPost2010Prop44ColorIndex
 90
        5
102
RTVSPost2010Prop44ColorRGB
 90
      255
102
RTVSPost2010PropOp44
 70
     1
102
RTVSPost2010Prop45
280
     0
102
RTVSPost2010PropOp45
 70
     1
102
RTVSPost2010Prop46
 90
       50
102
RTVSPost2010PropOp46
 70
     1
102
RTVSPost2010Prop47
 90
       50
102
RTVSPost2010PropOp47
 70
     1
102
RTVSPost2010Prop48
 90
       50
102
RTVSPost2010PropOp48
 70
     1
102
RTVSPost2010Prop49
280
     0
102
RTVSPost2010PropOp49
 70
     1
102
RTVSPost2010Prop50
 90
       50
102
RTVSPost2010PropOp50
 70
     1
102
RTVSPost2010Prop51ColorIndex
 90
      256
102
RTVSPost2010Prop51ColorRGB
 90
-16777216
102
RTVSPost2010PropOp51
 70
     0
102
RTVSPost2010Prop52
140
1.0
102
RTVSPost2010PropOp52
 70
     0
102
RTVSPost2010Prop53
 90
        2
102
RTVSPost2010PropOp53
 70
     1
102
RTVSPost2010Prop54
  1
strokes_ogs.tif
102
RTVSPost2010PropOp54
 70
     1
102
RTVSPost2010Prop55
280
     0
102
RTVSPost2010PropOp55
 70
     1
102
RTVSPost2010Prop56
140
1.0
102
RTVSPost2010PropOp56
 70
     1
102
RTVSPost2010Prop57
140
1.0
102
RTVSPost2010PropOp57
 70
     1
  0
XRECORD
  5
258
102
{ACAD_REACTORS
330
257
102
}
330
257
100
AcDbXrecord
280
     1
102
RTVSPropertyOp0
 70
     1
102
RTVSPropertyOp1
 70
     1
102
RTVSPropertyOp2
 70
     1
102
RTVSPropertyOp3
 70
     1
102
RTVSPropertyOp4
 70
     1
102
RTVSPropertyOp5
 70
     1
102
RTVSPropertyOp6
 70
     1
102
RTVSPropertyOp7
 70
     1
102
RTVSPropertyOp8
 70
     1
102
RTVSPropertyOp9
 70
     1
102
RTVSPropertyOp10
 70
     1
102
RTVSPropertyOp11
 70
     1
102
RTVSPropertyOp12
 70
     1
102
RTVSPropertyOp13
 70
     1
102
RTVSPropertyOp14
 70
     1
102
RTVSPropertyOp15
 70
     1
102
RTVSPropertyOp16
 70
     1
102
RTVSPropertyOp17
 70
     1
102
RTVSPropertyOp18
 70
     1
102
RTVSPropertyOp19
 70
     1
102
RTVSPropertyOp20
 70
     1
102
RTVSPropertyOp21
 70
     1
102
RTVSPropertyOp22
 70
     1
102
RTVSPropertyOp23
 70
     1
102
RTVSPropertyOp24
 70
     1
102
RTVSPropertyOp25
 70
     1
102
RTVSPropertyOp26
 70
     1
102
RTVSPropertyOp27
 70
     1
102
RTVSPropertyOp28
 70
     1
102
RTVSPropertyOp29
 70
     1
102
RTVSPropertyOp30
 70
     1
102
RTVSPropertyOp31
 70
     1
102
RTVSPropertyOp32
 70
     1
102
RTVSPropertyOp33
 70
     1
102
RTVSPropertyOp34
 70
     1
102
RTVSPropertyOp35
 70
     1
102
RTVSPropertyOp36
 70
     1
102
RTVSPropertyOp37
 70
     1
102
RTVSPropertyOp38
 70
     1
102
RTVSPropertyOp39
 70
     1
102
RTVSPropertyOp40
 70
     1
102
RTVSPropertyOp41
 70
     1
102
RTVSPropertyOp42
 70
     1
102
RTVSPropertyOp43
 70
     1
102
RTVSPropertyOp44
 70
     1
102
RTVSPropertyOp45
 70
     1
102
RTVSPropertyOp46
 70
     1
102
RTVSPropertyOp47
 70
     1
102
RTVSPropertyOp48
 70
     1
102
RTVSPropertyOp49
 70
     1
102
RTVSPropertyOp50
 70
     1
102
RTVSPropertyOp51
 70
     0
102
RTVSPropertyOp52
 70
     0
102
RTVSPropertyOp53
 70
     1
102
RTVSPropertyOp54
 70
     1
102
RTVSPropertyOp55
 70
     1
102
RTVSPropertyOp56
 70
     1
102
RTVSPropertyOp57
 70
     1
102
RTVSPost2010Prop28
280
     0
102
RTVSPost2010PropOp28
 70
     1
102
RTVSPost2010Prop29
280
     1
102
RTVSPost2010PropOp29
 70
     1
102
RTVSPost2010Prop30
280
     1
102
RTVSPost2010PropOp30
 70
     1
102
RTVSPost2010Prop31
280
     0
102
RTVSPost2010PropOp31
 70
     1
102
RTVSPost2010Prop32
280
     0
102
RTVSPost2010PropOp32
 70
     1
102
RTVSPost2010Prop33
280
     0
102
RTVSPost2010PropOp33
 70
     1
102
RTVSPost2010Prop34
280
     0
102
RTVSPost2010PropOp34
 70
     1
102
RTVSPost2010Prop35
280
     0
102
RTVSPost2010PropOp35
 70
     1
102
RTVSPost2010Prop36
280
     0
102
RTVSPost2010PropOp36
 70
     1
102
RTVSPost2010Prop37
 90
       50
102
RTVSPost2010PropOp37
 70
     1
102
RTVSPost2010Prop38
140
0.0
102
RTVSPost2010PropOp38
 70
     1
102
RTVSPost2010Prop39
140
1.0
102
RTVSPost2010PropOp39
 70
     1
102
RTVSPost2010Prop40
 90
        0
102
RTVSPost2010PropOp40
 70
     1
102
RTVSPost2010Prop41ColorIndex
 90
       18
102
RTVSPost2010Prop41ColorRGB
 90
        0
102
RTVSPost2010PropOp41
 70
     1
102
RTVSPost2010Prop42
 90
       50
102
RTVSPost2010PropOp42
 70
     1
102
RTVSPost2010Prop43
 90
        3
102
RTVSPost2010PropOp43
 70
     1
102
RTVSPost2010Prop44ColorIndex
 90
        5
102
RTVSPost2010Prop44ColorRGB
 90
      255
102
RTVSPost2010PropOp44
 70
     1
102
RTVSPost2010Prop45
280
     0
102
RTVSPost2010PropOp45
 70
     1
102
RTVSPost2010Prop46
 90
       50
102
RTVSPost2010PropOp46
 70
     1
102
RTVSPost2010Prop47
 90
       50
102
RTVSPost2010PropOp47
 70
     1
102
RTVSPost2010Prop48
 90
       50
102
RTVSPost2010PropOp48
 70
     1
102
RTVSPost2010Prop49
280
     0
102
RTVSPost2010PropOp49
 70
     1
102
RTVSPost2010Prop50
 90
       50
102
RTVSPost2010PropOp50
 70
     1
102
RTVSPost2010Prop51ColorIndex
 90
      256
102
RTVSPost2010Prop51ColorRGB
 90
-16777216
102
RTVSPost2010PropOp51
 70
     0
102
RTVSPost2010Prop52
140
1.0
102
RTVSPost2010PropOp52
 70
     0
102
RTVSPost2010Prop53
 90
        2
102
RTVSPost2010PropOp53
 70
     1
102
RTVSPost2010Prop54
  1
strokes_ogs.tif
102
RTVSPost2010PropOp54
 70
     1
102
RTVSPost2010Prop55
280
     0
102
RTVSPost2010PropOp55
 70
     1
102
RTVSPost2010Prop56
140
1.0
102
RTVSPost2010PropOp56
 70
     1
102
RTVSPost2010Prop57
140
1.0
102
RTVSPost2010PropOp57
 70
     1
  0
XRECORD
  5
25E
102
{ACAD_REACTORS
330
25D
102
}
330
25D
100
AcDbXrecord
280
     1
102
RTVSPropertyOp0
 70
     1
102
RTVSPropertyOp1
 70
     1
102
RTVSPropertyOp2
 70
     1
102
RTVSPropertyOp3
 70
     1
102
RTVSPropertyOp4
 70
     1
102
RTVSPropertyOp5
 70
     1
102
RTVSPropertyOp6
 70
     1
102
RTVSPropertyOp7
 70
     1
102
RTVSPropertyOp8
 70
     1
102
RTVSPropertyOp9
 70
     1
102
RTVSPropertyOp10
 70
     1
102
RTVSPropertyOp11
 70
     1
102
RTVSPropertyOp12
 70
     1
102
RTVSPropertyOp13
 70
     1
102
RTVSPropertyOp14
 70
     1
102
RTVSPropertyOp15
 70
     1
102
RTVSPropertyOp16
 70
     1
102
RTVSPropertyOp17
 70
     1
102
RTVSPropertyOp18
 70
     1
102
RTVSPropertyOp19
 70
     1
102
RTVSPropertyOp20
 70
     1
102
RTVSPropertyOp21
 70
     1
102
RTVSPropertyOp22
 70
     1
102
RTVSPropertyOp23
 70
     1
102
RTVSPropertyOp24
 70
     1
102
RTVSPropertyOp25
 70
     1
102
RTVSPropertyOp26
 70
     1
102
RTVSPropertyOp27
 70
     1
102
RTVSPropertyOp28
 70
     1
102
RTVSPropertyOp29
 70
     1
102
RTVSPropertyOp30
 70
     1
102
RTVSPropertyOp31
 70
     1
102
RTVSPropertyOp32
 70
     1
102
RTVSPropertyOp33
 70
     1
102
RTVSPropertyOp34
 70
     1
102
RTVSPropertyOp35
 70
     1
102
RTVSPropertyOp36
 70
     1
102
RTVSPropertyOp37
 70
     1
102
RTVSPropertyOp38
 70
     1
102
RTVSPropertyOp39
 70
     1
102
RTVSPropertyOp40
 70
     1
102
RTVSPropertyOp41
 70
     1
102
RTVSPropertyOp42
 70
     1
102
RTVSPropertyOp43
 70
     1
102
RTVSPropertyOp44
 70
     1
102
RTVSPropertyOp45
 70
     1
102
RTVSPropertyOp46
 70
     1
102
RTVSPropertyOp47
 70
     1
102
RTVSPropertyOp48
 70
     1
102
RTVSPropertyOp49
 70
     1
102
RTVSPropertyOp50
 70
     1
102
RTVSPropertyOp51
 70
     0
102
RTVSPropertyOp52
 70
     0
102
RTVSPropertyOp53
 70
     1
102
RTVSPropertyOp54
 70
     1
102
RTVSPropertyOp55
 70
     1
102
RTVSPropertyOp56
 70
     1
102
RTVSPropertyOp57
 70
     1
102
RTVSPost2010Prop28
280
     0
102
RTVSPost2010PropOp28
 70
     1
102
RTVSPost2010Prop29
280
     1
102
RTVSPost2010PropOp29
 70
     1
102
RTVSPost2010Prop30
280
     1
102
RTVSPost2010PropOp30
 70
     1
102
RTVSPost2010Prop31
280
     0
102
RTVSPost2010PropOp31
 70
     1
102
RTVSPost2010Prop32
280
     0
102
RTVSPost2010PropOp32
 70
     1
102
RTVSPost2010Prop33
280
     0
102
RTVSPost2010PropOp33
 70
     1
102
RTVSPost2010Prop34
280
     0
102
RTVSPost2010PropOp34
 70
     1
102
RTVSPost2010Prop35
280
     0
102
RTVSPost2010PropOp35
 70
     1
102
RTVSPost2010Prop36
280
     0
102
RTVSPost2010PropOp36
 70
     1
102
RTVSPost2010Prop37
 90
       50
102
RTVSPost2010PropOp37
 70
     1
102
RTVSPost2010Prop38
140
0.0
102
RTVSPost2010PropOp38
 70
     1
102
RTVSPost2010Prop39
140
1.0
102
RTVSPost2010PropOp39
 70
     1
102
RTVSPost2010Prop40
 90
        0
102
RTVSPost2010PropOp40
 70
     1
102
RTVSPost2010Prop41ColorIndex
 90
       18
102
RTVSPost2010Prop41ColorRGB
 90
        0
102
RTVSPost2010PropOp41
 70
     1
102
RTVSPost2010Prop42
 90
       50
102
RTVSPost2010PropOp42
 70
     1
102
RTVSPost2010Prop43
 90
        3
102
RTVSPost2010PropOp43
 70
     1
102
RTVSPost2010Prop44ColorIndex
 90
        5
102
RTVSPost2010Prop44ColorRGB
 90
      255
102
RTVSPost2010PropOp44
 70
     1
102
RTVSPost2010Prop45
280
     0
102
RTVSPost2010PropOp45
 70
     1
102
RTVSPost2010Prop46
 90
       50
102
RTVSPost2010PropOp46
 70
     1
102
RTVSPost2010Prop47
 90
       50
102
RTVSPost2010PropOp47
 70
     1
102
RTVSPost2010Prop48
 90
       50
102
RTVSPost2010PropOp48
 70
     1
102
RTVSPost2010Prop49
280
     0
102
RTVSPost2010PropOp49
 70
     1
102
RTVSPost2010Prop50
 90
       50
102
RTVSPost2010PropOp50
 70
     1
102
RTVSPost2010Prop51ColorIndex
 90
      256
102
RTVSPost2010Prop51ColorRGB
 90
-16777216
102
RTVSPost2010PropOp51
 70
     0
102
RTVSPost2010Prop52
140
1.0
102
RTVSPost2010PropOp52
 70
     0
102
RTVSPost2010Prop53
 90
        2
102
RTVSPost2010PropOp53
 70
     1
102
RTVSPost2010Prop54
  1
strokes_ogs.tif
102
RTVSPost2010PropOp54
 70
     1
102
RTVSPost2010Prop55
280
     0
102
RTVSPost2010PropOp55
 70
     1
102
RTVSPost2010Prop56
140
1.0
102
RTVSPost2010PropOp56
 70
     1
102
RTVSPost2010Prop57
140
1.0
102
RTVSPost2010PropOp57
 70
     1
  0
XRECORD
  5
272
102
{ACAD_REACTORS
330
271
102
}
330
271
100
AcDbXrecord
280
     1
102
RTVSPropertyOp0
 70
     0
102
RTVSPropertyOp1
 70
     0
102
RTVSPropertyOp2
 70
     0
102
RTVSPropertyOp3
 70
     0
102
RTVSPropertyOp4
 70
     0
102
RTVSPropertyOp5
 70
     0
102
RTVSPropertyOp6
 70
     0
102
RTVSPropertyOp7
 70
     0
102
RTVSPropertyOp8
 70
     0
102
RTVSPropertyOp9
 70
     0
102
RTVSPropertyOp10
 70
     0
102
RTVSPropertyOp11
 70
     0
102
RTVSPropertyOp12
 70
     0
102
RTVSPropertyOp13
 70
     0
102
RTVSPropertyOp14
 70
     2
102
RTVSPropertyOp15
 70
     0
102
RTVSPropertyOp16
 70
     0
102
RTVSPropertyOp17
 70
     0
102
RTVSPropertyOp18
 70
     0
102
RTVSPropertyOp19
 70
     0
102
RTVSPropertyOp20
 70
     0
102
RTVSPropertyOp21
 70
     0
102
RTVSPropertyOp22
 70
     0
102
RTVSPropertyOp23
 70
     0
102
RTVSPropertyOp24
 70
     0
102
RTVSPropertyOp25
 70
     0
102
RTVSPropertyOp26
 70
     0
102
RTVSPropertyOp27
 70
     0
102
RTVSPropertyOp28
 70
     0
102
RTVSPropertyOp29
 70
     0
102
RTVSPropertyOp30
 70
     0
102
RTVSPropertyOp31
 70
     0
102
RTVSPropertyOp32
 70
     0
102
RTVSPropertyOp33
 70
     0
102
RTVSPropertyOp34
 70
     0
102
RTVSPropertyOp35
 70
     0
102
RTVSPropertyOp36
 70
     0
102
RTVSPropertyOp37
 70
     0
102
RTVSPropertyOp38
 70
     0
102
RTVSPropertyOp39
 70
     0
102
RTVSPropertyOp40
 70
     0
102
RTVSPropertyOp41
 70
     0
102
RTVSPropertyOp42
 70
     0
102
RTVSPropertyOp43
 70
     0
102
RTVSPropertyOp44
 70
     0
102
RTVSPropertyOp45
 70
     0
102
RTVSPropertyOp46
 70
     0
102
RTVSPropertyOp47
 70
     0
102
RTVSPropertyOp48
 70
     0
102
RTVSPropertyOp49
 70
     0
102
RTVSPropertyOp50
 70
     0
102
RTVSPropertyOp51
 70
     0
102
RTVSPropertyOp52
 70
     0
102
RTVSPropertyOp53
 70
     0
102
RTVSPropertyOp54
 70
     0
102
RTVSPropertyOp55
 70
     0
102
RTVSPropertyOp56
 70
     0
102
RTVSPropertyOp57
 70
     0
102
RTVSPost2010Prop28
280
     0
102
RTVSPost2010PropOp28
 70
     0
102
RTVSPost2010Prop29
280
     1
102
RTVSPost2010PropOp29
 70
     0
102
RTVSPost2010Prop30
280
     1
102
RTVSPost2010PropOp30
 70
     0
102
RTVSPost2010Prop31
280
     0
102
RTVSPost2010PropOp31
 70
     0
102
RTVSPost2010Prop32
280
     0
102
RTVSPost2010PropOp32
 70
     0
102
RTVSPost2010Prop33
280
     0
102
RTVSPost2010PropOp33
 70
     0
102
RTVSPost2010Prop34
280
     0
102
RTVSPost2010PropOp34
 70
     0
102
RTVSPost2010Prop35
280
     0
102
RTVSPost2010PropOp35
 70
     0
102
RTVSPost2010Prop36
280
     0
102
RTVSPost2010PropOp36
 70
     0
102
RTVSPost2010Prop37
 90
       50
102
RTVSPost2010PropOp37
 70
     0
102
RTVSPost2010Prop38
140
0.0
102
RTVSPost2010PropOp38
 70
     0
102
RTVSPost2010Prop39
140
1.0
102
RTVSPost2010PropOp39
 70
     0
102
RTVSPost2010Prop40
 90
        0
102
RTVSPost2010PropOp40
 70
     0
102
RTVSPost2010Prop41ColorIndex
 90
       18
102
RTVSPost2010Prop41ColorRGB
 90
        0
102
RTVSPost2010PropOp41
 70
     0
102
RTVSPost2010Prop42
 90
       50
102
RTVSPost2010PropOp42
 70
     0
102
RTVSPost2010Prop43
 90
        3
102
RTVSPost2010PropOp43
 70
     0
102
RTVSPost2010Prop44ColorIndex
 90
        5
102
RTVSPost2010Prop44ColorRGB
 90
      255
102
RTVSPost2010PropOp44
 70
     0
102
RTVSPost2010Prop45
280
     0
102
RTVSPost2010PropOp45
 70
     0
102
RTVSPost2010Prop46
 90
       50
102
RTVSPost2010PropOp46
 70
     0
102
RTVSPost2010Prop47
 90
       50
102
RTVSPost2010PropOp47
 70
     0
102
RTVSPost2010Prop48
 90
       50
102
RTVSPost2010PropOp48
 70
     0
102
RTVSPost2010Prop49
280
     0
102
RTVSPost2010PropOp49
 70
     0
102
RTVSPost2010Prop50
 90
       50
102
RTVSPost2010PropOp50
 70
     0
102
RTVSPost2010Prop51ColorIndex
 90
      256
102
RTVSPost2010Prop51ColorRGB
 90
-16777216
102
RTVSPost2010PropOp51
 70
     0
102
RTVSPost2010Prop52
140
1.0
102
RTVSPost2010PropOp52
 70
     0
102
RTVSPost2010Prop53
 90
        2
102
RTVSPost2010PropOp53
 70
     0
102
RTVSPost2010Prop54
  1
strokes_ogs.tif
102
RTVSPost2010PropOp54
 70
     0
102
RTVSPost2010Prop55
280
     0
102
RTVSPost2010PropOp55
 70
     0
102
RTVSPost2010Prop56
140
1.0
102
RTVSPost2010PropOp56
 70
     0
102
RTVSPost2010Prop57
140
1.0
102
RTVSPost2010PropOp57
 70
     0
  0
XRECORD
  5
26C
102
{ACAD_REACTORS
330
26B
102
}
330
26B
100
AcDbXrecord
280
     1
102
RTVSPropertyOp0
 70
     1
102
RTVSPropertyOp1
 70
     1
102
RTVSPropertyOp2
 70
     1
102
RTVSPropertyOp3
 70
     1
102
RTVSPropertyOp4
 70
     1
102
RTVSPropertyOp5
 70
     1
102
RTVSPropertyOp6
 70
     1
102
RTVSPropertyOp7
 70
     1
102
RTVSPropertyOp8
 70
     1
102
RTVSPropertyOp9
 70
     1
102
RTVSPropertyOp10
 70
     1
102
RTVSPropertyOp11
 70
     1
102
RTVSPropertyOp12
 70
     1
102
RTVSPropertyOp13
 70
     1
102
RTVSPropertyOp14
 70
     1
102
RTVSPropertyOp15
 70
     1
102
RTVSPropertyOp16
 70
     1
102
RTVSPropertyOp17
 70
     1
102
RTVSPropertyOp18
 70
     1
102
RTVSPropertyOp19
 70
     1
102
RTVSPropertyOp20
 70
     1
102
RTVSPropertyOp21
 70
     1
102
RTVSPropertyOp22
 70
     1
102
RTVSPropertyOp23
 70
     1
102
RTVSPropertyOp24
 70
     1
102
RTVSPropertyOp25
 70
     1
102
RTVSPropertyOp26
 70
     1
102
RTVSPropertyOp27
 70
     1
102
RTVSPropertyOp28
 70
     1
102
RTVSPropertyOp29
 70
     1
102
RTVSPropertyOp30
 70
     1
102
RTVSPropertyOp31
 70
     1
102
RTVSPropertyOp32
 70
     1
102
RTVSPropertyOp33
 70
     1
102
RTVSPropertyOp34
 70
     1
102
RTVSPropertyOp35
 70
     1
102
RTVSPropertyOp36
 70
     1
102
RTVSPropertyOp37
 70
     1
102
RTVSPropertyOp38
 70
     1
102
RTVSPropertyOp39
 70
     1
102
RTVSPropertyOp40
 70
     1
102
RTVSPropertyOp41
 70
     1
102
RTVSPropertyOp42
 70
     1
102
RTVSPropertyOp43
 70
     1
102
RTVSPropertyOp44
 70
     1
102
RTVSPropertyOp45
 70
     1
102
RTVSPropertyOp46
 70
     1
102
RTVSPropertyOp47
 70
     1
102
RTVSPropertyOp48
 70
     1
102
RTVSPropertyOp49
 70
     1
102
RTVSPropertyOp50
 70
     1
102
RTVSPropertyOp51
 70
     0
102
RTVSPropertyOp52
 70
     0
102
RTVSPropertyOp53
 70
     1
102
RTVSPropertyOp54
 70
     1
102
RTVSPropertyOp55
 70
     1
102
RTVSPropertyOp56
 70
     1
102
RTVSPropertyOp57
 70
     1
102
RTVSPost2010Prop28
280
     0
102
RTVSPost2010PropOp28
 70
     1
102
RTVSPost2010Prop29
280
     1
102
RTVSPost2010PropOp29
 70
     1
102
RTVSPost2010Prop30
280
     1
102
RTVSPost2010PropOp30
 70
     1
102
RTVSPost2010Prop31
280
     0
102
RTVSPost2010PropOp31
 70
     1
102
RTVSPost2010Prop32
280
     0
102
RTVSPost2010PropOp32
 70
     1
102
RTVSPost2010Prop33
280
     0
102
RTVSPost2010PropOp33
 70
     1
102
RTVSPost2010Prop34
280
     0
102
RTVSPost2010PropOp34
 70
     1
102
RTVSPost2010Prop35
280
     0
102
RTVSPost2010PropOp35
 70
     1
102
RTVSPost2010Prop36
280
     0
102
RTVSPost2010PropOp36
 70
     1
102
RTVSPost2010Prop37
 90
       50
102
RTVSPost2010PropOp37
 70
     1
102
RTVSPost2010Prop38
140
0.0
102
RTVSPost2010PropOp38
 70
     1
102
RTVSPost2010Prop39
140
1.0
102
RTVSPost2010PropOp39
 70
     1
102
RTVSPost2010Prop40
 90
        0
102
RTVSPost2010PropOp40
 70
     1
102
RTVSPost2010Prop41ColorIndex
 90
       18
102
RTVSPost2010Prop41ColorRGB
 90
        0
102
RTVSPost2010PropOp41
 70
     1
102
RTVSPost2010Prop42
 90
       50
102
RTVSPost2010PropOp42
 70
     1
102
RTVSPost2010Prop43
 90
        3
102
RTVSPost2010PropOp43
 70
     1
102
RTVSPost2010Prop44ColorIndex
 90
        5
102
RTVSPost2010Prop44ColorRGB
 90
      255
102
RTVSPost2010PropOp44
 70
     1
102
RTVSPost2010Prop45
280
     0
102
RTVSPost2010PropOp45
 70
     1
102
RTVSPost2010Prop46
 90
       50
102
RTVSPost2010PropOp46
 70
     1
102
RTVSPost2010Prop47
 90
       50
102
RTVSPost2010PropOp47
 70
     1
102
RTVSPost2010Prop48
 90
       50
102
RTVSPost2010PropOp48
 70
     1
102
RTVSPost2010Prop49
280
     0
102
RTVSPost2010PropOp49
 70
     1
102
RTVSPost2010Prop50
 90
       50
102
RTVSPost2010PropOp50
 70
     1
102
RTVSPost2010Prop51ColorIndex
 90
      256
102
RTVSPost2010Prop51ColorRGB
 90
-16777216
102
RTVSPost2010PropOp51
 70
     0
102
RTVSPost2010Prop52
140
1.0
102
RTVSPost2010PropOp52
 70
     0
102
RTVSPost2010Prop53
 90
        2
102
RTVSPost2010PropOp53
 70
     1
102
RTVSPost2010Prop54
  1
strokes_ogs.tif
102
RTVSPost2010PropOp54
 70
     1
102
RTVSPost2010Prop55
280
     0
102
RTVSPost2010PropOp55
 70
     1
102
RTVSPost2010Prop56
140
1.0
102
RTVSPost2010PropOp56
 70
     1
102
RTVSPost2010Prop57
140
1.0
102
RTVSPost2010PropOp57
 70
     1
  0
XRECORD
  5
274
102
{ACAD_REACTORS
330
273
102
}
330
273
100
AcDbXrecord
280
     1
102
RTVSPropertyOp0
 70
     0
102
RTVSPropertyOp1
 70
     0
102
RTVSPropertyOp2
 70
     0
102
RTVSPropertyOp3
 70
     0
102
RTVSPropertyOp4
 70
     0
102
RTVSPropertyOp5
 70
     0
102
RTVSPropertyOp6
 70
     0
102
RTVSPropertyOp7
 70
     0
102
RTVSPropertyOp8
 70
     0
102
RTVSPropertyOp9
 70
     0
102
RTVSPropertyOp10
 70
     0
102
RTVSPropertyOp11
 70
     0
102
RTVSPropertyOp12
 70
     0
102
RTVSPropertyOp13
 70
     0
102
RTVSPropertyOp14
 70
     2
102
RTVSPropertyOp15
 70
     0
102
RTVSPropertyOp16
 70
     0
102
RTVSPropertyOp17
 70
     0
102
RTVSPropertyOp18
 70
     0
102
RTVSPropertyOp19
 70
     0
102
RTVSPropertyOp20
 70
     0
102
RTVSPropertyOp21
 70
     0
102
RTVSPropertyOp22
 70
     0
102
RTVSPropertyOp23
 70
     0
102
RTVSPropertyOp24
 70
     0
102
RTVSPropertyOp25
 70
     0
102
RTVSPropertyOp26
 70
     0
102
RTVSPropertyOp27
 70
     0
102
RTVSPropertyOp28
 70
     0
102
RTVSPropertyOp29
 70
     0
102
RTVSPropertyOp30
 70
     0
102
RTVSPropertyOp31
 70
     0
102
RTVSPropertyOp32
 70
     0
102
RTVSPropertyOp33
 70
     0
102
RTVSPropertyOp34
 70
     0
102
RTVSPropertyOp35
 70
     0
102
RTVSPropertyOp36
 70
     0
102
RTVSPropertyOp37
 70
     0
102
RTVSPropertyOp38
 70
     0
102
RTVSPropertyOp39
 70
     0
102
RTVSPropertyOp40
 70
     0
102
RTVSPropertyOp41
 70
     0
102
RTVSPropertyOp42
 70
     0
102
RTVSPropertyOp43
 70
     0
102
RTVSPropertyOp44
 70
     0
102
RTVSPropertyOp45
 70
     0
102
RTVSPropertyOp46
 70
     0
102
RTVSPropertyOp47
 70
     0
102
RTVSPropertyOp48
 70
     0
102
RTVSPropertyOp49
 70
     0
102
RTVSPropertyOp50
 70
     0
102
RTVSPropertyOp51
 70
     0
102
RTVSPropertyOp52
 70
     0
102
RTVSPropertyOp53
 70
     0
102
RTVSPropertyOp54
 70
     0
102
RTVSPropertyOp55
 70
     0
102
RTVSPropertyOp56
 70
     0
102
RTVSPropertyOp57
 70
     0
102
RTVSPost2010Prop28
280
     0
102
RTVSPost2010PropOp28
 70
     0
102
RTVSPost2010Prop29
280
     1
102
RTVSPost2010PropOp29
 70
     0
102
RTVSPost2010Prop30
280
     1
102
RTVSPost2010PropOp30
 70
     0
102
RTVSPost2010Prop31
280
     0
102
RTVSPost2010PropOp31
 70
     0
102
RTVSPost2010Prop32
280
     0
102
RTVSPost2010PropOp32
 70
     0
102
RTVSPost2010Prop33
280
     0
102
RTVSPost2010PropOp33
 70
     0
102
RTVSPost2010Prop34
280
     0
102
RTVSPost2010PropOp34
 70
     0
102
RTVSPost2010Prop35
280
     0
102
RTVSPost2010PropOp35
 70
     0
102
RTVSPost2010Prop36
280
     0
102
RTVSPost2010PropOp36
 70
     0
102
RTVSPost2010Prop37
 90
       50
102
RTVSPost2010PropOp37
 70
     0
102
RTVSPost2010Prop38
140
0.0
102
RTVSPost2010PropOp38
 70
     0
102
RTVSPost2010Prop39
140
1.0
102
RTVSPost2010PropOp39
 70
     0
102
RTVSPost2010Prop40
 90
        0
102
RTVSPost2010PropOp40
 70
     0
102
RTVSPost2010Prop41ColorIndex
 90
       18
102
RTVSPost2010Prop41ColorRGB
 90
        0
102
RTVSPost2010PropOp41
 70
     0
102
RTVSPost2010Prop42
 90
       50
102
RTVSPost2010PropOp42
 70
     0
102
RTVSPost2010Prop43
 90
        3
102
RTVSPost2010PropOp43
 70
     0
102
RTVSPost2010Prop44ColorIndex
 90
        5
102
RTVSPost2010Prop44ColorRGB
 90
      255
102
RTVSPost2010PropOp44
 70
     0
102
RTVSPost2010Prop45
280
     0
102
RTVSPost2010PropOp45
 70
     0
102
RTVSPost2010Prop46
 90
       50
102
RTVSPost2010PropOp46
 70
     0
102
RTVSPost2010Prop47
 90
       50
102
RTVSPost2010PropOp47
 70
     0
102
RTVSPost2010Prop48
 90
       50
102
RTVSPost2010PropOp48
 70
     0
102
RTVSPost2010Prop49
280
     0
102
RTVSPost2010PropOp49
 70
     0
102
RTVSPost2010Prop50
 90
       50
102
RTVSPost2010PropOp50
 70
     0
102
RTVSPost2010Prop51ColorIndex
 90
      256
102
RTVSPost2010Prop51ColorRGB
 90
-16777216
102
RTVSPost2010PropOp51
 70
     0
102
RTVSPost2010Prop52
140
1.0
102
RTVSPost2010PropOp52
 70
     0
102
RTVSPost2010Prop53
 90
        2
102
RTVSPost2010PropOp53
 70
     0
102
RTVSPost2010Prop54
  1
strokes_ogs.tif
102
RTVSPost2010PropOp54
 70
     0
102
RTVSPost2010Prop55
280
     0
102
RTVSPost2010PropOp55
 70
     0
102
RTVSPost2010Prop56
140
1.0
102
RTVSPost2010PropOp56
 70
     0
102
RTVSPost2010Prop57
140
1.0
102
RTVSPost2010PropOp57
 70
     0
  0
XRECORD
  5
262
102
{ACAD_REACTORS
330
261
102
}
330
261
100
AcDbXrecord
280
     1
102
RTVSPropertyOp0
 70
     1
102
RTVSPropertyOp1
 70
     1
102
RTVSPropertyOp2
 70
     1
102
RTVSPropertyOp3
 70
     1
102
RTVSPropertyOp4
 70
     1
102
RTVSPropertyOp5
 70
     1
102
RTVSPropertyOp6
 70
     1
102
RTVSPropertyOp7
 70
     1
102
RTVSPropertyOp8
 70
     1
102
RTVSPropertyOp9
 70
     1
102
RTVSPropertyOp10
 70
     1
102
RTVSPropertyOp11
 70
     1
102
RTVSPropertyOp12
 70
     1
102
RTVSPropertyOp13
 70
     1
102
RTVSPropertyOp14
 70
     1
102
RTVSPropertyOp15
 70
     1
102
RTVSPropertyOp16
 70
     1
102
RTVSPropertyOp17
 70
     1
102
RTVSPropertyOp18
 70
     1
102
RTVSPropertyOp19
 70
     1
102
RTVSPropertyOp20
 70
     1
102
RTVSPropertyOp21
 70
     1
102
RTVSPropertyOp22
 70
     1
102
RTVSPropertyOp23
 70
     1
102
RTVSPropertyOp24
 70
     1
102
RTVSPropertyOp25
 70
     1
102
RTVSPropertyOp26
 70
     1
102
RTVSPropertyOp27
 70
     1
102
RTVSPropertyOp28
 70
     1
102
RTVSPropertyOp29
 70
     1
102
RTVSPropertyOp30
 70
     1
102
RTVSPropertyOp31
 70
     1
102
RTVSPropertyOp32
 70
     1
102
RTVSPropertyOp33
 70
     1
102
RTVSPropertyOp34
 70
     1
102
RTVSPropertyOp35
 70
     1
102
RTVSPropertyOp36
 70
     1
102
RTVSPropertyOp37
 70
     1
102
RTVSPropertyOp38
 70
     1
102
RTVSPropertyOp39
 70
     1
102
RTVSPropertyOp40
 70
     1
102
RTVSPropertyOp41
 70
     1
102
RTVSPropertyOp42
 70
     1
102
RTVSPropertyOp43
 70
     1
102
RTVSPropertyOp44
 70
     1
102
RTVSPropertyOp45
 70
     1
102
RTVSPropertyOp46
 70
     1
102
RTVSPropertyOp47
 70
     1
102
RTVSPropertyOp48
 70
     1
102
RTVSPropertyOp49
 70
     1
102
RTVSPropertyOp50
 70
     1
102
RTVSPropertyOp51
 70
     0
102
RTVSPropertyOp52
 70
     0
102
RTVSPropertyOp53
 70
     1
102
RTVSPropertyOp54
 70
     1
102
RTVSPropertyOp55
 70
     1
102
RTVSPropertyOp56
 70
     1
102
RTVSPropertyOp57
 70
     1
102
RTVSPost2010Prop28
280
     0
102
RTVSPost2010PropOp28
 70
     1
102
RTVSPost2010Prop29
280
     1
102
RTVSPost2010PropOp29
 70
     1
102
RTVSPost2010Prop30
280
     1
102
RTVSPost2010PropOp30
 70
     1
102
RTVSPost2010Prop31
280
     0
102
RTVSPost2010PropOp31
 70
     1
102
RTVSPost2010Prop32
280
     0
102
RTVSPost2010PropOp32
 70
     1
102
RTVSPost2010Prop33
280
     0
102
RTVSPost2010PropOp33
 70
     1
102
RTVSPost2010Prop34
280
     0
102
RTVSPost2010PropOp34
 70
     1
102
RTVSPost2010Prop35
280
     0
102
RTVSPost2010PropOp35
 70
     1
102
RTVSPost2010Prop36
280
     0
102
RTVSPost2010PropOp36
 70
     1
102
RTVSPost2010Prop37
 90
       50
102
RTVSPost2010PropOp37
 70
     1
102
RTVSPost2010Prop38
140
0.0
102
RTVSPost2010PropOp38
 70
     1
102
RTVSPost2010Prop39
140
1.0
102
RTVSPost2010PropOp39
 70
     1
102
RTVSPost2010Prop40
 90
        0
102
RTVSPost2010PropOp40
 70
     1
102
RTVSPost2010Prop41ColorIndex
 90
       18
102
RTVSPost2010Prop41ColorRGB
 90
        0
102
RTVSPost2010PropOp41
 70
     1
102
RTVSPost2010Prop42
 90
       50
102
RTVSPost2010PropOp42
 70
     1
102
RTVSPost2010Prop43
 90
        3
102
RTVSPost2010PropOp43
 70
     1
102
RTVSPost2010Prop44ColorIndex
 90
        5
102
RTVSPost2010Prop44ColorRGB
 90
      255
102
RTVSPost2010PropOp44
 70
     1
102
RTVSPost2010Prop45
280
     0
102
RTVSPost2010PropOp45
 70
     1
102
RTVSPost2010Prop46
 90
       50
102
RTVSPost2010PropOp46
 70
     1
102
RTVSPost2010Prop47
 90
       50
102
RTVSPost2010PropOp47
 70
     1
102
RTVSPost2010Prop48
 90
       50
102
RTVSPost2010PropOp48
 70
     1
102
RTVSPost2010Prop49
280
     0
102
RTVSPost2010PropOp49
 70
     1
102
RTVSPost2010Prop50
 90
       50
102
RTVSPost2010PropOp50
 70
     1
102
RTVSPost2010Prop51ColorIndex
 90
      256
102
RTVSPost2010Prop51ColorRGB
 90
-16777216
102
RTVSPost2010PropOp51
 70
     0
102
RTVSPost2010Prop52
140
1.0
102
RTVSPost2010PropOp52
 70
     0
102
RTVSPost2010Prop53
 90
        2
102
RTVSPost2010PropOp53
 70
     1
102
RTVSPost2010Prop54
  1
strokes_ogs.tif
102
RTVSPost2010PropOp54
 70
     1
102
RTVSPost2010Prop55
280
     0
102
RTVSPost2010PropOp55
 70
     1
102
RTVSPost2010Prop56
140
1.0
102
RTVSPost2010PropOp56
 70
     1
102
RTVSPost2010Prop57
140
1.0
102
RTVSPost2010PropOp57
 70
     1
  0
XRECORD
  5
280
102
{ACAD_REACTORS
330
27F
102
}
330
27F
100
AcDbXrecord
280
     1
102
RTVSPropertyOp0
 70
     1
102
RTVSPropertyOp1
 70
     1
102
RTVSPropertyOp2
 70
     1
102
RTVSPropertyOp3
 70
     1
102
RTVSPropertyOp4
 70
     1
102
RTVSPropertyOp5
 70
     1
102
RTVSPropertyOp6
 70
     1
102
RTVSPropertyOp7
 70
     1
102
RTVSPropertyOp8
 70
     1
102
RTVSPropertyOp9
 70
     1
102
RTVSPropertyOp10
 70
     1
102
RTVSPropertyOp11
 70
     1
102
RTVSPropertyOp12
 70
     1
102
RTVSPropertyOp13
 70
     1
102
RTVSPropertyOp14
 70
     1
102
RTVSPropertyOp15
 70
     1
102
RTVSPropertyOp16
 70
     1
102
RTVSPropertyOp17
 70
     1
102
RTVSPropertyOp18
 70
     1
102
RTVSPropertyOp19
 70
     1
102
RTVSPropertyOp20
 70
     1
102
RTVSPropertyOp21
 70
     1
102
RTVSPropertyOp22
 70
     1
102
RTVSPropertyOp23
 70
     1
102
RTVSPropertyOp24
 70
     1
102
RTVSPropertyOp25
 70
     1
102
RTVSPropertyOp26
 70
     1
102
RTVSPropertyOp27
 70
     1
102
RTVSPropertyOp28
 70
     1
102
RTVSPropertyOp29
 70
     1
102
RTVSPropertyOp30
 70
     1
102
RTVSPropertyOp31
 70
     1
102
RTVSPropertyOp32
 70
     1
102
RTVSPropertyOp33
 70
     1
102
RTVSPropertyOp34
 70
     1
102
RTVSPropertyOp35
 70
     1
102
RTVSPropertyOp36
 70
     1
102
RTVSPropertyOp37
 70
     1
102
RTVSPropertyOp38
 70
     1
102
RTVSPropertyOp39
 70
     1
102
RTVSPropertyOp40
 70
     1
102
RTVSPropertyOp41
 70
     1
102
RTVSPropertyOp42
 70
     1
102
RTVSPropertyOp43
 70
     1
102
RTVSPropertyOp44
 70
     1
102
RTVSPropertyOp45
 70
     1
102
RTVSPropertyOp46
 70
     1
102
RTVSPropertyOp47
 70
     1
102
RTVSPropertyOp48
 70
     1
102
RTVSPropertyOp49
 70
     1
102
RTVSPropertyOp50
 70
     1
102
RTVSPropertyOp51
 70
     0
102
RTVSPropertyOp52
 70
     0
102
RTVSPropertyOp53
 70
     1
102
RTVSPropertyOp54
 70
     1
102
RTVSPropertyOp55
 70
     1
102
RTVSPropertyOp56
 70
     1
102
RTVSPropertyOp57
 70
     1
102
RTVSPost2010Prop28
280
     0
102
RTVSPost2010PropOp28
 70
     1
102
RTVSPost2010Prop29
280
     1
102
RTVSPost2010PropOp29
 70
     1
102
RTVSPost2010Prop30
280
     1
102
RTVSPost2010PropOp30
 70
     1
102
RTVSPost2010Prop31
280
     0
102
RTVSPost2010PropOp31
 70
     1
102
RTVSPost2010Prop32
280
     0
102
RTVSPost2010PropOp32
 70
     1
102
RTVSPost2010Prop33
280
     0
102
RTVSPost2010PropOp33
 70
     1
102
RTVSPost2010Prop34
280
     0
102
RTVSPost2010PropOp34
 70
     1
102
RTVSPost2010Prop35
280
     0
102
RTVSPost2010PropOp35
 70
     1
102
RTVSPost2010Prop36
280
     0
102
RTVSPost2010PropOp36
 70
     1
102
RTVSPost2010Prop37
 90
       50
102
RTVSPost2010PropOp37
 70
     1
102
RTVSPost2010Prop38
140
0.0
102
RTVSPost2010PropOp38
 70
     1
102
RTVSPost2010Prop39
140
1.0
102
RTVSPost2010PropOp39
 70
     1
102
RTVSPost2010Prop40
 90
        0
102
RTVSPost2010PropOp40
 70
     1
102
RTVSPost2010Prop41ColorIndex
 90
       18
102
RTVSPost2010Prop41ColorRGB
 90
        0
102
RTVSPost2010PropOp41
 70
     1
102
RTVSPost2010Prop42
 90
       50
102
RTVSPost2010PropOp42
 70
     1
102
RTVSPost2010Prop43
 90
        3
102
RTVSPost2010PropOp43
 70
     1
102
RTVSPost2010Prop44ColorIndex
 90
        5
102
RTVSPost2010Prop44ColorRGB
 90
      255
102
RTVSPost2010PropOp44
 70
     1
102
RTVSPost2010Prop45
280
     0
102
RTVSPost2010PropOp45
 70
     1
102
RTVSPost2010Prop46
 90
       50
102
RTVSPost2010PropOp46
 70
     1
102
RTVSPost2010Prop47
 90
       50
102
RTVSPost2010PropOp47
 70
     1
102
RTVSPost2010Prop48
 90
       50
102
RTVSPost2010PropOp48
 70
     1
102
RTVSPost2010Prop49
280
     0
102
RTVSPost2010PropOp49
 70
     1
102
RTVSPost2010Prop50
 90
       50
102
RTVSPost2010PropOp50
 70
     1
102
RTVSPost2010Prop51ColorIndex
 90
      256
102
RTVSPost2010Prop51ColorRGB
 90
-16777216
102
RTVSPost2010PropOp51
 70
     0
102
RTVSPost2010Prop52
140
1.0
102
RTVSPost2010PropOp52
 70
     0
102
RTVSPost2010Prop53
 90
        2
102
RTVSPost2010PropOp53
 70
     1
102
RTVSPost2010Prop54
  1
strokes_ogs.tif
102
RTVSPost2010PropOp54
 70
     1
102
RTVSPost2010Prop55
280
     0
102
RTVSPost2010PropOp55
 70
     1
102
RTVSPost2010Prop56
140
1.0
102
RTVSPost2010PropOp56
 70
     1
102
RTVSPost2010Prop57
140
1.0
102
RTVSPost2010PropOp57
 70
     1
  0
XRECORD
  5
27E
102
{ACAD_REACTORS
330
27D
102
}
330
27D
100
AcDbXrecord
280
     1
102
RTVSPropertyOp0
 70
     1
102
RTVSPropertyOp1
 70
     1
102
RTVSPropertyOp2
 70
     1
102
RTVSPropertyOp3
 70
     1
102
RTVSPropertyOp4
 70
     1
102
RTVSPropertyOp5
 70
     1
102
RTVSPropertyOp6
 70
     1
102
RTVSPropertyOp7
 70
     1
102
RTVSPropertyOp8
 70
     1
102
RTVSPropertyOp9
 70
     1
102
RTVSPropertyOp10
 70
     1
102
RTVSPropertyOp11
 70
     1
102
RTVSPropertyOp12
 70
     1
102
RTVSPropertyOp13
 70
     1
102
RTVSPropertyOp14
 70
     1
102
RTVSPropertyOp15
 70
     1
102
RTVSPropertyOp16
 70
     1
102
RTVSPropertyOp17
 70
     1
102
RTVSPropertyOp18
 70
     1
102
RTVSPropertyOp19
 70
     1
102
RTVSPropertyOp20
 70
     1
102
RTVSPropertyOp21
 70
     1
102
RTVSPropertyOp22
 70
     1
102
RTVSPropertyOp23
 70
     1
102
RTVSPropertyOp24
 70
     1
102
RTVSPropertyOp25
 70
     1
102
RTVSPropertyOp26
 70
     1
102
RTVSPropertyOp27
 70
     1
102
RTVSPropertyOp28
 70
     1
102
RTVSPropertyOp29
 70
     1
102
RTVSPropertyOp30
 70
     1
102
RTVSPropertyOp31
 70
     1
102
RTVSPropertyOp32
 70
     1
102
RTVSPropertyOp33
 70
     1
102
RTVSPropertyOp34
 70
     1
102
RTVSPropertyOp35
 70
     1
102
RTVSPropertyOp36
 70
     1
102
RTVSPropertyOp37
 70
     1
102
RTVSPropertyOp38
 70
     1
102
RTVSPropertyOp39
 70
     1
102
RTVSPropertyOp40
 70
     1
102
RTVSPropertyOp41
 70
     1
102
RTVSPropertyOp42
 70
     1
102
RTVSPropertyOp43
 70
     1
102
RTVSPropertyOp44
 70
     1
102
RTVSPropertyOp45
 70
     1
102
RTVSPropertyOp46
 70
     1
102
RTVSPropertyOp47
 70
     1
102
RTVSPropertyOp48
 70
     1
102
RTVSPropertyOp49
 70
     1
102
RTVSPropertyOp50
 70
     1
102
RTVSPropertyOp51
 70
     0
102
RTVSPropertyOp52
 70
     0
102
RTVSPropertyOp53
 70
     1
102
RTVSPropertyOp54
 70
     1
102
RTVSPropertyOp55
 70
     1
102
RTVSPropertyOp56
 70
     1
102
RTVSPropertyOp57
 70
     1
102
RTVSPost2010Prop28
280
     0
102
RTVSPost2010PropOp28
 70
     1
102
RTVSPost2010Prop29
280
     1
102
RTVSPost2010PropOp29
 70
     1
102
RTVSPost2010Prop30
280
     1
102
RTVSPost2010PropOp30
 70
     1
102
RTVSPost2010Prop31
280
     0
102
RTVSPost2010PropOp31
 70
     1
102
RTVSPost2010Prop32
280
     0
102
RTVSPost2010PropOp32
 70
     1
102
RTVSPost2010Prop33
280
     0
102
RTVSPost2010PropOp33
 70
     1
102
RTVSPost2010Prop34
280
     0
102
RTVSPost2010PropOp34
 70
     1
102
RTVSPost2010Prop35
280
     0
102
RTVSPost2010PropOp35
 70
     1
102
RTVSPost2010Prop36
280
     0
102
RTVSPost2010PropOp36
 70
     1
102
RTVSPost2010Prop37
 90
       50
102
RTVSPost2010PropOp37
 70
     1
102
RTVSPost2010Prop38
140
0.0
102
RTVSPost2010PropOp38
 70
     1
102
RTVSPost2010Prop39
140
1.0
102
RTVSPost2010PropOp39
 70
     1
102
RTVSPost2010Prop40
 90
        0
102
RTVSPost2010PropOp40
 70
     1
102
RTVSPost2010Prop41ColorIndex
 90
       18
102
RTVSPost2010Prop41ColorRGB
 90
        0
102
RTVSPost2010PropOp41
 70
     1
102
RTVSPost2010Prop42
 90
       50
102
RTVSPost2010PropOp42
 70
     1
102
RTVSPost2010Prop43
 90
        3
102
RTVSPost2010PropOp43
 70
     1
102
RTVSPost2010Prop44ColorIndex
 90
        5
102
RTVSPost2010Prop44ColorRGB
 90
      255
102
RTVSPost2010PropOp44
 70
     1
102
RTVSPost2010Prop45
280
     0
102
RTVSPost2010PropOp45
 70
     1
102
RTVSPost2010Prop46
 90
       50
102
RTVSPost2010PropOp46
 70
     1
102
RTVSPost2010Prop47
 90
       50
102
RTVSPost2010PropOp47
 70
     1
102
RTVSPost2010Prop48
 90
       50
102
RTVSPost2010PropOp48
 70
     1
102
RTVSPost2010Prop49
280
     0
102
RTVSPost2010PropOp49
 70
     1
102
RTVSPost2010Prop50
 90
       50
102
RTVSPost2010PropOp50
 70
     1
102
RTVSPost2010Prop51ColorIndex
 90
      256
102
RTVSPost2010Prop51ColorRGB
 90
-16777216
102
RTVSPost2010PropOp51
 70
     0
102
RTVSPost2010Prop52
140
1.0
102
RTVSPost2010PropOp52
 70
     0
102
RTVSPost2010Prop53
 90
        2
102
RTVSPost2010PropOp53
 70
     1
102
RTVSPost2010Prop54
  1
strokes_ogs.tif
102
RTVSPost2010PropOp54
 70
     1
102
RTVSPost2010Prop55
280
     0
102
RTVSPost2010PropOp55
 70
     1
102
RTVSPost2010Prop56
140
1.0
102
RTVSPost2010PropOp56
 70
     1
102
RTVSPost2010Prop57
140
1.0
102
RTVSPost2010PropOp57
 70
     1
  0
XRECORD
  5
278
102
{ACAD_REACTORS
330
277
102
}
330
277
100
AcDbXrecord
280
     1
102
RTVSPropertyOp0
 70
     1
102
RTVSPropertyOp1
 70
     1
102
RTVSPropertyOp2
 70
     1
102
RTVSPropertyOp3
 70
     1
102
RTVSPropertyOp4
 70
     1
102
RTVSPropertyOp5
 70
     1
102
RTVSPropertyOp6
 70
     1
102
RTVSPropertyOp7
 70
     1
102
RTVSPropertyOp8
 70
     1
102
RTVSPropertyOp9
 70
     1
102
RTVSPropertyOp10
 70
     1
102
RTVSPropertyOp11
 70
     1
102
RTVSPropertyOp12
 70
     1
102
RTVSPropertyOp13
 70
     1
102
RTVSPropertyOp14
 70
     1
102
RTVSPropertyOp15
 70
     1
102
RTVSPropertyOp16
 70
     1
102
RTVSPropertyOp17
 70
     1
102
RTVSPropertyOp18
 70
     1
102
RTVSPropertyOp19
 70
     1
102
RTVSPropertyOp20
 70
     1
102
RTVSPropertyOp21
 70
     1
102
RTVSPropertyOp22
 70
     1
102
RTVSPropertyOp23
 70
     1
102
RTVSPropertyOp24
 70
     1
102
RTVSPropertyOp25
 70
     1
102
RTVSPropertyOp26
 70
     1
102
RTVSPropertyOp27
 70
     1
102
RTVSPropertyOp28
 70
     1
102
RTVSPropertyOp29
 70
     1
102
RTVSPropertyOp30
 70
     1
102
RTVSPropertyOp31
 70
     1
102
RTVSPropertyOp32
 70
     1
102
RTVSPropertyOp33
 70
     1
102
RTVSPropertyOp34
 70
     1
102
RTVSPropertyOp35
 70
     1
102
RTVSPropertyOp36
 70
     1
102
RTVSPropertyOp37
 70
     1
102
RTVSPropertyOp38
 70
     1
102
RTVSPropertyOp39
 70
     1
102
RTVSPropertyOp40
 70
     1
102
RTVSPropertyOp41
 70
     1
102
RTVSPropertyOp42
 70
     1
102
RTVSPropertyOp43
 70
     1
102
RTVSPropertyOp44
 70
     1
102
RTVSPropertyOp45
 70
     1
102
RTVSPropertyOp46
 70
     1
102
RTVSPropertyOp47
 70
     1
102
RTVSPropertyOp48
 70
     1
102
RTVSPropertyOp49
 70
     1
102
RTVSPropertyOp50
 70
     1
102
RTVSPropertyOp51
 70
     0
102
RTVSPropertyOp52
 70
     0
102
RTVSPropertyOp53
 70
     1
102
RTVSPropertyOp54
 70
     1
102
RTVSPropertyOp55
 70
     1
102
RTVSPropertyOp56
 70
     1
102
RTVSPropertyOp57
 70
     1
102
RTVSPost2010Prop28
280
     0
102
RTVSPost2010PropOp28
 70
     1
102
RTVSPost2010Prop29
280
     1
102
RTVSPost2010PropOp29
 70
     1
102
RTVSPost2010Prop30
280
     1
102
RTVSPost2010PropOp30
 70
     1
102
RTVSPost2010Prop31
280
     0
102
RTVSPost2010PropOp31
 70
     1
102
RTVSPost2010Prop32
280
     0
102
RTVSPost2010PropOp32
 70
     1
102
RTVSPost2010Prop33
280
     0
102
RTVSPost2010PropOp33
 70
     1
102
RTVSPost2010Prop34
280
     0
102
RTVSPost2010PropOp34
 70
     1
102
RTVSPost2010Prop35
280
     0
102
RTVSPost2010PropOp35
 70
     1
102
RTVSPost2010Prop36
280
     0
102
RTVSPost2010PropOp36
 70
     1
102
RTVSPost2010Prop37
 90
       50
102
RTVSPost2010PropOp37
 70
     1
102
RTVSPost2010Prop38
140
0.0
102
RTVSPost2010PropOp38
 70
     1
102
RTVSPost2010Prop39
140
1.0
102
RTVSPost2010PropOp39
 70
     1
102
RTVSPost2010Prop40
 90
        0
102
RTVSPost2010PropOp40
 70
     1
102
RTVSPost2010Prop41ColorIndex
 90
       18
102
RTVSPost2010Prop41ColorRGB
 90
        0
102
RTVSPost2010PropOp41
 70
     1
102
RTVSPost2010Prop42
 90
       50
102
RTVSPost2010PropOp42
 70
     1
102
RTVSPost2010Prop43
 90
        3
102
RTVSPost2010PropOp43
 70
     1
102
RTVSPost2010Prop44ColorIndex
 90
        5
102
RTVSPost2010Prop44ColorRGB
 90
      255
102
RTVSPost2010PropOp44
 70
     1
102
RTVSPost2010Prop45
280
     0
102
RTVSPost2010PropOp45
 70
     1
102
RTVSPost2010Prop46
 90
       50
102
RTVSPost2010PropOp46
 70
     1
102
RTVSPost2010Prop47
 90
       50
102
RTVSPost2010PropOp47
 70
     1
102
RTVSPost2010Prop48
 90
       50
102
RTVSPost2010PropOp48
 70
     1
102
RTVSPost2010Prop49
280
     0
102
RTVSPost2010PropOp49
 70
     1
102
RTVSPost2010Prop50
 90
       50
102
RTVSPost2010PropOp50
 70
     1
102
RTVSPost2010Prop51ColorIndex
 90
      256
102
RTVSPost2010Prop51ColorRGB
 90
-16777216
102
RTVSPost2010PropOp51
 70
     0
102
RTVSPost2010Prop52
140
1.0
102
RTVSPost2010PropOp52
 70
     0
102
RTVSPost2010Prop53
 90
        2
102
RTVSPost2010PropOp53
 70
     1
102
RTVSPost2010Prop54
  1
strokes_ogs.tif
102
RTVSPost2010PropOp54
 70
     1
102
RTVSPost2010Prop55
280
     0
102
RTVSPost2010PropOp55
 70
     1
102
RTVSPost2010Prop56
140
1.0
102
RTVSPost2010PropOp56
 70
     1
102
RTVSPost2010Prop57
140
1.0
102
RTVSPost2010PropOp57
 70
     1
  0
XRECORD
  5
27A
102
{ACAD_REACTORS
330
279
102
}
330
279
100
AcDbXrecord
280
     1
102
RTVSPropertyOp0
 70
     1
102
RTVSPropertyOp1
 70
     1
102
RTVSPropertyOp2
 70
     1
102
RTVSPropertyOp3
 70
     1
102
RTVSPropertyOp4
 70
     1
102
RTVSPropertyOp5
 70
     1
102
RTVSPropertyOp6
 70
     1
102
RTVSPropertyOp7
 70
     1
102
RTVSPropertyOp8
 70
     1
102
RTVSPropertyOp9
 70
     1
102
RTVSPropertyOp10
 70
     1
102
RTVSPropertyOp11
 70
     1
102
RTVSPropertyOp12
 70
     1
102
RTVSPropertyOp13
 70
     1
102
RTVSPropertyOp14
 70
     1
102
RTVSPropertyOp15
 70
     1
102
RTVSPropertyOp16
 70
     1
102
RTVSPropertyOp17
 70
     1
102
RTVSPropertyOp18
 70
     1
102
RTVSPropertyOp19
 70
     1
102
RTVSPropertyOp20
 70
     1
102
RTVSPropertyOp21
 70
     1
102
RTVSPropertyOp22
 70
     1
102
RTVSPropertyOp23
 70
     1
102
RTVSPropertyOp24
 70
     1
102
RTVSPropertyOp25
 70
     1
102
RTVSPropertyOp26
 70
     1
102
RTVSPropertyOp27
 70
     1
102
RTVSPropertyOp28
 70
     1
102
RTVSPropertyOp29
 70
     1
102
RTVSPropertyOp30
 70
     1
102
RTVSPropertyOp31
 70
     1
102
RTVSPropertyOp32
 70
     1
102
RTVSPropertyOp33
 70
     1
102
RTVSPropertyOp34
 70
     1
102
RTVSPropertyOp35
 70
     1
102
RTVSPropertyOp36
 70
     1
102
RTVSPropertyOp37
 70
     1
102
RTVSPropertyOp38
 70
     1
102
RTVSPropertyOp39
 70
     1
102
RTVSPropertyOp40
 70
     1
102
RTVSPropertyOp41
 70
     1
102
RTVSPropertyOp42
 70
     1
102
RTVSPropertyOp43
 70
     1
102
RTVSPropertyOp44
 70
     1
102
RTVSPropertyOp45
 70
     1
102
RTVSPropertyOp46
 70
     1
102
RTVSPropertyOp47
 70
     1
102
RTVSPropertyOp48
 70
     1
102
RTVSPropertyOp49
 70
     1
102
RTVSPropertyOp50
 70
     1
102
RTVSPropertyOp51
 70
     0
102
RTVSPropertyOp52
 70
     0
102
RTVSPropertyOp53
 70
     1
102
RTVSPropertyOp54
 70
     1
102
RTVSPropertyOp55
 70
     1
102
RTVSPropertyOp56
 70
     1
102
RTVSPropertyOp57
 70
     1
102
RTVSPost2010Prop28
280
     0
102
RTVSPost2010PropOp28
 70
     1
102
RTVSPost2010Prop29
280
     1
102
RTVSPost2010PropOp29
 70
     1
102
RTVSPost2010Prop30
280
     1
102
RTVSPost2010PropOp30
 70
     1
102
RTVSPost2010Prop31
280
     0
102
RTVSPost2010PropOp31
 70
     1
102
RTVSPost2010Prop32
280
     0
102
RTVSPost2010PropOp32
 70
     1
102
RTVSPost2010Prop33
280
     0
102
RTVSPost2010PropOp33
 70
     1
102
RTVSPost2010Prop34
280
     0
102
RTVSPost2010PropOp34
 70
     1
102
RTVSPost2010Prop35
280
     0
102
RTVSPost2010PropOp35
 70
     1
102
RTVSPost2010Prop36
280
     0
102
RTVSPost2010PropOp36
 70
     1
102
RTVSPost2010Prop37
 90
       50
102
RTVSPost2010PropOp37
 70
     1
102
RTVSPost2010Prop38
140
0.0
102
RTVSPost2010PropOp38
 70
     1
102
RTVSPost2010Prop39
140
1.0
102
RTVSPost2010PropOp39
 70
     1
102
RTVSPost2010Prop40
 90
        0
102
RTVSPost2010PropOp40
 70
     1
102
RTVSPost2010Prop41ColorIndex
 90
       18
102
RTVSPost2010Prop41ColorRGB
 90
        0
102
RTVSPost2010PropOp41
 70
     1
102
RTVSPost2010Prop42
 90
       50
102
RTVSPost2010PropOp42
 70
     1
102
RTVSPost2010Prop43
 90
        3
102
RTVSPost2010PropOp43
 70
     1
102
RTVSPost2010Prop44ColorIndex
 90
        5
102
RTVSPost2010Prop44ColorRGB
 90
      255
102
RTVSPost2010PropOp44
 70
     1
102
RTVSPost2010Prop45
280
     0
102
RTVSPost2010PropOp45
 70
     1
102
RTVSPost2010Prop46
 90
       50
102
RTVSPost2010PropOp46
 70
     1
102
RTVSPost2010Prop47
 90
       50
102
RTVSPost2010PropOp47
 70
     1
102
RTVSPost2010Prop48
 90
       50
102
RTVSPost2010PropOp48
 70
     1
102
RTVSPost2010Prop49
280
     0
102
RTVSPost2010PropOp49
 70
     1
102
RTVSPost2010Prop50
 90
       50
102
RTVSPost2010PropOp50
 70
     1
102
RTVSPost2010Prop51ColorIndex
 90
      256
102
RTVSPost2010Prop51ColorRGB
 90
-16777216
102
RTVSPost2010PropOp51
 70
     0
102
RTVSPost2010Prop52
140
1.0
102
RTVSPost2010PropOp52
 70
     0
102
RTVSPost2010Prop53
 90
        2
102
RTVSPost2010PropOp53
 70
     1
102
RTVSPost2010Prop54
  1
strokes_ogs.tif
102
RTVSPost2010PropOp54
 70
     1
102
RTVSPost2010Prop55
280
     0
102
RTVSPost2010PropOp55
 70
     1
102
RTVSPost2010Prop56
140
1.0
102
RTVSPost2010PropOp56
 70
     1
102
RTVSPost2010Prop57
140
1.0
102
RTVSPost2010PropOp57
 70
     1
  0
XRECORD
  5
26A
102
{ACAD_REACTORS
330
269
102
}
330
269
100
AcDbXrecord
280
     1
102
RTVSPropertyOp0
 70
     1
102
RTVSPropertyOp1
 70
     1
102
RTVSPropertyOp2
 70
     1
102
RTVSPropertyOp3
 70
     1
102
RTVSPropertyOp4
 70
     1
102
RTVSPropertyOp5
 70
     1
102
RTVSPropertyOp6
 70
     1
102
RTVSPropertyOp7
 70
     1
102
RTVSPropertyOp8
 70
     1
102
RTVSPropertyOp9
 70
     1
102
RTVSPropertyOp10
 70
     1
102
RTVSPropertyOp11
 70
     1
102
RTVSPropertyOp12
 70
     1
102
RTVSPropertyOp13
 70
     1
102
RTVSPropertyOp14
 70
     1
102
RTVSPropertyOp15
 70
     1
102
RTVSPropertyOp16
 70
     1
102
RTVSPropertyOp17
 70
     1
102
RTVSPropertyOp18
 70
     1
102
RTVSPropertyOp19
 70
     1
102
RTVSPropertyOp20
 70
     1
102
RTVSPropertyOp21
 70
     1
102
RTVSPropertyOp22
 70
     1
102
RTVSPropertyOp23
 70
     1
102
RTVSPropertyOp24
 70
     1
102
RTVSPropertyOp25
 70
     1
102
RTVSPropertyOp26
 70
     1
102
RTVSPropertyOp27
 70
     1
102
RTVSPropertyOp28
 70
     1
102
RTVSPropertyOp29
 70
     1
102
RTVSPropertyOp30
 70
     1
102
RTVSPropertyOp31
 70
     1
102
RTVSPropertyOp32
 70
     1
102
RTVSPropertyOp33
 70
     1
102
RTVSPropertyOp34
 70
     1
102
RTVSPropertyOp35
 70
     1
102
RTVSPropertyOp36
 70
     1
102
RTVSPropertyOp37
 70
     1
102
RTVSPropertyOp38
 70
     1
102
RTVSPropertyOp39
 70
     1
102
RTVSPropertyOp40
 70
     1
102
RTVSPropertyOp41
 70
     1
102
RTVSPropertyOp42
 70
     1
102
RTVSPropertyOp43
 70
     1
102
RTVSPropertyOp44
 70
     1
102
RTVSPropertyOp45
 70
     1
102
RTVSPropertyOp46
 70
     1
102
RTVSPropertyOp47
 70
     1
102
RTVSPropertyOp48
 70
     1
102
RTVSPropertyOp49
 70
     1
102
RTVSPropertyOp50
 70
     1
102
RTVSPropertyOp51
 70
     0
102
RTVSPropertyOp52
 70
     0
102
RTVSPropertyOp53
 70
     1
102
RTVSPropertyOp54
 70
     1
102
RTVSPropertyOp55
 70
     1
102
RTVSPropertyOp56
 70
     1
102
RTVSPropertyOp57
 70
     1
102
RTVSPost2010Prop28
280
     0
102
RTVSPost2010PropOp28
 70
     1
102
RTVSPost2010Prop29
280
     1
102
RTVSPost2010PropOp29
 70
     1
102
RTVSPost2010Prop30
280
     1
102
RTVSPost2010PropOp30
 70
     1
102
RTVSPost2010Prop31
280
     0
102
RTVSPost2010PropOp31
 70
     1
102
RTVSPost2010Prop32
280
     0
102
RTVSPost2010PropOp32
 70
     1
102
RTVSPost2010Prop33
280
     0
102
RTVSPost2010PropOp33
 70
     1
102
RTVSPost2010Prop34
280
     0
102
RTVSPost2010PropOp34
 70
     1
102
RTVSPost2010Prop35
280
     0
102
RTVSPost2010PropOp35
 70
     1
102
RTVSPost2010Prop36
280
     0
102
RTVSPost2010PropOp36
 70
     1
102
RTVSPost2010Prop37
 90
       50
102
RTVSPost2010PropOp37
 70
     1
102
RTVSPost2010Prop38
140
0.0
102
RTVSPost2010PropOp38
 70
     1
102
RTVSPost2010Prop39
140
1.0
102
RTVSPost2010PropOp39
 70
     1
102
RTVSPost2010Prop40
 90
        0
102
RTVSPost2010PropOp40
 70
     1
102
RTVSPost2010Prop41ColorIndex
 90
       18
102
RTVSPost2010Prop41ColorRGB
 90
        0
102
RTVSPost2010PropOp41
 70
     1
102
RTVSPost2010Prop42
 90
       50
102
RTVSPost2010PropOp42
 70
     1
102
RTVSPost2010Prop43
 90
        3
102
RTVSPost2010PropOp43
 70
     1
102
RTVSPost2010Prop44ColorIndex
 90
        5
102
RTVSPost2010Prop44ColorRGB
 90
      255
102
RTVSPost2010PropOp44
 70
     1
102
RTVSPost2010Prop45
280
     0
102
RTVSPost2010PropOp45
 70
     1
102
RTVSPost2010Prop46
 90
       50
102
RTVSPost2010PropOp46
 70
     1
102
RTVSPost2010Prop47
 90
       50
102
RTVSPost2010PropOp47
 70
     1
102
RTVSPost2010Prop48
 90
       50
102
RTVSPost2010PropOp48
 70
     1
102
RTVSPost2010Prop49
280
     0
102
RTVSPost2010PropOp49
 70
     1
102
RTVSPost2010Prop50
 90
       50
102
RTVSPost2010PropOp50
 70
     1
102
RTVSPost2010Prop51ColorIndex
 90
      256
102
RTVSPost2010Prop51ColorRGB
 90
-16777216
102
RTVSPost2010PropOp51
 70
     0
102
RTVSPost2010Prop52
140
1.0
102
RTVSPost2010PropOp52
 70
     0
102
RTVSPost2010Prop53
 90
        2
102
RTVSPost2010PropOp53
 70
     1
102
RTVSPost2010Prop54
  1
strokes_ogs.tif
102
RTVSPost2010PropOp54
 70
     1
102
RTVSPost2010Prop55
280
     0
102
RTVSPost2010PropOp55
 70
     1
102
RTVSPost2010Prop56
140
1.0
102
RTVSPost2010PropOp56
 70
     1
102
RTVSPost2010Prop57
140
1.0
102
RTVSPost2010PropOp57
 70
     1
  0
XRECORD
  5
25C
102
{ACAD_REACTORS
330
25B
102
}
330
25B
100
AcDbXrecord
280
     1
102
RTVSPropertyOp0
 70
     1
102
RTVSPropertyOp1
 70
     1
102
RTVSPropertyOp2
 70
     1
102
RTVSPropertyOp3
 70
     1
102
RTVSPropertyOp4
 70
     1
102
RTVSPropertyOp5
 70
     1
102
RTVSPropertyOp6
 70
     1
102
RTVSPropertyOp7
 70
     1
102
RTVSPropertyOp8
 70
     1
102
RTVSPropertyOp9
 70
     1
102
RTVSPropertyOp10
 70
     1
102
RTVSPropertyOp11
 70
     1
102
RTVSPropertyOp12
 70
     1
102
RTVSPropertyOp13
 70
     1
102
RTVSPropertyOp14
 70
     1
102
RTVSPropertyOp15
 70
     1
102
RTVSPropertyOp16
 70
     1
102
RTVSPropertyOp17
 70
     1
102
RTVSPropertyOp18
 70
     1
102
RTVSPropertyOp19
 70
     1
102
RTVSPropertyOp20
 70
     1
102
RTVSPropertyOp21
 70
     1
102
RTVSPropertyOp22
 70
     1
102
RTVSPropertyOp23
 70
     1
102
RTVSPropertyOp24
 70
     1
102
RTVSPropertyOp25
 70
     1
102
RTVSPropertyOp26
 70
     1
102
RTVSPropertyOp27
 70
     1
102
RTVSPropertyOp28
 70
     1
102
RTVSPropertyOp29
 70
     1
102
RTVSPropertyOp30
 70
     1
102
RTVSPropertyOp31
 70
     1
102
RTVSPropertyOp32
 70
     1
102
RTVSPropertyOp33
 70
     1
102
RTVSPropertyOp34
 70
     1
102
RTVSPropertyOp35
 70
     1
102
RTVSPropertyOp36
 70
     1
102
RTVSPropertyOp37
 70
     1
102
RTVSPropertyOp38
 70
     1
102
RTVSPropertyOp39
 70
     1
102
RTVSPropertyOp40
 70
     1
102
RTVSPropertyOp41
 70
     1
102
RTVSPropertyOp42
 70
     1
102
RTVSPropertyOp43
 70
     1
102
RTVSPropertyOp44
 70
     1
102
RTVSPropertyOp45
 70
     1
102
RTVSPropertyOp46
 70
     1
102
RTVSPropertyOp47
 70
     1
102
RTVSPropertyOp48
 70
     1
102
RTVSPropertyOp49
 70
     1
102
RTVSPropertyOp50
 70
     1
102
RTVSPropertyOp51
 70
     0
102
RTVSPropertyOp52
 70
     0
102
RTVSPropertyOp53
 70
     1
102
RTVSPropertyOp54
 70
     1
102
RTVSPropertyOp55
 70
     1
102
RTVSPropertyOp56
 70
     1
102
RTVSPropertyOp57
 70
     1
102
RTVSPost2010Prop28
280
     0
102
RTVSPost2010PropOp28
 70
     1
102
RTVSPost2010Prop29
280
     1
102
RTVSPost2010PropOp29
 70
     1
102
RTVSPost2010Prop30
280
     1
102
RTVSPost2010PropOp30
 70
     1
102
RTVSPost2010Prop31
280
     0
102
RTVSPost2010PropOp31
 70
     1
102
RTVSPost2010Prop32
280
     0
102
RTVSPost2010PropOp32
 70
     1
102
RTVSPost2010Prop33
280
     0
102
RTVSPost2010PropOp33
 70
     1
102
RTVSPost2010Prop34
280
     0
102
RTVSPost2010PropOp34
 70
     1
102
RTVSPost2010Prop35
280
     0
102
RTVSPost2010PropOp35
 70
     1
102
RTVSPost2010Prop36
280
     0
102
RTVSPost2010PropOp36
 70
     1
102
RTVSPost2010Prop37
 90
       50
102
RTVSPost2010PropOp37
 70
     1
102
RTVSPost2010Prop38
140
0.0
102
RTVSPost2010PropOp38
 70
     1
102
RTVSPost2010Prop39
140
1.0
102
RTVSPost2010PropOp39
 70
     1
102
RTVSPost2010Prop40
 90
        0
102
RTVSPost2010PropOp40
 70
     1
102
RTVSPost2010Prop41ColorIndex
 90
       18
102
RTVSPost2010Prop41ColorRGB
 90
        0
102
RTVSPost2010PropOp41
 70
     1
102
RTVSPost2010Prop42
 90
       50
102
RTVSPost2010PropOp42
 70
     1
102
RTVSPost2010Prop43
 90
        3
102
RTVSPost2010PropOp43
 70
     1
102
RTVSPost2010Prop44ColorIndex
 90
        5
102
RTVSPost2010Prop44ColorRGB
 90
      255
102
RTVSPost2010PropOp44
 70
     1
102
RTVSPost2010Prop45
280
     0
102
RTVSPost2010PropOp45
 70
     1
102
RTVSPost2010Prop46
 90
       50
102
RTVSPost2010PropOp46
 70
     1
102
RTVSPost2010Prop47
 90
       50
102
RTVSPost2010PropOp47
 70
     1
102
RTVSPost2010Prop48
 90
       50
102
RTVSPost2010PropOp48
 70
     1
102
RTVSPost2010Prop49
280
     0
102
RTVSPost2010PropOp49
 70
     1
102
RTVSPost2010Prop50
 90
       50
102
RTVSPost2010PropOp50
 70
     1
102
RTVSPost2010Prop51ColorIndex
 90
      256
102
RTVSPost2010Prop51ColorRGB
 90
-16777216
102
RTVSPost2010PropOp51
 70
     0
102
RTVSPost2010Prop52
140
1.0
102
RTVSPost2010PropOp52
 70
     0
102
RTVSPost2010Prop53
 90
        2
102
RTVSPost2010PropOp53
 70
     1
102
RTVSPost2010Prop54
  1
strokes_ogs.tif
102
RTVSPost2010PropOp54
 70
     1
102
RTVSPost2010Prop55
280
     0
102
RTVSPost2010PropOp55
 70
     1
102
RTVSPost2010Prop56
140
1.0
102
RTVSPost2010PropOp56
 70
     1
102
RTVSPost2010Prop57
140
1.0
102
RTVSPost2010PropOp57
 70
     1
  0
XRECORD
  5
27C
102
{ACAD_REACTORS
330
27B
102
}
330
27B
100
AcDbXrecord
280
     1
102
RTVSPropertyOp0
 70
     1
102
RTVSPropertyOp1
 70
     1
102
RTVSPropertyOp2
 70
     1
102
RTVSPropertyOp3
 70
     1
102
RTVSPropertyOp4
 70
     1
102
RTVSPropertyOp5
 70
     1
102
RTVSPropertyOp6
 70
     1
102
RTVSPropertyOp7
 70
     1
102
RTVSPropertyOp8
 70
     1
102
RTVSPropertyOp9
 70
     1
102
RTVSPropertyOp10
 70
     1
102
RTVSPropertyOp11
 70
     1
102
RTVSPropertyOp12
 70
     1
102
RTVSPropertyOp13
 70
     1
102
RTVSPropertyOp14
 70
     1
102
RTVSPropertyOp15
 70
     1
102
RTVSPropertyOp16
 70
     1
102
RTVSPropertyOp17
 70
     1
102
RTVSPropertyOp18
 70
     1
102
RTVSPropertyOp19
 70
     1
102
RTVSPropertyOp20
 70
     1
102
RTVSPropertyOp21
 70
     1
102
RTVSPropertyOp22
 70
     1
102
RTVSPropertyOp23
 70
     1
102
RTVSPropertyOp24
 70
     1
102
RTVSPropertyOp25
 70
     1
102
RTVSPropertyOp26
 70
     1
102
RTVSPropertyOp27
 70
     1
102
RTVSPropertyOp28
 70
     1
102
RTVSPropertyOp29
 70
     1
102
RTVSPropertyOp30
 70
     1
102
RTVSPropertyOp31
 70
     1
102
RTVSPropertyOp32
 70
     1
102
RTVSPropertyOp33
 70
     1
102
RTVSPropertyOp34
 70
     1
102
RTVSPropertyOp35
 70
     1
102
RTVSPropertyOp36
 70
     1
102
RTVSPropertyOp37
 70
     1
102
RTVSPropertyOp38
 70
     1
102
RTVSPropertyOp39
 70
     1
102
RTVSPropertyOp40
 70
     1
102
RTVSPropertyOp41
 70
     1
102
RTVSPropertyOp42
 70
     1
102
RTVSPropertyOp43
 70
     1
102
RTVSPropertyOp44
 70
     1
102
RTVSPropertyOp45
 70
     1
102
RTVSPropertyOp46
 70
     1
102
RTVSPropertyOp47
 70
     1
102
RTVSPropertyOp48
 70
     1
102
RTVSPropertyOp49
 70
     1
102
RTVSPropertyOp50
 70
     1
102
RTVSPropertyOp51
 70
     0
102
RTVSPropertyOp52
 70
     0
102
RTVSPropertyOp53
 70
     1
102
RTVSPropertyOp54
 70
     1
102
RTVSPropertyOp55
 70
     1
102
RTVSPropertyOp56
 70
     1
102
RTVSPropertyOp57
 70
     1
102
RTVSPost2010Prop28
280
     0
102
RTVSPost2010PropOp28
 70
     1
102
RTVSPost2010Prop29
280
     1
102
RTVSPost2010PropOp29
 70
     1
102
RTVSPost2010Prop30
280
     1
102
RTVSPost2010PropOp30
 70
     1
102
RTVSPost2010Prop31
280
     0
102
RTVSPost2010PropOp31
 70
     1
102
RTVSPost2010Prop32
280
     0
102
RTVSPost2010PropOp32
 70
     1
102
RTVSPost2010Prop33
280
     0
102
RTVSPost2010PropOp33
 70
     1
102
RTVSPost2010Prop34
280
     0
102
RTVSPost2010PropOp34
 70
     1
102
RTVSPost2010Prop35
280
     0
102
RTVSPost2010PropOp35
 70
     1
102
RTVSPost2010Prop36
280
     0
102
RTVSPost2010PropOp36
 70
     1
102
RTVSPost2010Prop37
 90
       50
102
RTVSPost2010PropOp37
 70
     1
102
RTVSPost2010Prop38
140
0.0
102
RTVSPost2010PropOp38
 70
     1
102
RTVSPost2010Prop39
140
1.0
102
RTVSPost2010PropOp39
 70
     1
102
RTVSPost2010Prop40
 90
        0
102
RTVSPost2010PropOp40
 70
     1
102
RTVSPost2010Prop41ColorIndex
 90
       18
102
RTVSPost2010Prop41ColorRGB
 90
        0
102
RTVSPost2010PropOp41
 70
     1
102
RTVSPost2010Prop42
 90
       50
102
RTVSPost2010PropOp42
 70
     1
102
RTVSPost2010Prop43
 90
        3
102
RTVSPost2010PropOp43
 70
     1
102
RTVSPost2010Prop44ColorIndex
 90
        5
102
RTVSPost2010Prop44ColorRGB
 90
      255
102
RTVSPost2010PropOp44
 70
     1
102
RTVSPost2010Prop45
280
     0
102
RTVSPost2010PropOp45
 70
     1
102
RTVSPost2010Prop46
 90
       50
102
RTVSPost2010PropOp46
 70
     1
102
RTVSPost2010Prop47
 90
       50
102
RTVSPost2010PropOp47
 70
     1
102
RTVSPost2010Prop48
 90
       50
102
RTVSPost2010PropOp48
 70
     1
102
RTVSPost2010Prop49
280
     0
102
RTVSPost2010PropOp49
 70
     1
102
RTVSPost2010Prop50
 90
       50
102
RTVSPost2010PropOp50
 70
     1
102
RTVSPost2010Prop51ColorIndex
 90
      256
102
RTVSPost2010Prop51ColorRGB
 90
-16777216
102
RTVSPost2010PropOp51
 70
     0
102
RTVSPost2010Prop52
140
1.0
102
RTVSPost2010PropOp52
 70
     0
102
RTVSPost2010Prop53
 90
        2
102
RTVSPost2010PropOp53
 70
     1
102
RTVSPost2010Prop54
  1
strokes_ogs.tif
102
RTVSPost2010PropOp54
 70
     1
102
RTVSPost2010Prop55
280
     0
102
RTVSPost2010PropOp55
 70
     1
102
RTVSPost2010Prop56
140
1.0
102
RTVSPost2010PropOp56
 70
     1
102
RTVSPost2010Prop57
140
1.0
102
RTVSPost2010PropOp57
 70
     1
  0
ENDSEC
  0
EOF
