  0
SECTION
  2
HEADER
  9
$ACADVER
  1
AC1015
  9
$ACADMAINTVER
 70
     6
  9
$DWGCODEPAGE
  3
ANSI_1252
  9
$INSBASE
 10
0.0
 20
0.0
 30
0.0
  9
$EXTMIN
 10
-105.0000000000001
 20
0.0
 30
0.0
  9
$EXTMAX
 10
0.0
 20
148.5000000000001
 30
0.0
  9
$LIMMIN
 10
0.0
 20
0.0
  9
$LIMMAX
 10
12.0
 20
9.0
  9
$ORTHOMODE
 70
     0
  9
$REGENMODE
 70
     1
  9
$FILLMODE
 70
     1
  9
$QTEXTMODE
 70
     0
  9
$MIRRTEXT
 70
     1
  9
$LTSCALE
 40
1.0
  9
$ATTMODE
 70
     1
  9
$TEXTSIZE
 40
0.2
  9
$TRACEWID
 40
0.05
  9
$TEXTSTYLE
  7
Standard
  9
$CLAYER
  8
0
  9
$CELTYPE
  6
ByLayer
  9
$CECOLOR
 62
   256
  9
$CELTSCALE
 40
1.0
  9
$DISPSILH
 70
     0
  9
$DIMSCALE
 40
1.0
  9
$DIMASZ
 40
0.18
  9
$DIMEXO
 40
0.0625
  9
$DIMDLI
 40
0.38
  9
$DIMRND
 40
0.0
  9
$DIMDLE
 40
0.0
  9
$DIMEXE
 40
0.18
  9
$DIMTP
 40
0.0
  9
$DIMTM
 40
0.0
  9
$DIMTXT
 40
0.18
  9
$DIMCEN
 40
0.09
  9
$DIMTSZ
 40
0.0
  9
$DIMTOL
 70
     0
  9
$DIMLIM
 70
     0
  9
$DIMTIH
 70
     1
  9
$DIMTOH
 70
     1
  9
$DIMSE1
 70
     0
  9
$DIMSE2
 70
     0
  9
$DIMTAD
 70
     0
  9
$DIMZIN
 70
     0
  9
$DIMBLK
  1

  9
$DIMASO
 70
     1
  9
$DIMSHO
 70
     1
  9
$DIMPOST
  1

  9
$DIMAPOST
  1

  9
$DIMALT
 70
     0
  9
$DIMALTD
 70
     2
  9
$DIMALTF
 40
25.4
  9
$DIMLFAC
 40
1.0
  9
$DIMTOFL
 70
     0
  9
$DIMTVP
 40
0.0
  9
$DIMTIX
 70
     0
  9
$DIMSOXD
 70
     0
  9
$DIMSAH
 70
     0
  9
$DIMBLK1
  1

  9
$DIMBLK2
  1

  9
$DIMSTYLE
  2
Standard
  9
$DIMCLRD
 70
     0
  9
$DIMCLRE
 70
     0
  9
$DIMCLRT
 70
     0
  9
$DIMTFAC
 40
1.0
  9
$DIMGAP
 40
0.09
  9
$DIMJUST
 70
     0
  9
$DIMSD1
 70
     0
  9
$DIMSD2
 70
     0
  9
$DIMTOLJ
 70
     1
  9
$DIMTZIN
 70
     0
  9
$DIMALTZ
 70
     0
  9
$DIMALTTZ
 70
     0
  9
$DIMUPT
 70
     0
  9
$DIMDEC
 70
     4
  9
$DIMTDEC
 70
     4
  9
$DIMALTU
 70
     2
  9
$DIMALTTD
 70
     2
  9
$DIMTXSTY
  7
Standard
  9
$DIMAUNIT
 70
     0
  9
$DIMADEC
 70
     0
  9
$DIMALTRND
 40
0.0
  9
$DIMAZIN
 70
     0
  9
$DIMDSEP
 70
    46
  9
$DIMATFIT
 70
     3
  9
$DIMFRAC
 70
     0
  9
$DIMLDRBLK
  1

  9
$DIMLUNIT
 70
     2
  9
$DIMLWD
 70
    -2
  9
$DIMLWE
 70
    -2
  9
$DIMTMOVE
 70
     0
  9
$LUNITS
 70
     2
  9
$LUPREC
 70
     4
  9
$SKETCHINC
 40
0.1
  9
$FILLETRAD
 40
0.5
  9
$AUNITS
 70
     0
  9
$AUPREC
 70
     0
  9
$MENU
  1
.
  9
$ELEVATION
 40
0.0
  9
$PELEVATION
 40
0.0
  9
$THICKNESS
 40
0.0
  9
$LIMCHECK
 70
     0
  9
$CHAMFERA
 40
0.5
  9
$CHAMFERB
 40
0.5
  9
$CHAMFERC
 40
1.0
  9
$CHAMFERD
 40
0.0
  9
$SKPOLY
 70
     0
  9
$TDCREATE
 40
2457203.650342859
  9
$TDUCREATE
 40
2457203.567009525
  9
$TDUPDATE
 40
2457203.650342859
  9
$TDUUPDATE
 40
2457203.567009525
  9
$TDINDWG
 40
0.0000000116
  9
$TDUSRTIMER
 40
0.0000000116
  9
$USRTIMER
 70
     1
  9
$ANGBASE
 50
0.0
  9
$ANGDIR
 70
     0
  9
$PDMODE
 70
     0
  9
$PDSIZE
 40
0.0
  9
$PLINEWID
 40
0.0
  9
$SPLFRAME
 70
     0
  9
$SPLINETYPE
 70
     6
  9
$SPLINESEGS
 70
     8
  9
$HANDSEED
  5
24E
  9
$SURFTAB1
 70
     6
  9
$SURFTAB2
 70
     6
  9
$SURFTYPE
 70
     6
  9
$SURFU
 70
     6
  9
$SURFV
 70
     6
  9
$UCSBASE
  2

  9
$UCSNAME
  2

  9
$UCSORG
 10
0.0
 20
0.0
 30
0.0
  9
$UCSXDIR
 10
1.0
 20
0.0
 30
0.0
  9
$UCSYDIR
 10
0.0
 20
1.0
 30
0.0
  9
$UCSORTHOREF
  2

  9
$UCSORTHOVIEW
 70
     0
  9
$UCSORGTOP
 10
0.0
 20
0.0
 30
0.0
  9
$UCSORGBOTTOM
 10
0.0
 20
0.0
 30
0.0
  9
$UCSORGLEFT
 10
0.0
 20
0.0
 30
0.0
  9
$UCSORGRIGHT
 10
0.0
 20
0.0
 30
0.0
  9
$UCSORGFRONT
 10
0.0
 20
0.0
 30
0.0
  9
$UCSORGBACK
 10
0.0
 20
0.0
 30
0.0
  9
$PUCSBASE
  2

  9
$PUCSNAME
  2

  9
$PUCSORG
 10
0.0
 20
0.0
 30
0.0
  9
$PUCSXDIR
 10
1.0
 20
0.0
 30
0.0
  9
$PUCSYDIR
 10
0.0
 20
1.0
 30
0.0
  9
$PUCSORTHOREF
  2

  9
$PUCSORTHOVIEW
 70
     0
  9
$PUCSORGTOP
 10
0.0
 20
0.0
 30
0.0
  9
$PUCSORGBOTTOM
 10
0.0
 20
0.0
 30
0.0
  9
$PUCSORGLEFT
 10
0.0
 20
0.0
 30
0.0
  9
$PUCSORGRIGHT
 10
0.0
 20
0.0
 30
0.0
  9
$PUCSORGFRONT
 10
0.0
 20
0.0
 30
0.0
  9
$PUCSORGBACK
 10
0.0
 20
0.0
 30
0.0
  9
$USERI1
 70
     0
  9
$USERI2
 70
     0
  9
$USERI3
 70
     0
  9
$USERI4
 70
     0
  9
$USERI5
 70
     0
  9
$USERR1
 40
18.1
  9
$USERR2
 40
0.0
  9
$USERR3
 40
0.0
  9
$USERR4
 40
0.0
  9
$USERR5
 40
0.0
  9
$WORLDVIEW
 70
     1
  9
$SHADEDGE
 70
     3
  9
$SHADEDIF
 70
    70
  9
$TILEMODE
 70
     1
  9
$MAXACTVP
 70
    64
  9
$PINSBASE
 10
0.0
 20
0.0
 30
0.0
  9
$PLIMCHECK
 70
     0
  9
$PEXTMIN
 10
1.00000000000000E+20
 20
1.00000000000000E+20
 30
1.00000000000000E+20
  9
$PEXTMAX
 10
-1.00000000000000E+20
 20
-1.00000000000000E+20
 30
-1.00000000000000E+20
  9
$PLIMMIN
 10
0.0
 20
0.0
  9
$PLIMMAX
 10
12.0
 20
9.0
  9
$UNITMODE
 70
     0
  9
$VISRETAIN
 70
     1
  9
$PLINEGEN
 70
     0
  9
$PSLTSCALE
 70
     1
  9
$TREEDEPTH
 70
  3020
  9
$CMLSTYLE
  2
Standard
  9
$CMLJUST
 70
     0
  9
$CMLSCALE
 40
1.0
  9
$PROXYGRAPHICS
 70
     1
  9
$MEASUREMENT
 70
     1
  9
$CELWEIGHT
370
    -1
  9
$ENDCAPS
280
     0
  9
$JOINSTYLE
280
     0
  9
$LWDISPLAY
290
     0
  9
$INSUNITS
 70
     4
  9
$HYPERLINKBASE
  1

  9
$STYLESHEET
  1

  9
$XEDIT
290
     1
  9
$CEPSNTYPE
380
     0
  9
$PSTYLEMODE
290
     1
  9
$FINGERPRINTGUID
  2
{66F0D5AE-EDF7-4D54-942E-2BF1C8BEC6FA}
  9
$VERSIONGUID
  2
{FAEB1C32-E019-11D5-929B-00C0DF256EC4}
  9
$EXTNAMES
290
     1
  9
$PSVPSCALE
 40
0.0
  9
$OLESTARTUP
290
     0
  0
ENDSEC
  0
SECTION
  2
CLASSES
  0
CLASS
  1
ACDBDICTIONARYWDFLT
  2
AcDbDictionaryWithDefault
  3
ObjectDBX Classes
 90
        0
280
     0
281
     0
  0
CLASS
  1
VISUALSTYLE
  2
AcDbVisualStyle
  3
ObjectDBX Classes
 90
     4095
280
     0
281
     0
  0
CLASS
  1
MATERIAL
  2
AcDbMaterial
  3
ObjectDBX Classes
 90
     1153
280
     0
281
     0
  0
CLASS
  1
DICTIONARYVAR
  2
AcDbDictionaryVar
  3
ObjectDBX Classes
 90
        0
280
     0
281
     0
  0
CLASS
  1
ACDBPLACEHOLDER
  2
AcDbPlaceHolder
  3
ObjectDBX Classes
 90
        0
280
     0
281
     0
  0
CLASS
  1
LAYOUT
  2
AcDbLayout
  3
ObjectDBX Classes
 90
        0
280
     0
281
     0
  0
ENDSEC
  0
SECTION
  2
TABLES
  0
TABLE
  2
VPORT
  5
8
330
0
100
AcDbSymbolTable
 70
     1
  0
VPORT
  5
29
330
8
100
AcDbSymbolTableRecord
100
AcDbViewportTableRecord
  2
*Active
 70
     0
 10
0.0
 20
0.0
 11
1.0
 21
1.0
 12
-52.50000000000005
 22
74.25000000000006
 13
0.0
 23
0.0
 14
0.5
 24
0.5
 15
0.5
 25
0.5
 16
0.0
 26
0.0
 36
1.0
 17
0.0
 27
0.0
 37
0.0
 40
163.3500000000001
 41
1.60267857142857
 42
50.0
 43
0.0
 44
0.0
 50
0.0
 51
0.0
 71
     0
 72
   100
 73
     1
 74
     3
 75
     0
 76
     0
 77
     0
 78
     0
281
     0
 65
     1
110
0.0
120
0.0
130
0.0
111
1.0
121
0.0
131
0.0
112
0.0
122
1.0
132
0.0
 79
     0
146
0.0
  0
ENDTAB
  0
TABLE
  2
LTYPE
  5
5
330
0
100
AcDbSymbolTable
 70
     8
  0
LTYPE
  5
14
330
5
100
AcDbSymbolTableRecord
100
AcDbLinetypeTableRecord
  2
ByBlock
 70
     0
  3

 72
    65
 73
     0
 40
0.0
  0
LTYPE
  5
15
330
5
100
AcDbSymbolTableRecord
100
AcDbLinetypeTableRecord
  2
ByLayer
 70
     0
  3

 72
    65
 73
     0
 40
0.0
  0
LTYPE
  5
16
330
5
100
AcDbSymbolTableRecord
100
AcDbLinetypeTableRecord
  2
Continuous
 70
     0
  3
Solid line
 72
    65
 73
     0
 40
0.0
  0
LTYPE
  5
3F
330
5
100
AcDbSymbolTableRecord
100
AcDbLinetypeTableRecord
  2
DASHED
 70
     0
  3
Dashed
 72
    65
 73
     2
 40
15.0
 49
7.0
 74
     0
 49
-8.0
 74
     0
  0
LTYPE
  5
40
330
5
100
AcDbSymbolTableRecord
100
AcDbLinetypeTableRecord
  2
DOTTED
 70
     0
  3
Dotted
 72
    65
 73
     2
 40
1.0
 49
0.0
 74
     0
 49
-1.0
 74
     0
  0
LTYPE
  5
41
330
5
100
AcDbSymbolTableRecord
100
AcDbLinetypeTableRecord
  2
DOT_CENTER
 70
     0
  3
Dot_Center
 72
    65
 73
     4
 40
14.0
 49
12.0
 74
     0
 49
-1.0
 74
     0
 49
0.0
 74
     0
 49
-1.0
 74
     0
  0
LTYPE
  5
42
330
5
100
AcDbSymbolTableRecord
100
AcDbLinetypeTableRecord
  2
LONG_DASHED
 70
     0
  3
Long_Dashed
 72
    65
 73
     2
 40
15.0
 49
10.0
 74
     0
 49
-5.0
 74
     0
  0
LTYPE
  5
43
330
5
100
AcDbSymbolTableRecord
100
AcDbLinetypeTableRecord
  2
DASH_CENTER
 70
     0
  3
Dash_Center
 72
    65
 73
     4
 40
14.0
 49
11.0
 74
     0
 49
-1.0
 74
     0
 49
1.0
 74
     0
 49
-1.0
 74
     0
  0
LTYPE
  5
44
330
5
100
AcDbSymbolTableRecord
100
AcDbLinetypeTableRecord
  2
PHANTOM
 70
     0
  3
Phantom
 72
    65
 73
     6
 40
13.0
 49
10.0
 74
     0
 49
-1.0
 74
     0
 49
0.0
 74
     0
 49
-1.0
 74
     0
 49
0.0
 74
     0
 49
-1.0
 74
     0
  0
LTYPE
  5
45
330
5
100
AcDbSymbolTableRecord
100
AcDbLinetypeTableRecord
  2
CENTER_DASH_DASH
 70
     0
  3
Center_Dash_Dash
 72
    65
 73
     6
 40
14.0
 49
9.0
 74
     0
 49
-1.0
 74
     0
 49
1.0
 74
     0
 49
-1.0
 74
     0
 49
1.0
 74
     0
 49
-1.0
 74
     0
  0
ENDTAB
  0
TABLE
  2
LAYER
  5
2
330
0
100
AcDbSymbolTable
 70
     2
  0
LAYER
  5
10
330
2
100
AcDbSymbolTableRecord
100
AcDbLayerTableRecord
  2
0
 70
     0
 62
     7
  6
Continuous
370
    -3
390
F
  0
LAYER
  5
46
330
2
100
AcDbSymbolTableRecord
100
AcDbLayerTableRecord
  2
1
 70
     0
 62
     7
  6
Continuous
370
    -3
390
F
  0
ENDTAB
  0
TABLE
  2
STYLE
  5
3
330
0
100
AcDbSymbolTable
 70
     5
  0
STYLE
  5
11
330
3
100
AcDbSymbolTableRecord
100
AcDbTextStyleTableRecord
  2
Standard
 70
     0
 40
0.0
 41
1.0
 50
0.0
 71
     0
 42
0.2
  3
txt
  4

  0
STYLE
  5
1A4
330
3
100
AcDbSymbolTableRecord
100
AcDbTextStyleTableRecord
  2
CONVERTER_11
 70
     0
 40
0.0
 41
0.9025
 50
0.0
 71
     0
 42
0.2
  3
simplex.shx
  4

  0
STYLE
  5
1A6
330
3
100
AcDbSymbolTableRecord
100
AcDbTextStyleTableRecord
  2
CONVERTER_12
 70
     0
 40
0.0
 41
0.95
 50
0.0
 71
     0
 42
0.2
  3
simplex.shx
  4

  0
STYLE
  5
1B9
330
3
100
AcDbSymbolTableRecord
100
AcDbTextStyleTableRecord
  2
CONVERTER_13
 70
     0
 40
0.0
 41
0.7885
 50
0.0
 71
     0
 42
0.2
  3
simplex.shx
  4

  0
STYLE
  5
1C5
330
3
100
AcDbSymbolTableRecord
100
AcDbTextStyleTableRecord
  2
CONVERTER_14
 70
     0
 40
0.0
 41
1.2
 50
0.0
 71
     0
 42
0.2
  3
ARIAL.TTF
  4

  0
ENDTAB
  0
TABLE
  2
VIEW
  5
6
330
0
100
AcDbSymbolTable
 70
     0
  0
ENDTAB
  0
TABLE
  2
UCS
  5
7
330
0
100
AcDbSymbolTable
 70
     0
  0
ENDTAB
  0
TABLE
  2
APPID
  5
9
330
0
100
AcDbSymbolTable
 70
     1
  0
APPID
  5
12
330
9
100
AcDbSymbolTableRecord
100
AcDbRegAppTableRecord
  2
ACAD
 70
     0
  0
ENDTAB
  0
TABLE
  2
DIMSTYLE
  5
A
330
0
100
AcDbSymbolTable
 70
     6
100
AcDbDimStyleTable
  0
DIMSTYLE
105
27
330
A
100
AcDbSymbolTableRecord
100
AcDbDimStyleTableRecord
  2
Standard
 70
     0
178
     0
340
11
  0
DIMSTYLE
105
1E9
102
{ACAD_REACTORS
330
1EA
102
}
330
A
100
AcDbSymbolTableRecord
100
AcDbDimStyleTableRecord
  2
ME10_DIM_10
 70
     0
  3
ø<>
 41
1.5
 42
0.25
 44
0.5
 77
     1
 78
     8
140
1.5
147
1.0
172
     1
173
     1
174
     1
175
     1
176
     2
177
     2
271
     2
178
     4
271
     2
340
1A6
  0
DIMSTYLE
105
1F6
102
{ACAD_REACTORS
330
1F7
102
}
330
A
100
AcDbSymbolTableRecord
100
AcDbDimStyleTableRecord
  2
ME10_DIM_11
 70
     0
  3
ø<>
 41
1.5
 42
0.25
 44
0.5
 77
     1
 78
     8
140
1.5
147
1.0
172
     1
173
     1
174
     1
175
     1
176
     2
177
     2
271
     2
178
     4
271
     2
340
1A6
  0
DIMSTYLE
105
202
102
{ACAD_REACTORS
330
203
102
}
330
A
100
AcDbSymbolTableRecord
100
AcDbDimStyleTableRecord
  2
ME10_DIM_12
 70
     0
 41
1.5
 42
0.25
 44
0.5
 77
     1
 78
     8
140
1.5
147
1.0
172
     1
173
     1
174
     1
175
     1
176
     2
177
     2
271
     2
178
     4
271
     2
340
1A6
  0
DIMSTYLE
105
20E
102
{ACAD_REACTORS
330
20F
102
}
330
A
100
AcDbSymbolTableRecord
100
AcDbDimStyleTableRecord
  2
ME10_DIM_13
 70
     0
 41
1.5
 42
0.25
 44
0.5
 77
     1
 78
     8
140
1.5
147
1.0
172
     1
173
     1
174
     1
175
     1
176
     2
177
     2
271
     2
178
     4
271
     2
340
1A6
  0
DIMSTYLE
105
21B
102
{ACAD_REACTORS
330
21C
102
}
330
A
100
AcDbSymbolTableRecord
100
AcDbDimStyleTableRecord
  2
ME10_DIM_14
 70
     0
  3
ø<>
 41
1.5
 42
0.25
 44
0.5
 77
     1
 78
     8
140
1.5
147
1.0
172
     1
173
     1
174
     1
175
     1
176
     2
177
     2
271
     2
178
     4
271
     2
340
1A6
  0
ENDTAB
  0
TABLE
  2
BLOCK_RECORD
  5
1
330
0
100
AcDbSymbolTable
 70
     6
  0
BLOCK_RECORD
  5
1F
330
1
100
AcDbSymbolTableRecord
100
AcDbBlockTableRecord
  2
*Model_Space
340
22
  0
BLOCK_RECORD
  5
1B
330
1
100
AcDbSymbolTableRecord
100
AcDbBlockTableRecord
  2
*Paper_Space
340
1E
  0
BLOCK_RECORD
  5
23
330
1
100
AcDbSymbolTableRecord
100
AcDbBlockTableRecord
  2
*Paper_Space0
340
26
  0
BLOCK_RECORD
  5
1E0
330
1
100
AcDbSymbolTableRecord
100
AcDbBlockTableRecord
  2
*D1
340
0
  0
BLOCK_RECORD
  5
1EB
330
1
100
AcDbSymbolTableRecord
100
AcDbBlockTableRecord
  2
*D2
340
0
  0
BLOCK_RECORD
  5
1F8
330
1
100
AcDbSymbolTableRecord
100
AcDbBlockTableRecord
  2
*D3
340
0
  0
BLOCK_RECORD
  5
204
330
1
100
AcDbSymbolTableRecord
100
AcDbBlockTableRecord
  2
*D4
340
0
  0
BLOCK_RECORD
  5
210
330
1
100
AcDbSymbolTableRecord
100
AcDbBlockTableRecord
  2
*D5
340
0
  0
ENDTAB
  0
ENDSEC
  0
SECTION
  2
BLOCKS
  0
BLOCK
  5
20
330
1F
100
AcDbEntity
  8
0
100
AcDbBlockBegin
  2
*Model_Space
 70
     0
 10
0.0
 20
0.0
 30
0.0
  3
*Model_Space
  1

  0
ENDBLK
  5
21
330
1F
100
AcDbEntity
  8
0
100
AcDbBlockEnd
  0
BLOCK
  5
1C
330
1B
100
AcDbEntity
 67
     1
  8
0
100
AcDbBlockBegin
  2
*Paper_Space
 70
     0
 10
0.0
 20
0.0
 30
0.0
  3
*Paper_Space
  1

  0
ENDBLK
  5
1D
330
1B
100
AcDbEntity
 67
     1
  8
0
100
AcDbBlockEnd
  0
BLOCK
  5
24
330
23
100
AcDbEntity
  8
0
100
AcDbBlockBegin
  2
*Paper_Space0
 70
     0
 10
0.0
 20
0.0
 30
0.0
  3
*Paper_Space0
  1

  0
ENDBLK
  5
25
330
23
100
AcDbEntity
  8
0
100
AcDbBlockEnd
  0
BLOCK
  5
1E7
330
1E0
100
AcDbEntity
  8
0
100
AcDbBlockBegin
  2
*D1
 70
     1
 10
0.0
 20
0.0
 30
0.0
  3
*D1
  1

  0
LINE
  5
1E1
330
1E0
100
AcDbEntity
  8
1
  6
Continuous
 62
     2
100
AcDbLine
 10
-66.58612531832759
 20
115.542369643942
 30
0.0
 11
-62.08612531832762
 21
115.542369643942
 31
0.0
  0
LINE
  5
1E2
330
1E0
100
AcDbEntity
  8
1
  6
Continuous
 62
     2
100
AcDbLine
 10
-66.58612531832759
 20
113.2040627750185
 30
0.0
 11
-66.58612531832759
 21
116.042369643942
 31
0.0
  0
LINE
  5
1E3
330
1E0
100
AcDbEntity
  8
1
  6
Continuous
 62
     2
100
AcDbLine
 10
-62.08612531832762
 20
113.2040627750185
 30
0.0
 11
-62.08612531832762
 21
116.042369643942
 31
0.0
  0
SOLID
  5
1E4
330
1E0
100
AcDbEntity
  8
1
 62
     2
100
AcDbTrace
 10
-65.08612531832759
 20
115.7398483903231
 30
0.0
 11
-65.08612531832759
 21
115.3448908975609
 31
0.0
 12
-66.58612531832759
 22
115.542369643942
 32
0.0
 13
-66.58612531832759
 23
115.542369643942
 33
0.0
  0
SOLID
  5
1E5
330
1E0
100
AcDbEntity
  8
1
 62
     2
100
AcDbTrace
 10
-63.58612531832762
 20
115.3448908975609
 30
0.0
 11
-63.58612531832762
 21
115.7398483903231
 31
0.0
 12
-62.08612531832762
 22
115.542369643942
 32
0.0
 13
-62.08612531832762
 23
115.542369643942
 33
0.0
  0
MTEXT
  5
1E6
330
1E0
100
AcDbEntity
  8
1
 62
     4
100
AcDbMText
 10
-66.12862531832398
 20
116.6923666623379
 30
0.0
 40
1.5
 41
0.0
 71
     7
 72
     1
  1
\C4;\U+00f8\C4;4,5
  7
CONVERTER_12
 11
0.9999999999970619
 21
2.424068405545306E-6
 31
0.0
 73
     1
 44
0.60024009603842
  0
ENDBLK
  5
1E8
330
1E0
100
AcDbEntity
  8
0
100
AcDbBlockEnd
  0
BLOCK
  5
1F4
330
1EB
100
AcDbEntity
  8
0
100
AcDbBlockBegin
  2
*D2
 70
     1
 10
0.0
 20
0.0
 30
0.0
  3
*D2
  1

  0
LINE
  5
1EC
330
1EB
100
AcDbEntity
  8
1
  6
Continuous
 62
     2
100
AcDbLine
 10
-43.84791423570609
 20
93.29644107351238
 30
0.0
 11
-35.5761253183276
 21
93.29644107351238
 31
0.0
  0
LINE
  5
1ED
330
1EB
100
AcDbEntity
  8
1
  6
Continuous
 62
     2
100
AcDbLine
 10
-35.5761253183276
 20
93.29644107351238
 30
0.0
 11
-33.09612531832758
 21
93.29644107351238
 31
0.0
  0
LINE
  5
1EE
330
1EB
100
AcDbEntity
  8
1
  6
Continuous
 62
     2
100
AcDbLine
 10
-33.09612531832758
 20
93.29644107351238
 30
0.0
 11
-30.09612531832758
 21
93.29644107351238
 31
0.0
  0
LINE
  5
1EF
330
1EB
100
AcDbEntity
  8
1
  6
Continuous
 62
     2
100
AcDbLine
 10
-35.5761253183276
 20
89.44406277501845
 30
0.0
 11
-35.5761253183276
 21
93.79644107351238
 31
0.0
  0
LINE
  5
1F0
330
1EB
100
AcDbEntity
  8
1
  6
Continuous
 62
     2
100
AcDbLine
 10
-33.09612531832758
 20
89.44406277501845
 30
0.0
 11
-33.09612531832758
 21
93.79644107351238
 31
0.0
  0
SOLID
  5
1F1
330
1EB
100
AcDbEntity
  8
1
 62
     2
100
AcDbTrace
 10
-37.0761253183276
 20
93.09896232713129
 30
0.0
 11
-37.0761253183276
 21
93.49391981989348
 31
0.0
 12
-35.5761253183276
 22
93.29644107351238
 32
0.0
 13
-35.5761253183276
 23
93.29644107351238
 33
0.0
  0
SOLID
  5
1F2
330
1EB
100
AcDbEntity
  8
1
 62
     2
100
AcDbTrace
 10
-31.59612531832758
 20
93.49391981989348
 30
0.0
 11
-31.59612531832758
 21
93.09896232713129
 31
0.0
 12
-33.09612531832758
 22
93.29644107351238
 32
0.0
 13
-33.09612531832758
 23
93.29644107351238
 33
0.0
  0
MTEXT
  5
1F3
330
1EB
100
AcDbEntity
  8
1
 62
     4
100
AcDbMText
 10
-43.42791423570247
 20
94.44643809190825
 30
0.0
 40
1.5
 41
0.0
 71
     7
 72
     1
  1
\C4;\U+00f8\C4;2,5
  7
CONVERTER_12
 11
0.9999999999970619
 21
2.424068405545306E-6
 31
0.0
 73
     1
 44
0.60024009603842
  0
ENDBLK
  5
1F5
330
1EB
100
AcDbEntity
  8
0
100
AcDbBlockEnd
  0
BLOCK
  5
200
330
1F8
100
AcDbEntity
  8
0
100
AcDbBlockBegin
  2
*D3
 70
     1
 10
0.0
 20
0.0
 30
0.0
  3
*D3
  1

  0
LINE
  5
1F9
330
1F8
100
AcDbEntity
  8
1
  6
Continuous
 62
     2
100
AcDbLine
 10
-74.4897071260775
 20
112.9540627750185
 30
0.0
 11
-74.4897071260775
 21
102.2040627750185
 31
0.0
  0
LINE
  5
1FA
330
1F8
100
AcDbEntity
  8
1
  6
Continuous
 62
     2
100
AcDbLine
 10
-74.4897071260775
 20
98.7040627750185
 30
0.0
 11
-74.4897071260775
 21
87.9540627750185
 31
0.0
  0
LINE
  5
1FB
330
1F8
100
AcDbEntity
  8
1
  6
Continuous
 62
     2
100
AcDbLine
 10
-66.83612531832759
 20
112.9540627750185
 30
0.0
 11
-74.9897071260775
 21
112.9540627750185
 31
0.0
  0
LINE
  5
1FC
330
1F8
100
AcDbEntity
  8
1
  6
Continuous
 62
     2
100
AcDbLine
 10
-64.58612531832759
 20
87.9540627750185
 30
0.0
 11
-74.9897071260775
 21
87.9540627750185
 31
0.0
  0
SOLID
  5
1FD
330
1F8
100
AcDbEntity
  8
1
 62
     2
100
AcDbTrace
 10
-74.29222837969641
 20
111.4540627750185
 30
0.0
 11
-74.6871858724586
 21
111.4540627750185
 31
0.0
 12
-74.4897071260775
 22
112.9540627750185
 32
0.0
 13
-74.4897071260775
 23
112.9540627750185
 33
0.0
  0
SOLID
  5
1FE
330
1F8
100
AcDbEntity
  8
1
 62
     2
100
AcDbTrace
 10
-74.6871858724586
 20
89.4540627750185
 30
0.0
 11
-74.29222837969641
 21
89.4540627750185
 31
0.0
 12
-74.4897071260775
 22
87.9540627750185
 32
0.0
 13
-74.4897071260775
 23
87.9540627750185
 33
0.0
  0
MTEXT
  5
1FF
330
1F8
100
AcDbEntity
  8
1
 62
     4
100
AcDbMText
 10
-75.6147071260775
 20
99.7040627750185
 30
0.0
 40
1.5
 41
0.0
 71
     7
 72
     1
  1
25
  7
CONVERTER_12
 11
0.9999999999970619
 21
2.424068405545306E-6
 31
0.0
 73
     1
 44
0.60024009603842
  0
ENDBLK
  5
201
330
1F8
100
AcDbEntity
  8
0
100
AcDbBlockEnd
  0
BLOCK
  5
20C
330
204
100
AcDbEntity
  8
0
100
AcDbBlockBegin
  2
*D4
 70
     1
 10
0.0
 20
0.0
 30
0.0
  3
*D4
  1

  0
LINE
  5
205
330
204
100
AcDbEntity
  8
1
  6
Continuous
 62
     2
100
AcDbLine
 10
-27.02904464696439
 20
112.9540627750185
 30
0.0
 11
-27.02904464696439
 21
115.9540627750185
 31
0.0
  0
LINE
  5
206
330
204
100
AcDbEntity
  8
1
  6
Continuous
 62
     2
100
AcDbLine
 10
-27.02904464696439
 20
105.3540627750185
 30
0.0
 11
-27.02904464696439
 21
102.3540627750185
 31
0.0
  0
LINE
  5
207
330
204
100
AcDbEntity
  8
1
  6
Continuous
 62
     2
100
AcDbLine
 10
-31.83612531832759
 20
112.9540627750185
 30
0.0
 11
-26.52904464696439
 21
112.9540627750185
 31
0.0
  0
LINE
  5
208
330
204
100
AcDbEntity
  8
1
  6
Continuous
 62
     2
100
AcDbLine
 10
-33.21112531832759
 20
105.3540627750185
 30
0.0
 11
-26.52904464696439
 21
105.3540627750185
 31
0.0
  0
SOLID
  5
209
330
204
100
AcDbEntity
  8
1
 62
     2
100
AcDbTrace
 10
-27.22652339334548
 20
114.4540627750185
 30
0.0
 11
-26.8315659005833
 21
114.4540627750185
 31
0.0
 12
-27.02904464696439
 22
112.9540627750185
 32
0.0
 13
-27.02904464696439
 23
112.9540627750185
 33
0.0
  0
SOLID
  5
20A
330
204
100
AcDbEntity
  8
1
 62
     2
100
AcDbTrace
 10
-26.8315659005833
 20
103.8540627750185
 30
0.0
 11
-27.22652339334548
 21
103.8540627750185
 31
0.0
 12
-27.02904464696439
 22
105.3540627750185
 32
0.0
 13
-27.02904464696439
 23
105.3540627750185
 33
0.0
  0
MTEXT
  5
20B
330
204
100
AcDbEntity
  8
1
 62
     4
100
AcDbMText
 10
-27.51654464696439
 20
108.4040627750185
 30
0.0
 40
1.5
 41
0.0
 71
     7
 72
     1
  1
B
  7
CONVERTER_12
 11
0.9999999999970619
 21
2.424068405545306E-6
 31
0.0
 73
     1
 44
0.60024009603842
  0
ENDBLK
  5
20D
330
204
100
AcDbEntity
  8
0
100
AcDbBlockEnd
  0
BLOCK
  5
219
330
210
100
AcDbEntity
  8
0
100
AcDbBlockBegin
  2
*D5
 70
     1
 10
0.0
 20
0.0
 30
0.0
  3
*D5
  1

  0
LINE
  5
211
330
210
100
AcDbEntity
  8
1
  6
Continuous
 62
     2
100
AcDbLine
 10
-38.2111253183276
 20
115.542369643942
 30
0.0
 11
-35.2111253183276
 21
115.542369643942
 31
0.0
  0
LINE
  5
212
330
210
100
AcDbEntity
  8
1
  6
Continuous
 62
     2
100
AcDbLine
 10
-35.2111253183276
 20
115.542369643942
 30
0.0
 11
-33.4611253183276
 21
115.542369643942
 31
0.0
  0
LINE
  5
213
330
210
100
AcDbEntity
  8
1
  6
Continuous
 62
     2
100
AcDbLine
 10
-33.4611253183276
 20
115.542369643942
 30
0.0
 11
-30.4611253183276
 21
115.542369643942
 31
0.0
  0
LINE
  5
214
330
210
100
AcDbEntity
  8
1
  6
Continuous
 62
     2
100
AcDbLine
 10
-35.2111253183276
 20
111.4287106972604
 30
0.0
 11
-35.2111253183276
 21
116.042369643942
 31
0.0
  0
LINE
  5
215
330
210
100
AcDbEntity
  8
1
  6
Continuous
 62
     2
100
AcDbLine
 10
-33.4611253183276
 20
111.4287106972604
 30
0.0
 11
-33.4611253183276
 21
116.042369643942
 31
0.0
  0
SOLID
  5
216
330
210
100
AcDbEntity
  8
1
 62
     2
100
AcDbTrace
 10
-36.7111253183276
 20
115.3448908975609
 30
0.0
 11
-36.7111253183276
 21
115.7398483903231
 31
0.0
 12
-35.2111253183276
 22
115.542369643942
 32
0.0
 13
-35.2111253183276
 23
115.542369643942
 33
0.0
  0
SOLID
  5
217
330
210
100
AcDbEntity
  8
1
 62
     2
100
AcDbTrace
 10
-31.9611253183276
 20
115.7398483903231
 30
0.0
 11
-31.9611253183276
 21
115.3448908975609
 31
0.0
 12
-33.4611253183276
 22
115.542369643942
 32
0.0
 13
-33.4611253183276
 23
115.542369643942
 33
0.0
  0
MTEXT
  5
218
330
210
100
AcDbEntity
  8
1
 62
     4
100
AcDbMText
 10
-35.34112531832399
 20
116.5423666623379
 30
0.0
 40
1.5
 41
0.0
 71
     7
 72
     1
  1
\C4;\U+00f8\C4;A
  7
CONVERTER_12
 11
0.9999999999970619
 21
2.424068405545306E-6
 31
0.0
 73
     1
 44
0.60024009603842
  0
ENDBLK
  5
21A
330
210
100
AcDbEntity
  8
0
100
AcDbBlockEnd
  0
ENDSEC
  0
SECTION
  2
ENTITIES
  0
LINE
  5
47
330
1F
100
AcDbEntity
  8
1
  6
Continuous
 62
     7
100
AcDbLine
 10
-65.5761253183276
 20
89.19406277501845
 30
0.0
 11
-65.5761253183276
 21
102.5822638685421
 31
0.0
  0
LINE
  5
48
330
1F
100
AcDbEntity
  8
1
  6
DOT_CENTER
 62
     2
100
AcDbLine
 10
-64.33612531832759
 20
87.95406277501844
 30
0.0
 11
-64.33612531832759
 21
86.81503566234275
 31
0.0
  0
LINE
  5
49
330
1F
100
AcDbEntity
  8
1
  6
Continuous
 62
     2
100
AcDbLine
 10
-34.3361253183276
 20
89.19406277501845
 30
0.0
 11
-33.11828200101961
 21
89.19406277501845
 31
0.0
  0
LINE
  5
4A
330
1F
100
AcDbEntity
  8
1
  6
Continuous
 62
     2
100
AcDbLine
 10
-63.2413539128126
 20
89.19406277501845
 30
0.0
 11
-65.4541151338376
 21
89.19406277501845
 31
0.0
  0
LINE
  5
4B
330
1F
100
AcDbEntity
  8
1
  6
Continuous
 62
     2
100
AcDbLine
 10
-35.9186367088826
 20
110.0540627750185
 30
0.0
 11
-35.8361253183276
 21
110.0540627750185
 31
0.0
  0
LINE
  5
4C
330
1F
100
AcDbEntity
  8
1
  6
DOT_CENTER
 62
     2
100
AcDbLine
 10
-64.33612531832759
 20
115.8502473986821
 30
0.0
 11
-64.33612531832759
 21
87.95406277501844
 31
0.0
  0
LINE
  5
4D
330
1F
100
AcDbEntity
  8
1
  6
DOT_CENTER
 62
     2
100
AcDbLine
 10
-34.3361253183276
 20
86.23599663237825
 30
0.0
 11
-34.3361253183276
 21
115.8502473986821
 31
0.0
  0
LINE
  5
4E
102
{ACAD_REACTORS
330
21E
102
}
330
1F
100
AcDbEntity
  8
1
  6
Continuous
 62
     7
100
AcDbLine
 10
-32.8361253183276
 20
105.4540627750185
 30
0.0
 11
-32.29087947142857
 21
105.4540627750185
 31
0.0
  0
LINE
  5
4F
102
{ACAD_REACTORS
330
21E
102
}
330
1F
100
AcDbEntity
  8
1
  6
Continuous
 62
     2
100
AcDbLine
 10
-32.29087947142857
 20
105.4540627750185
 30
0.0
 11
-32.65084274048262
 21
104.8663643764815
 31
0.0
  0
LINE
  5
50
102
{ACAD_REACTORS
330
21E
102
}
330
1F
100
AcDbEntity
  8
1
  6
Continuous
 62
     2
100
AcDbLine
 10
-32.65084274048262
 20
104.8663643764815
 30
0.0
 11
-33.04352994308759
 21
104.397321328926
 31
0.0
  0
LINE
  5
51
102
{ACAD_REACTORS
330
21E
102
}
330
1F
100
AcDbEntity
  8
1
  6
Continuous
 62
     2
100
AcDbLine
 10
-33.04352994308759
 20
104.397321328926
 30
0.0
 11
-33.62165276914458
 21
104.0046341263215
 31
0.0
  0
LINE
  5
52
102
{ACAD_REACTORS
330
21E
102
}
330
1F
100
AcDbEntity
  8
1
  6
Continuous
 62
     2
100
AcDbLine
 10
-33.62165276914458
 20
104.0046341263215
 30
0.0
 11
-34.13432772810063
 21
103.7755665914688
 31
0.0
  0
LINE
  5
53
102
{ACAD_REACTORS
330
21E
102
}
330
1F
100
AcDbEntity
  8
1
  6
Continuous
 62
     2
100
AcDbLine
 10
-34.13432772810063
 20
103.7755665914688
 30
0.0
 11
-34.70154257630661
 21
103.8519224364196
 31
0.0
  0
LINE
  5
54
102
{ACAD_REACTORS
330
21E
102
}
330
1F
100
AcDbEntity
  8
1
  6
Continuous
 62
     2
100
AcDbLine
 10
-34.70154257630661
 20
103.8519224364196
 30
0.0
 11
-35.33420529161458
 21
104.3427814396754
 31
0.0
  0
LINE
  5
55
102
{ACAD_REACTORS
330
21E
102
}
330
1F
100
AcDbEntity
  8
1
  6
Continuous
 62
     2
100
AcDbLine
 10
-35.33420529161458
 20
104.3427814396754
 30
0.0
 11
-35.85778822842056
 21
104.7572845979802
 31
0.0
  0
LINE
  5
56
330
1F
100
AcDbEntity
  8
1
  6
Continuous
 62
     7
100
AcDbLine
 10
-36.5861253183276
 20
105.4540627750185
 30
0.0
 11
-36.27229138672459
 21
105.4540627750185
 31
0.0
  0
LINE
  5
57
102
{ACAD_REACTORS
330
21E
102
}
330
1F
100
AcDbEntity
  8
1
  6
Continuous
 62
     2
100
AcDbLine
 10
-35.85778822842056
 20
104.7572845979802
 30
0.0
 11
-36.27229138672459
 21
105.4540627750185
 31
0.0
  0
LINE
  5
58
330
1F
100
AcDbEntity
  8
1
  6
Continuous
 62
     7
100
AcDbLine
 10
-32.0861253183276
 20
103.4540627750185
 30
0.0
 11
-36.5861253183276
 21
103.4540627750185
 31
0.0
  0
LINE
  5
59
330
1F
100
AcDbEntity
  8
1
  6
Continuous
 62
     7
100
AcDbLine
 10
-36.23612531832758
 20
112.9540627750185
 30
0.0
 11
-32.43612531832757
 21
112.9540627750185
 31
0.0
  0
LINE
  5
5A
330
1F
100
AcDbEntity
  8
1
  6
Continuous
 62
     7
100
AcDbLine
 10
-32.8361253183276
 20
107.1540627750185
 30
0.0
 11
-32.83644298548312
 21
107.1528698705496
 31
0.0
  0
LINE
  5
5B
330
1F
100
AcDbEntity
  8
1
  6
Continuous
 62
     7
100
AcDbLine
 10
-32.83644298548312
 20
107.1528698705496
 30
0.0
 11
-32.83738829660473
 21
107.1493002482959
 31
0.0
  0
LINE
  5
5C
330
1F
100
AcDbEntity
  8
1
  6
Continuous
 62
     7
100
AcDbLine
 10
-32.83738829660473
 20
107.1493002482959
 30
0.0
 11
-32.83969272731467
 21
107.1404699429719
 31
0.0
  0
LINE
  5
5D
330
1F
100
AcDbEntity
  8
1
  6
Continuous
 62
     7
100
AcDbLine
 10
-32.83969272731467
 20
107.1404699429719
 30
0.0
 11
-32.84305340927368
 21
107.1272433286463
 31
0.0
  0
LINE
  5
5E
330
1F
100
AcDbEntity
  8
1
  6
Continuous
 62
     7
100
AcDbLine
 10
-32.84305340927368
 20
107.1272433286463
 30
0.0
 11
-32.84731883243107
 21
107.1097940674959
 31
0.0
  0
LINE
  5
5F
330
1F
100
AcDbEntity
  8
1
  6
Continuous
 62
     7
100
AcDbLine
 10
-32.84731883243107
 20
107.1097940674959
 30
0.0
 11
-32.85229880851567
 21
107.0883397727623
 31
0.0
  0
LINE
  5
60
330
1F
100
AcDbEntity
  8
1
  6
Continuous
 62
     7
100
AcDbLine
 10
-32.85229880851567
 20
107.0883397727623
 30
0.0
 11
-32.85777330338469
 21
107.0631334466874
 31
0.0
  0
LINE
  5
61
330
1F
100
AcDbEntity
  8
1
  6
Continuous
 62
     7
100
AcDbLine
 10
-32.85777330338469
 20
107.0631334466874
 30
0.0
 11
-32.86350145409607
 21
107.0344572212976
 31
0.0
  0
LINE
  5
62
330
1F
100
AcDbEntity
  8
1
  6
Continuous
 62
     7
100
AcDbLine
 10
-32.86350145409607
 20
107.0344572212976
 30
0.0
 11
-32.86923050527916
 21
107.0026193934144
 31
0.0
  0
LINE
  5
63
330
1F
100
AcDbEntity
  8
1
  6
Continuous
 62
     7
100
AcDbLine
 10
-32.86923050527916
 20
107.0026193934144
 30
0.0
 11
-32.87470484523327
 21
106.9679548019367
 31
0.0
  0
LINE
  5
64
330
1F
100
AcDbEntity
  8
1
  6
Continuous
 62
     7
100
AcDbLine
 10
-32.87470484523327
 20
106.9679548019367
 30
0.0
 11
-32.87967558251198
 21
106.9308276837458
 31
0.0
  0
LINE
  5
65
330
1F
100
AcDbEntity
  8
1
  6
Continuous
 62
     7
100
AcDbLine
 10
-32.87967558251198
 20
106.9308276837458
 30
0.0
 11
-32.8839110687707
 21
106.8916353980807
 31
0.0
  0
LINE
  5
66
330
1F
100
AcDbEntity
  8
1
  6
Continuous
 62
     7
100
AcDbLine
 10
-32.8839110687707
 20
106.8916353980807
 30
0.0
 11
-32.88720840880448
 21
106.8508109569243
 31
0.0
  0
LINE
  5
67
330
1F
100
AcDbEntity
  8
1
  6
Continuous
 62
     7
100
AcDbLine
 10
-32.88720840880448
 20
106.8508109569243
 30
0.0
 11
-32.88940537103558
 21
106.8088223028899
 31
0.0
  0
LINE
  5
68
330
1F
100
AcDbEntity
  8
1
  6
Continuous
 62
     7
100
AcDbLine
 10
-32.88940537103558
 20
106.8088223028899
 30
0.0
 11
-32.89039141839416
 21
106.7661668824393
 31
0.0
  0
LINE
  5
69
330
1F
100
AcDbEntity
  8
1
  6
Continuous
 62
     7
100
AcDbLine
 10
-32.89039141839416
 20
106.7661668824393
 30
0.0
 11
-32.89011612659378
 21
106.7233612672589
 31
0.0
  0
LINE
  5
6A
330
1F
100
AcDbEntity
  8
1
  6
Continuous
 62
     7
100
AcDbLine
 10
-32.89011612659378
 20
106.7233612672589
 30
0.0
 11
-32.88859334023499
 21
106.680927095622
 31
0.0
  0
LINE
  5
6B
330
1F
100
AcDbEntity
  8
1
  6
Continuous
 62
     7
100
AcDbLine
 10
-32.88859334023499
 20
106.680927095622
 30
0.0
 11
-32.88590013480017
 21
106.6393758841503
 31
0.0
  0
LINE
  5
6C
330
1F
100
AcDbEntity
  8
1
  6
Continuous
 62
     7
100
AcDbLine
 10
-32.88590013480017
 20
106.6393758841503
 30
0.0
 11
-32.8821707772658
 21
106.5991957111405
 31
0.0
  0
LINE
  5
6D
330
1F
100
AcDbEntity
  8
1
  6
Continuous
 62
     7
100
AcDbLine
 10
-32.8821707772658
 20
106.5991957111405
 30
0.0
 11
-32.87758693546469
 21
106.5608421387391
 31
0.0
  0
LINE
  5
6E
330
1F
100
AcDbEntity
  8
1
  6
Continuous
 62
     7
100
AcDbLine
 10
-32.87758693546469
 20
106.5608421387391
 30
0.0
 11
-32.87236592960231
 21
106.5247343029932
 31
0.0
  0
LINE
  5
6F
330
1F
100
AcDbEntity
  8
1
  6
Continuous
 62
     7
100
AcDbLine
 10
-32.87236592960231
 20
106.5247343029932
 30
0.0
 11
-32.866748695686
 21
106.491255508822
 31
0.0
  0
LINE
  5
70
330
1F
100
AcDbEntity
  8
1
  6
Continuous
 62
     7
100
AcDbLine
 10
-32.866748695686
 20
106.491255508822
 30
0.0
 11
-32.86098852669021
 21
106.4607565288486
 31
0.0
  0
LINE
  5
71
330
1F
100
AcDbEntity
  8
1
  6
Continuous
 62
     7
100
AcDbLine
 10
-32.86098852669021
 20
106.4607565288486
 30
0.0
 11
-32.85534092344409
 21
106.433559383257
 31
0.0
  0
LINE
  5
72
330
1F
100
AcDbEntity
  8
1
  6
Continuous
 62
     7
100
AcDbLine
 10
-32.85534092344409
 20
106.433559383257
 30
0.0
 11
-32.85005432448081
 21
106.409959594631
 31
0.0
  0
LINE
  5
73
330
1F
100
AcDbEntity
  8
1
  6
Continuous
 62
     7
100
AcDbLine
 10
-32.85005432448081
 20
106.409959594631
 30
0.0
 11
-32.84536124234353
 21
106.3902255445914
 31
0.0
  0
LINE
  5
74
330
1F
100
AcDbEntity
  8
1
  6
Continuous
 62
     7
100
AcDbLine
 10
-32.84536124234353
 20
106.3902255445914
 30
0.0
 11
-32.84146942429548
 21
106.3745944080039
 31
0.0
  0
LINE
  5
75
330
1F
100
AcDbEntity
  8
1
  6
Continuous
 62
     7
100
AcDbLine
 10
-32.84146942429548
 20
106.3745944080039
 30
0.0
 11
-32.83855299795168
 21
106.363265059114
 31
0.0
  0
LINE
  5
76
330
1F
100
AcDbEntity
  8
1
  6
Continuous
 62
     7
100
AcDbLine
 10
-32.83855299795168
 20
106.363265059114
 30
0.0
 11
-32.83674412356429
 21
106.3563895835538
 31
0.0
  0
LINE
  5
77
330
1F
100
AcDbEntity
  8
1
  6
Continuous
 62
     7
100
AcDbLine
 10
-32.83674412356429
 20
106.3563895835538
 30
0.0
 11
-32.8361253183276
 21
106.3540627750184
 31
0.0
  0
LINE
  5
78
102
{ACAD_REACTORS
330
21E
102
}
330
1F
100
AcDbEntity
  8
1
  6
Continuous
 62
     7
100
AcDbLine
 10
-32.8361253183276
 20
106.3540627750184
 30
0.0
 11
-32.8361253183276
 21
105.4540627750185
 31
0.0
  0
LINE
  5
79
330
1F
100
AcDbEntity
  8
1
  6
Continuous
 62
     7
100
AcDbLine
 10
-32.29087947142857
 20
105.4540627750185
 30
0.0
 11
-32.0861253183276
 21
105.4540627750185
 31
0.0
  0
LINE
  5
7A
330
1F
100
AcDbEntity
  8
1
  6
Continuous
 62
     7
100
AcDbLine
 10
-32.0861253183276
 20
105.4540627750185
 30
0.0
 11
-32.0861253183276
 21
105.2040627750184
 31
0.0
  0
LINE
  5
7B
330
1F
100
AcDbEntity
  8
1
  6
Continuous
 62
     7
100
AcDbLine
 10
-32.0861253183276
 20
105.2040627750184
 30
0.0
 11
-32.23612531832758
 21
105.0540627750185
 31
0.0
  0
LINE
  5
7C
330
1F
100
AcDbEntity
  8
1
  6
Continuous
 62
     7
100
AcDbLine
 10
-32.23612531832758
 20
105.0540627750185
 30
0.0
 11
-32.0861253183276
 21
104.9040627750184
 31
0.0
  0
LINE
  5
7D
330
1F
100
AcDbEntity
  8
1
  6
Continuous
 62
     7
100
AcDbLine
 10
-32.0861253183276
 20
104.9040627750184
 30
0.0
 11
-32.0861253183276
 21
104.6040627750185
 31
0.0
  0
LINE
  5
7E
330
1F
100
AcDbEntity
  8
1
  6
Continuous
 62
     7
100
AcDbLine
 10
-32.0861253183276
 20
104.6040627750185
 30
0.0
 11
-32.23612531832758
 21
104.4540627750185
 31
0.0
  0
LINE
  5
7F
330
1F
100
AcDbEntity
  8
1
  6
Continuous
 62
     7
100
AcDbLine
 10
-32.23612531832758
 20
104.4540627750185
 30
0.0
 11
-32.0861253183276
 21
104.3040627750185
 31
0.0
  0
LINE
  5
80
330
1F
100
AcDbEntity
  8
1
  6
Continuous
 62
     7
100
AcDbLine
 10
-32.0861253183276
 20
104.3040627750185
 30
0.0
 11
-32.0861253183276
 21
104.0004455559134
 31
0.0
  0
LINE
  5
81
330
1F
100
AcDbEntity
  8
1
  6
Continuous
 62
     7
100
AcDbLine
 10
-32.0861253183276
 20
104.0004455559134
 30
0.0
 11
-32.23612531832758
 21
103.8540627750184
 31
0.0
  0
LINE
  5
82
330
1F
100
AcDbEntity
  8
1
  6
Continuous
 62
     7
100
AcDbLine
 10
-32.23612531832758
 20
103.8540627750184
 30
0.0
 11
-32.0861253183276
 21
103.7040627750185
 31
0.0
  0
LINE
  5
83
330
1F
100
AcDbEntity
  8
1
  6
Continuous
 62
     7
100
AcDbLine
 10
-32.0861253183276
 20
103.7040627750185
 30
0.0
 11
-32.0861253183276
 21
103.4540627750185
 31
0.0
  0
LINE
  5
84
330
1F
100
AcDbEntity
  8
1
  6
Continuous
 62
     7
100
AcDbLine
 10
-32.0861253183276
 20
103.4540627750185
 30
0.0
 11
-32.84612531832758
 21
103.0152765704343
 31
0.0
  0
LINE
  5
85
330
1F
100
AcDbEntity
  8
1
  6
Continuous
 62
     7
100
AcDbLine
 10
-35.82612531832761
 20
103.0152765704343
 30
0.0
 11
-36.5861253183276
 21
103.4540627750185
 31
0.0
  0
LINE
  5
86
330
1F
100
AcDbEntity
  8
1
  6
Continuous
 62
     7
100
AcDbLine
 10
-36.5861253183276
 20
103.4540627750185
 30
0.0
 11
-36.5861253183276
 21
103.7040627750185
 31
0.0
  0
LINE
  5
87
330
1F
100
AcDbEntity
  8
1
  6
Continuous
 62
     7
100
AcDbLine
 10
-36.5861253183276
 20
103.7040627750185
 30
0.0
 11
-36.43612531832757
 21
103.8540627750184
 31
0.0
  0
LINE
  5
88
330
1F
100
AcDbEntity
  8
1
  6
Continuous
 62
     7
100
AcDbLine
 10
-36.43612531832757
 20
103.8540627750184
 30
0.0
 11
-36.5861253183276
 21
104.0004455559134
 31
0.0
  0
LINE
  5
89
330
1F
100
AcDbEntity
  8
1
  6
Continuous
 62
     7
100
AcDbLine
 10
-36.5861253183276
 20
104.0004455559134
 30
0.0
 11
-36.5861253183276
 21
104.3040627750185
 31
0.0
  0
LINE
  5
8A
330
1F
100
AcDbEntity
  8
1
  6
Continuous
 62
     7
100
AcDbLine
 10
-36.5861253183276
 20
104.3040627750185
 30
0.0
 11
-36.43612531832757
 21
104.4540627750185
 31
0.0
  0
LINE
  5
8B
330
1F
100
AcDbEntity
  8
1
  6
Continuous
 62
     7
100
AcDbLine
 10
-36.43612531832757
 20
104.4540627750185
 30
0.0
 11
-36.5861253183276
 21
104.6040627750184
 31
0.0
  0
LINE
  5
8C
330
1F
100
AcDbEntity
  8
1
  6
Continuous
 62
     7
100
AcDbLine
 10
-36.5861253183276
 20
104.6040627750184
 30
0.0
 11
-36.5861253183276
 21
104.9040627750184
 31
0.0
  0
LINE
  5
8D
330
1F
100
AcDbEntity
  8
1
  6
Continuous
 62
     7
100
AcDbLine
 10
-36.5861253183276
 20
104.9040627750184
 30
0.0
 11
-36.43612531832757
 21
105.0540627750185
 31
0.0
  0
LINE
  5
8E
330
1F
100
AcDbEntity
  8
1
  6
Continuous
 62
     7
100
AcDbLine
 10
-36.43612531832757
 20
105.0540627750185
 30
0.0
 11
-36.5861253183276
 21
105.2040627750185
 31
0.0
  0
LINE
  5
8F
330
1F
100
AcDbEntity
  8
1
  6
Continuous
 62
     7
100
AcDbLine
 10
-36.5861253183276
 20
105.2040627750185
 30
0.0
 11
-36.5861253183276
 21
105.4540627750185
 31
0.0
  0
LINE
  5
90
102
{ACAD_REACTORS
330
21E
102
}
330
1F
100
AcDbEntity
  8
1
  6
Continuous
 62
     7
100
AcDbLine
 10
-36.27229138672459
 20
105.4540627750185
 30
0.0
 11
-35.8361253183276
 21
105.4540627750185
 31
0.0
  0
LINE
  5
91
102
{ACAD_REACTORS
330
21E
102
}
330
1F
100
AcDbEntity
  8
1
  6
Continuous
 62
     7
100
AcDbLine
 10
-35.8361253183276
 20
105.4540627750185
 30
0.0
 11
-35.8361253183276
 21
110.0540627750185
 31
0.0
  0
LINE
  5
92
102
{ACAD_REACTORS
330
21E
102
}
330
1F
100
AcDbEntity
  8
1
  6
Continuous
 62
     7
100
AcDbLine
 10
-35.8361253183276
 20
110.0540627750185
 30
0.0
 11
-36.5861253183276
 21
110.4870754769107
 31
0.0
  0
LINE
  5
93
102
{ACAD_REACTORS
330
21E
102
}
330
1F
100
AcDbEntity
  8
1
  6
Continuous
 62
     7
100
AcDbLine
 10
-36.5861253183276
 20
110.4870754769107
 30
0.0
 11
-36.5861253183276
 21
112.9540627750185
 31
0.0
  0
LINE
  5
94
102
{ACAD_REACTORS
330
21E
102
}
330
1F
100
AcDbEntity
  8
1
  6
Continuous
 62
     7
100
AcDbLine
 10
-36.5861253183276
 20
112.9540627750185
 30
0.0
 11
-36.23612531832758
 21
112.9540627750185
 31
0.0
  0
LINE
  5
95
102
{ACAD_REACTORS
330
21D
102
}
330
1F
100
AcDbEntity
  8
1
  6
Continuous
 62
     7
100
AcDbLine
 10
-32.43612531832757
 20
112.9540627750185
 30
0.0
 11
-32.0861253183276
 21
112.9540627750185
 31
0.0
  0
LINE
  5
96
102
{ACAD_REACTORS
330
21D
102
}
330
1F
100
AcDbEntity
  8
1
  6
Continuous
 62
     7
100
AcDbLine
 10
-32.0861253183276
 20
112.9540627750185
 30
0.0
 11
-32.0861253183276
 21
110.4870754769107
 31
0.0
  0
LINE
  5
97
102
{ACAD_REACTORS
330
21D
102
}
330
1F
100
AcDbEntity
  8
1
  6
Continuous
 62
     7
100
AcDbLine
 10
-32.0861253183276
 20
110.4870754769107
 30
0.0
 11
-32.8361253183276
 21
110.0540627750185
 31
0.0
  0
LINE
  5
98
102
{ACAD_REACTORS
330
21D
102
}
330
1F
100
AcDbEntity
  8
1
  6
Continuous
 62
     7
100
AcDbLine
 10
-32.8361253183276
 20
110.0540627750185
 30
0.0
 11
-32.8361253183276
 21
107.1540627750185
 31
0.0
  0
LINE
  5
99
330
1F
100
AcDbEntity
  8
1
  6
Continuous
 62
     2
100
AcDbLine
 10
-35.55265064287458
 20
89.19406277501847
 30
0.0
 11
-34.3361253183276
 21
89.19406277501845
 31
0.0
  0
LINE
  5
9A
102
{ACAD_REACTORS
330
21D
102
}
330
1F
100
AcDbEntity
  8
1
  6
Continuous
 62
     7
100
AcDbLine
 10
-32.43612531832757
 20
112.9540627750185
 30
0.0
 11
-33.4611253183276
 21
111.1787106972604
 31
0.0
  0
LINE
  5
9B
330
1F
100
AcDbEntity
  8
1
  6
Continuous
 62
     7
100
AcDbLine
 10
-33.4611253183276
 20
111.1787106972604
 30
0.0
 11
-35.2111253183276
 21
111.1787106972604
 31
0.0
  0
LINE
  5
9C
102
{ACAD_REACTORS
330
21E
102
}
330
1F
100
AcDbEntity
  8
1
  6
Continuous
 62
     7
100
AcDbLine
 10
-35.2111253183276
 20
111.1787106972604
 30
0.0
 11
-36.23612531832758
 21
112.9540627750185
 31
0.0
  0
LINE
  5
9D
102
{ACAD_REACTORS
330
21E
102
}
330
1F
100
AcDbEntity
  8
1
  6
Continuous
 62
     7
100
AcDbLine
 10
-34.3361253183276
 20
104.8488812894775
 30
0.0
 11
-35.2111253183276
 21
105.3540627750184
 31
0.0
  0
LINE
  5
9E
330
1F
100
AcDbEntity
  8
1
  6
Continuous
 62
     7
100
AcDbLine
 10
-35.2111253183276
 20
105.3540627750184
 30
0.0
 11
-33.4611253183276
 21
105.3540627750184
 31
0.0
  0
LINE
  5
9F
102
{ACAD_REACTORS
330
21E
102
}
330
1F
100
AcDbEntity
  8
1
  6
Continuous
 62
     7
100
AcDbLine
 10
-33.4611253183276
 20
105.3540627750184
 30
0.0
 11
-34.3361253183276
 21
104.8488812894775
 31
0.0
  0
LINE
  5
A0
102
{ACAD_REACTORS
330
21E
102
}
330
1F
100
AcDbEntity
  8
1
  6
Continuous
 62
     7
100
AcDbLine
 10
-35.2111253183276
 20
105.3540627750184
 30
0.0
 11
-35.2111253183276
 21
111.1787106972604
 31
0.0
  0
LINE
  5
A1
102
{ACAD_REACTORS
330
21D
102
}
330
1F
100
AcDbEntity
  8
1
  6
Continuous
 62
     7
100
AcDbLine
 10
-33.4611253183276
 20
111.1787106972604
 30
0.0
 11
-33.4611253183276
 21
107.1540627750185
 31
0.0
  0
LINE
  5
A2
330
1F
100
AcDbEntity
  8
1
  6
Continuous
 62
     7
100
AcDbLine
 10
-33.4611253183276
 20
107.1540627750185
 30
0.0
 11
-33.46175811254733
 21
107.1526766364734
 31
0.0
  0
LINE
  5
A3
330
1F
100
AcDbEntity
  8
1
  6
Continuous
 62
     7
100
AcDbLine
 10
-33.46175811254733
 20
107.1526766364734
 30
0.0
 11
-33.4636381607052
 21
107.1485356387443
 31
0.0
  0
LINE
  5
A4
330
1F
100
AcDbEntity
  8
1
  6
Continuous
 62
     7
100
AcDbLine
 10
-33.4636381607052
 20
107.1485356387443
 30
0.0
 11
-33.46765353947352
 21
107.139573125938
 31
0.0
  0
LINE
  5
A5
330
1F
100
AcDbEntity
  8
1
  6
Continuous
 62
     7
100
AcDbLine
 10
-33.46765353947352
 20
107.139573125938
 30
0.0
 11
-33.47335834540097
 21
107.1265434450846
 31
0.0
  0
LINE
  5
A6
330
1F
100
AcDbEntity
  8
1
  6
Continuous
 62
     7
100
AcDbLine
 10
-33.47335834540097
 20
107.1265434450846
 30
0.0
 11
-33.480516836937
 21
107.1096480298133
 31
0.0
  0
LINE
  5
A7
330
1F
100
AcDbEntity
  8
1
  6
Continuous
 62
     7
100
AcDbLine
 10
-33.480516836937
 20
107.1096480298133
 30
0.0
 11
-33.48884292202557
 21
107.0891186794334
 31
0.0
  0
LINE
  5
A8
330
1F
100
AcDbEntity
  8
1
  6
Continuous
 62
     7
100
AcDbLine
 10
-33.48884292202557
 20
107.0891186794334
 30
0.0
 11
-33.49801338224579
 21
107.0652003931279
 31
0.0
  0
LINE
  5
A9
330
1F
100
AcDbEntity
  8
1
  6
Continuous
 62
     7
100
AcDbLine
 10
-33.49801338224579
 20
107.0652003931279
 30
0.0
 11
-33.50767803839811
 21
107.0381400455322
 31
0.0
  0
LINE
  5
AA
330
1F
100
AcDbEntity
  8
1
  6
Continuous
 62
     7
100
AcDbLine
 10
-33.50767803839811
 20
107.0381400455322
 30
0.0
 11
-33.51746672791221
 21
107.0081826043527
 31
0.0
  0
LINE
  5
AB
330
1F
100
AcDbEntity
  8
1
  6
Continuous
 62
     7
100
AcDbLine
 10
-33.51746672791221
 20
107.0081826043527
 30
0.0
 11
-33.52699446257519
 21
106.9755751713544
 31
0.0
  0
LINE
  5
AC
330
1F
100
AcDbEntity
  8
1
  6
Continuous
 62
     7
100
AcDbLine
 10
-33.52699446257519
 20
106.9755751713544
 30
0.0
 11
-33.53586727397061
 21
106.9405780225401
 31
0.0
  0
LINE
  5
AD
330
1F
100
AcDbEntity
  8
1
  6
Continuous
 62
     7
100
AcDbLine
 10
-33.53586727397061
 20
106.9405780225401
 30
0.0
 11
-33.54369190989472
 21
106.9034806681924
 31
0.0
  0
LINE
  5
AE
330
1F
100
AcDbEntity
  8
1
  6
Continuous
 62
     7
100
AcDbLine
 10
-33.54369190989472
 20
106.9034806681924
 30
0.0
 11
-33.55009238558999
 21
106.8646194181843
 31
0.0
  0
LINE
  5
AF
330
1F
100
AcDbEntity
  8
1
  6
Continuous
 62
     7
100
AcDbLine
 10
-33.55009238558999
 20
106.8646194181843
 30
0.0
 11
-33.55473483360622
 21
106.8243912160165
 31
0.0
  0
LINE
  5
B0
330
1F
100
AcDbEntity
  8
1
  6
Continuous
 62
     7
100
AcDbLine
 10
-33.55473483360622
 20
106.8243912160165
 30
0.0
 11
-33.55735876998919
 21
106.7832575829621
 31
0.0
  0
LINE
  5
B1
330
1F
100
AcDbEntity
  8
1
  6
Continuous
 62
     7
100
AcDbLine
 10
-33.55735876998919
 20
106.7832575829621
 30
0.0
 11
-33.55780854279783
 21
106.7417338224608
 31
0.0
  0
LINE
  5
B2
330
1F
100
AcDbEntity
  8
1
  6
Continuous
 62
     7
100
AcDbLine
 10
-33.55780854279783
 20
106.7417338224608
 30
0.0
 11
-33.55605566405859
 21
106.7003630030319
 31
0.0
  0
LINE
  5
B3
330
1F
100
AcDbEntity
  8
1
  6
Continuous
 62
     7
100
AcDbLine
 10
-33.55605566405859
 20
106.7003630030319
 30
0.0
 11
-33.55220377448488
 21
106.6596806427016
 31
0.0
  0
LINE
  5
B4
330
1F
100
AcDbEntity
  8
1
  6
Continuous
 62
     7
100
AcDbLine
 10
-33.55220377448488
 20
106.6596806427016
 30
0.0
 11
-33.54647393079685
 21
106.620181059205
 31
0.0
  0
LINE
  5
B5
330
1F
100
AcDbEntity
  8
1
  6
Continuous
 62
     7
100
AcDbLine
 10
-33.54647393079685
 20
106.620181059205
 30
0.0
 11
-33.53917563493489
 21
106.5822960790041
 31
0.0
  0
LINE
  5
B6
330
1F
100
AcDbEntity
  8
1
  6
Continuous
 62
     7
100
AcDbLine
 10
-33.53917563493489
 20
106.5822960790041
 30
0.0
 11
-33.53067348769291
 21
106.5463907945475
 31
0.0
  0
LINE
  5
B7
330
1F
100
AcDbEntity
  8
1
  6
Continuous
 62
     7
100
AcDbLine
 10
-33.53067348769291
 20
106.5463907945475
 30
0.0
 11
-33.52135821132258
 21
106.5127736566204
 31
0.0
  0
LINE
  5
B8
330
1F
100
AcDbEntity
  8
1
  6
Continuous
 62
     7
100
AcDbLine
 10
-33.52135821132258
 20
106.5127736566204
 30
0.0
 11
-33.51162618202271
 21
106.4817140541339
 31
0.0
  0
LINE
  5
B9
330
1F
100
AcDbEntity
  8
1
  6
Continuous
 62
     7
100
AcDbLine
 10
-33.51162618202271
 20
106.4817140541339
 30
0.0
 11
-33.50186714371567
 21
106.4534605429796
 31
0.0
  0
LINE
  5
BA
330
1F
100
AcDbEntity
  8
1
  6
Continuous
 62
     7
100
AcDbLine
 10
-33.50186714371567
 20
106.4534605429796
 30
0.0
 11
-33.49245730985932
 21
106.4282549965463
 31
0.0
  0
LINE
  5
BB
330
1F
100
AcDbEntity
  8
1
  6
Continuous
 62
     7
100
AcDbLine
 10
-33.49245730985932
 20
106.4282549965463
 30
0.0
 11
-33.48375448148613
 21
106.4063401218912
 31
0.0
  0
LINE
  5
BC
330
1F
100
AcDbEntity
  8
1
  6
Continuous
 62
     7
100
AcDbLine
 10
-33.48375448148613
 20
106.4063401218912
 30
0.0
 11
-33.47609231543247
 21
106.3879592840916
 31
0.0
  0
LINE
  5
BD
330
1F
100
AcDbEntity
  8
1
  6
Continuous
 62
     7
100
AcDbLine
 10
-33.47609231543247
 20
106.3879592840916
 30
0.0
 11
-33.46977189597207
 21
106.3733486402308
 31
0.0
  0
LINE
  5
BE
330
1F
100
AcDbEntity
  8
1
  6
Continuous
 62
     7
100
AcDbLine
 10
-33.46977189597207
 20
106.3733486402308
 30
0.0
 11
-33.4650500798429
 21
106.3627226785535
 31
0.0
  0
LINE
  5
BF
330
1F
100
AcDbEntity
  8
1
  6
Continuous
 62
     7
100
AcDbLine
 10
-33.4650500798429
 20
106.3627226785535
 30
0.0
 11
-33.46212577399932
 21
106.3562560336401
 31
0.0
  0
LINE
  5
C0
330
1F
100
AcDbEntity
  8
1
  6
Continuous
 62
     7
100
AcDbLine
 10
-33.46212577399932
 20
106.3562560336401
 30
0.0
 11
-33.4611253183276
 21
106.3540627750184
 31
0.0
  0
LINE
  5
C1
102
{ACAD_REACTORS
330
21E
102
}
330
1F
100
AcDbEntity
  8
1
  6
Continuous
 62
     7
100
AcDbLine
 10
-33.4611253183276
 20
106.3540627750184
 30
0.0
 11
-33.4611253183276
 21
105.3540627750184
 31
0.0
  0
LINE
  5
C2
102
{ACAD_REACTORS
330
21E
102
}
330
1F
100
AcDbEntity
  8
1
  6
Continuous
 62
     7
100
AcDbLine
 10
-32.8361253183276
 20
106.3540627750184
 30
0.0
 11
-33.4611253183276
 21
106.3540627750184
 31
0.0
  0
LINE
  5
C3
102
{ACAD_REACTORS
330
21D
102
}
330
1F
100
AcDbEntity
  8
1
  6
Continuous
 62
     7
100
AcDbLine
 10
-33.4611253183276
 20
107.1540627750185
 30
0.0
 11
-32.8361253183276
 21
107.1540627750185
 31
0.0
  0
LINE
  5
C4
330
1F
100
AcDbEntity
  8
1
  6
Continuous
 62
     2
100
AcDbLine
 10
-62.23612531832748
 20
105.0540627750185
 30
0.0
 11
-66.43612531832761
 21
105.0540627750185
 31
0.0
  0
LINE
  5
C5
330
1F
100
AcDbEntity
  8
1
  6
Continuous
 62
     2
100
AcDbLine
 10
-62.23612531832748
 20
104.4540627750185
 30
0.0
 11
-66.43612531832761
 21
104.4540627750185
 31
0.0
  0
LINE
  5
C6
330
1F
100
AcDbEntity
  8
1
  6
Continuous
 62
     2
100
AcDbLine
 10
-62.23612531832748
 20
103.8540627750184
 30
0.0
 11
-66.43612531832761
 21
103.8540627750184
 31
0.0
  0
LINE
  5
C7
330
1F
100
AcDbEntity
  8
1
  6
Continuous
 62
     7
100
AcDbLine
 10
-63.3298947284527
 20
103.7040627750185
 30
0.0
 11
-62.08612531832762
 21
103.7040627750185
 31
0.0
  0
LINE
  5
C8
330
1F
100
AcDbEntity
  8
1
  6
Continuous
 62
     7
100
AcDbLine
 10
-66.58612531832759
 20
103.7040627750185
 30
0.0
 11
-63.3298947284527
 21
103.7040627750185
 31
0.0
  0
LINE
  5
C9
330
1F
100
AcDbEntity
  8
1
  6
Continuous
 62
     7
100
AcDbLine
 10
-66.58612531832759
 20
104.0004455559134
 30
0.0
 11
-62.08612531832762
 21
104.0004455559134
 31
0.0
  0
LINE
  5
CA
330
1F
100
AcDbEntity
  8
1
  6
Continuous
 62
     7
100
AcDbLine
 10
-63.3298947284527
 20
104.3040627750185
 30
0.0
 11
-62.08612531832762
 21
104.3040627750185
 31
0.0
  0
LINE
  5
CB
330
1F
100
AcDbEntity
  8
1
  6
Continuous
 62
     7
100
AcDbLine
 10
-66.58612531832759
 20
104.3040627750185
 30
0.0
 11
-63.3298947284527
 21
104.3040627750185
 31
0.0
  0
LINE
  5
CC
330
1F
100
AcDbEntity
  8
1
  6
Continuous
 62
     7
100
AcDbLine
 10
-66.58612531832759
 20
104.6040627750184
 30
0.0
 11
-62.08612531832762
 21
104.6040627750184
 31
0.0
  0
LINE
  5
CD
330
1F
100
AcDbEntity
  8
1
  6
Continuous
 62
     7
100
AcDbLine
 10
-63.3298947284527
 20
104.9040627750185
 30
0.0
 11
-62.08612531832762
 21
104.9040627750185
 31
0.0
  0
LINE
  5
CE
330
1F
100
AcDbEntity
  8
1
  6
Continuous
 62
     7
100
AcDbLine
 10
-66.58612531832759
 20
104.9040627750185
 30
0.0
 11
-63.3298947284527
 21
104.9040627750185
 31
0.0
  0
LINE
  5
CF
330
1F
100
AcDbEntity
  8
1
  6
Continuous
 62
     7
100
AcDbLine
 10
-66.58612531832759
 20
105.2040627750185
 30
0.0
 11
-62.08612531832762
 21
105.2040627750185
 31
0.0
  0
LINE
  5
D0
330
1F
100
AcDbEntity
  8
1
  6
Continuous
 62
     2
100
AcDbLine
 10
-63.09612531832761
 20
102.5822638685421
 30
0.0
 11
-65.5761253183276
 21
102.5822638685421
 31
0.0
  0
LINE
  5
D1
330
1F
100
AcDbEntity
  8
1
  6
Continuous
 62
     7
100
AcDbLine
 10
-62.08612531832762
 20
110.4870754769107
 30
0.0
 11
-66.58612531832759
 21
110.4870754769107
 31
0.0
  0
LINE
  5
D2
330
1F
100
AcDbEntity
  8
1
  6
Continuous
 62
     7
100
AcDbLine
 10
-62.83612531832762
 20
110.0540627750185
 30
0.0
 11
-65.83612531832759
 21
110.0540627750185
 31
0.0
  0
LINE
  5
D3
330
1F
100
AcDbEntity
  8
1
  6
Continuous
 62
     2
100
AcDbLine
 10
-65.8261253183276
 20
103.0152765704343
 30
0.0
 11
-62.84612531832761
 21
103.0152765704343
 31
0.0
  0
LINE
  5
D4
330
1F
100
AcDbEntity
  8
1
  6
Continuous
 62
     7
100
AcDbLine
 10
-62.08612531832762
 20
103.4540627750185
 30
0.0
 11
-66.58612531832759
 21
103.4540627750185
 31
0.0
  0
LINE
  5
D5
330
1F
100
AcDbEntity
  8
1
  6
Continuous
 62
     7
100
AcDbLine
 10
-66.43612531832761
 20
105.0540627750185
 30
0.0
 11
-66.58612531832759
 21
105.2040627750185
 31
0.0
  0
LINE
  5
D6
330
1F
100
AcDbEntity
  8
1
  6
Continuous
 62
     7
100
AcDbLine
 10
-62.08612531832762
 20
105.2040627750185
 30
0.0
 11
-62.23612531832748
 21
105.0540627750185
 31
0.0
  0
LINE
  5
D7
330
1F
100
AcDbEntity
  8
1
  6
Continuous
 62
     7
100
AcDbLine
 10
-66.58612531832759
 20
104.9040627750185
 30
0.0
 11
-66.43612531832761
 21
105.0540627750185
 31
0.0
  0
LINE
  5
D8
330
1F
100
AcDbEntity
  8
1
  6
Continuous
 62
     7
100
AcDbLine
 10
-62.23612531832748
 20
105.0540627750185
 30
0.0
 11
-62.08612531832762
 21
104.9040627750185
 31
0.0
  0
LINE
  5
D9
330
1F
100
AcDbEntity
  8
1
  6
Continuous
 62
     7
100
AcDbLine
 10
-66.43612531832761
 20
104.4540627750185
 30
0.0
 11
-66.58612531832759
 21
104.6040627750184
 31
0.0
  0
LINE
  5
DA
330
1F
100
AcDbEntity
  8
1
  6
Continuous
 62
     7
100
AcDbLine
 10
-62.08612531832762
 20
104.6040627750184
 30
0.0
 11
-62.23612531832748
 21
104.4540627750185
 31
0.0
  0
LINE
  5
DB
330
1F
100
AcDbEntity
  8
1
  6
Continuous
 62
     7
100
AcDbLine
 10
-66.58612531832759
 20
104.3040627750185
 30
0.0
 11
-66.43612531832761
 21
104.4540627750185
 31
0.0
  0
LINE
  5
DC
330
1F
100
AcDbEntity
  8
1
  6
Continuous
 62
     7
100
AcDbLine
 10
-62.23612531832748
 20
104.4540627750185
 30
0.0
 11
-62.08612531832762
 21
104.3040627750185
 31
0.0
  0
LINE
  5
DD
330
1F
100
AcDbEntity
  8
1
  6
Continuous
 62
     7
100
AcDbLine
 10
-66.43612531832761
 20
103.8540627750184
 30
0.0
 11
-66.58612531832759
 21
104.0004455559134
 31
0.0
  0
LINE
  5
DE
330
1F
100
AcDbEntity
  8
1
  6
Continuous
 62
     7
100
AcDbLine
 10
-62.08612531832762
 20
104.0004455559134
 30
0.0
 11
-62.23612531832748
 21
103.8540627750184
 31
0.0
  0
LINE
  5
DF
330
1F
100
AcDbEntity
  8
1
  6
Continuous
 62
     7
100
AcDbLine
 10
-66.58612531832759
 20
103.7040627750185
 30
0.0
 11
-66.43612531832761
 21
103.8540627750184
 31
0.0
  0
LINE
  5
E0
330
1F
100
AcDbEntity
  8
1
  6
Continuous
 62
     7
100
AcDbLine
 10
-62.23612531832748
 20
103.8540627750184
 30
0.0
 11
-62.08612531832762
 21
103.7040627750185
 31
0.0
  0
LINE
  5
E1
330
1F
100
AcDbEntity
  8
1
  6
Continuous
 62
     7
100
AcDbLine
 10
-66.58612531832759
 20
103.4540627750185
 30
0.0
 11
-66.58612531832759
 21
103.7040627750185
 31
0.0
  0
LINE
  5
E2
330
1F
100
AcDbEntity
  8
1
  6
Continuous
 62
     7
100
AcDbLine
 10
-62.08612531832762
 20
103.7040627750185
 30
0.0
 11
-62.08612531832762
 21
103.4540627750185
 31
0.0
  0
LINE
  5
E3
330
1F
100
AcDbEntity
  8
1
  6
Continuous
 62
     7
100
AcDbLine
 10
-66.58612531832759
 20
104.0004455559134
 30
0.0
 11
-66.58612531832759
 21
104.3040627750185
 31
0.0
  0
LINE
  5
E4
330
1F
100
AcDbEntity
  8
1
  6
Continuous
 62
     7
100
AcDbLine
 10
-62.08612531832762
 20
104.3040627750185
 30
0.0
 11
-62.08612531832762
 21
104.0004455559134
 31
0.0
  0
LINE
  5
E5
330
1F
100
AcDbEntity
  8
1
  6
Continuous
 62
     7
100
AcDbLine
 10
-66.58612531832759
 20
104.6040627750184
 30
0.0
 11
-66.58612531832759
 21
104.9040627750185
 31
0.0
  0
LINE
  5
E6
330
1F
100
AcDbEntity
  8
1
  6
Continuous
 62
     7
100
AcDbLine
 10
-62.08612531832762
 20
104.9040627750185
 30
0.0
 11
-62.08612531832762
 21
104.6040627750184
 31
0.0
  0
LINE
  5
E7
330
1F
100
AcDbEntity
  8
1
  6
Continuous
 62
     7
100
AcDbLine
 10
-66.58612531832759
 20
105.2040627750185
 30
0.0
 11
-66.58612531832759
 21
105.4540627750185
 31
0.0
  0
LINE
  5
E8
330
1F
100
AcDbEntity
  8
1
  6
Continuous
 62
     7
100
AcDbLine
 10
-62.08612531832762
 20
105.4540627750185
 30
0.0
 11
-62.08612531832762
 21
105.2040627750185
 31
0.0
  0
LINE
  5
E9
330
1F
100
AcDbEntity
  8
1
  6
Continuous
 62
     7
100
AcDbLine
 10
-62.08612531832762
 20
105.4540627750185
 30
0.0
 11
-66.58612531832759
 21
105.4540627750185
 31
0.0
  0
LINE
  5
EA
330
1F
100
AcDbEntity
  8
1
  6
Continuous
 62
     7
100
AcDbLine
 10
-63.09612531832761
 20
102.5822638685421
 30
0.0
 11
-63.09612531832761
 21
89.19406277501845
 31
0.0
  0
LINE
  5
EB
330
1F
100
AcDbEntity
  8
1
  6
Continuous
 62
     7
100
AcDbLine
 10
-66.58612531832759
 20
110.4870754769107
 30
0.0
 11
-66.58612531832759
 21
112.9540627750185
 31
0.0
  0
LINE
  5
EC
330
1F
100
AcDbEntity
  8
1
  6
Continuous
 62
     7
100
AcDbLine
 10
-62.08612531832762
 20
112.9540627750185
 30
0.0
 11
-62.08612531832762
 21
110.4870754769107
 31
0.0
  0
LINE
  5
ED
330
1F
100
AcDbEntity
  8
1
  6
Continuous
 62
     7
100
AcDbLine
 10
-62.08612531832762
 20
112.9540627750185
 30
0.0
 11
-66.58612531832759
 21
112.9540627750185
 31
0.0
  0
LINE
  5
EE
330
1F
100
AcDbEntity
  8
1
  6
Continuous
 62
     7
100
AcDbLine
 10
-65.83612531832759
 20
110.0540627750185
 30
0.0
 11
-66.58612531832759
 21
110.4870754769107
 31
0.0
  0
LINE
  5
EF
330
1F
100
AcDbEntity
  8
1
  6
Continuous
 62
     7
100
AcDbLine
 10
-62.08612531832762
 20
110.4870754769107
 30
0.0
 11
-62.83612531832762
 21
110.0540627750185
 31
0.0
  0
LINE
  5
F0
330
1F
100
AcDbEntity
  8
1
  6
Continuous
 62
     7
100
AcDbLine
 10
-64.37951853867091
 20
106.3564234554986
 30
0.0
 11
-64.33612531832759
 21
106.3540627750184
 31
0.0
  0
LINE
  5
F1
330
1F
100
AcDbEntity
  8
1
  6
Continuous
 62
     7
100
AcDbLine
 10
-64.4220359989906
 20
106.363397502761
 30
0.0
 11
-64.37951853867091
 21
106.3564234554986
 31
0.0
  0
LINE
  5
F2
330
1F
100
AcDbEntity
  8
1
  6
Continuous
 62
     7
100
AcDbLine
 10
-64.46350699515591
 20
106.3748874746514
 30
0.0
 11
-64.4220359989906
 21
106.363397502761
 31
0.0
  0
LINE
  5
F3
330
1F
100
AcDbEntity
  8
1
  6
Continuous
 62
     7
100
AcDbLine
 10
-64.5034407511641
 20
106.3907371002655
 30
0.0
 11
-64.46350699515591
 21
106.3748874746514
 31
0.0
  0
LINE
  5
F4
330
1F
100
AcDbEntity
  8
1
  6
Continuous
 62
     7
100
AcDbLine
 10
-64.5413836150505
 20
106.410742179035
 30
0.0
 11
-64.5034407511641
 21
106.3907371002655
 31
0.0
  0
LINE
  5
F5
330
1F
100
AcDbEntity
  8
1
  6
Continuous
 62
     7
100
AcDbLine
 10
-64.57691866990919
 20
106.4346593282085
 30
0.0
 11
-64.5413836150505
 21
106.410742179035
 31
0.0
  0
LINE
  5
F6
330
1F
100
AcDbEntity
  8
1
  6
Continuous
 62
     7
100
AcDbLine
 10
-64.60966479392829
 20
106.4622132328086
 30
0.0
 11
-64.57691866990919
 21
106.4346593282085
 31
0.0
  0
LINE
  5
F7
330
1F
100
AcDbEntity
  8
1
  6
Continuous
 62
     7
100
AcDbLine
 10
-64.63927347062341
 20
106.4931007131021
 30
0.0
 11
-64.60966479392829
 21
106.4622132328086
 31
0.0
  0
LINE
  5
F8
330
1F
100
AcDbEntity
  8
1
  6
Continuous
 62
     7
100
AcDbLine
 10
-64.66542535701859
 20
106.5269912344897
 30
0.0
 11
-64.63927347062341
 21
106.4931007131021
 31
0.0
  0
LINE
  5
F9
330
1F
100
AcDbEntity
  8
1
  6
Continuous
 62
     7
100
AcDbLine
 10
-64.687828529126
 20
106.5635244546887
 30
0.0
 11
-64.66542535701859
 21
106.5269912344897
 31
0.0
  0
LINE
  5
FA
330
1F
100
AcDbEntity
  8
1
  6
Continuous
 62
     7
100
AcDbLine
 10
-64.7062198605017
 20
106.6023062929397
 30
0.0
 11
-64.687828529126
 21
106.5635244546887
 31
0.0
  0
LINE
  5
FB
330
1F
100
AcDbEntity
  8
1
  6
Continuous
 62
     7
100
AcDbLine
 10
-64.72037015522571
 20
106.6429056550613
 30
0.0
 11
-64.7062198605017
 21
106.6023062929397
 31
0.0
  0
LINE
  5
FC
330
1F
100
AcDbEntity
  8
1
  6
Continuous
 62
     7
100
AcDbLine
 10
-64.73009253082671
 20
106.6848541377269
 30
0.0
 11
-64.72037015522571
 21
106.6429056550613
 31
0.0
  0
LINE
  5
FD
330
1F
100
AcDbEntity
  8
1
  6
Continuous
 62
     7
100
AcDbLine
 10
-64.73525235749301
 20
106.7276505315124
 30
0.0
 11
-64.73009253082671
 21
106.6848541377269
 31
0.0
  0
LINE
  5
FE
330
1F
100
AcDbEntity
  8
1
  6
Continuous
 62
     7
100
AcDbLine
 10
-64.73577622317751
 20
106.7707706849018
 30
0.0
 11
-64.73525235749301
 21
106.7276505315124
 31
0.0
  0
LINE
  5
FF
330
1F
100
AcDbEntity
  8
1
  6
Continuous
 62
     7
100
AcDbLine
 10
-64.73165736003111
 20
106.8136815974308
 30
0.0
 11
-64.73577622317751
 21
106.7707706849018
 31
0.0
  0
LINE
  5
100
330
1F
100
AcDbEntity
  8
1
  6
Continuous
 62
     7
100
AcDbLine
 10
-64.72295590807661
 20
106.8558571502779
 30
0.0
 11
-64.73165736003111
 21
106.8136815974308
 31
0.0
  0
LINE
  5
101
330
1F
100
AcDbEntity
  8
1
  6
Continuous
 62
     7
100
AcDbLine
 10
-64.70979398740229
 20
106.8967923296032
 30
0.0
 11
-64.72295590807661
 21
106.8558571502779
 31
0.0
  0
LINE
  5
102
330
1F
100
AcDbEntity
  8
1
  6
Continuous
 62
     7
100
AcDbLine
 10
-64.6923471218619
 20
106.9360133910844
 30
0.0
 11
-64.70979398740229
 21
106.8967923296032
 31
0.0
  0
LINE
  5
103
330
1F
100
AcDbEntity
  8
1
  6
Continuous
 62
     7
100
AcDbLine
 10
-64.67083447297799
 20
106.973082823857
 30
0.0
 11
-64.6923471218619
 21
106.9360133910844
 31
0.0
  0
LINE
  5
104
330
1F
100
AcDbEntity
  8
1
  6
Continuous
 62
     7
100
AcDbLine
 10
-64.6455103531226
 20
107.0075995578428
 30
0.0
 11
-64.67083447297799
 21
106.973082823857
 31
0.0
  0
LINE
  5
105
330
1F
100
AcDbEntity
  8
1
  6
Continuous
 62
     7
100
AcDbLine
 10
-64.61665875962089
 20
107.039196056689
 30
0.0
 11
-64.6455103531226
 21
107.0075995578428
 31
0.0
  0
LINE
  5
106
330
1F
100
AcDbEntity
  8
1
  6
Continuous
 62
     7
100
AcDbLine
 10
-64.5845915841804
 20
107.0675344878303
 30
0.0
 11
-64.61665875962089
 21
107.039196056689
 31
0.0
  0
LINE
  5
107
330
1F
100
AcDbEntity
  8
1
  6
Continuous
 62
     7
100
AcDbLine
 10
-64.54965005873731
 20
107.0923040871508
 30
0.0
 11
-64.5845915841804
 21
107.0675344878303
 31
0.0
  0
LINE
  5
108
330
1F
100
AcDbEntity
  8
1
  6
Continuous
 62
     7
100
AcDbLine
 10
-64.51220811767001
 20
107.113221302379
 30
0.0
 11
-64.54965005873731
 21
107.0923040871508
 31
0.0
  0
LINE
  5
109
330
1F
100
AcDbEntity
  8
1
  6
Continuous
 62
     7
100
AcDbLine
 10
-64.47267579569731
 20
107.1300334748478
 30
0.0
 11
-64.51220811767001
 21
107.113221302379
 31
0.0
  0
LINE
  5
10A
330
1F
100
AcDbEntity
  8
1
  6
Continuous
 62
     7
100
AcDbLine
 10
-64.43150061853581
 20
107.1425258390416
 30
0.0
 11
-64.47267579569731
 21
107.1300334748478
 31
0.0
  0
LINE
  5
10B
330
1F
100
AcDbEntity
  8
1
  6
Continuous
 62
     7
100
AcDbLine
 10
-64.38916526146201
 20
107.1505306355473
 30
0.0
 11
-64.43150061853581
 21
107.1425258390416
 31
0.0
  0
LINE
  5
10C
330
1F
100
AcDbEntity
  8
1
  6
Continuous
 62
     7
100
AcDbLine
 10
-64.3461805782149
 20
107.1539363697313
 30
0.0
 11
-64.38916526146201
 21
107.1505306355473
 31
0.0
  0
LINE
  5
10D
330
1F
100
AcDbEntity
  8
1
  6
Continuous
 62
     7
100
AcDbLine
 10
-64.3030743068135
 20
107.1526949747187
 30
0.0
 11
-64.3461805782149
 21
107.1539363697313
 31
0.0
  0
LINE
  5
10E
330
1F
100
AcDbEntity
  8
1
  6
Continuous
 62
     7
100
AcDbLine
 10
-64.26037699837451
 20
107.1468250339287
 30
0.0
 11
-64.3030743068135
 21
107.1526949747187
 31
0.0
  0
LINE
  5
10F
330
1F
100
AcDbEntity
  8
1
  6
Continuous
 62
     7
100
AcDbLine
 10
-64.2186075453308
 20
107.1364102256833
 30
0.0
 11
-64.26037699837451
 21
107.1468250339287
 31
0.0
  0
LINE
  5
110
330
1F
100
AcDbEntity
  8
1
  6
Continuous
 62
     7
100
AcDbLine
 10
-64.1782607837554
 20
107.1215934386702
 30
0.0
 11
-64.2186075453308
 21
107.1364102256833
 31
0.0
  0
LINE
  5
111
330
1F
100
AcDbEntity
  8
1
  6
Continuous
 62
     7
100
AcDbLine
 10
-64.1397989906232
 20
107.1025681165129
 30
0.0
 11
-64.1782607837554
 21
107.1215934386702
 31
0.0
  0
LINE
  5
112
330
1F
100
AcDbEntity
  8
1
  6
Continuous
 62
     7
100
AcDbLine
 10
-64.10364796943989
 20
107.0795689688983
 30
0.0
 11
-64.1397989906232
 21
107.1025681165129
 31
0.0
  0
LINE
  5
113
330
1F
100
AcDbEntity
  8
1
  6
Continuous
 62
     7
100
AcDbLine
 10
-64.07019722247409
 20
107.0528641268155
 30
0.0
 11
-64.10364796943989
 21
107.0795689688983
 31
0.0
  0
LINE
  5
114
330
1F
100
AcDbEntity
  8
1
  6
Continuous
 62
     7
100
AcDbLine
 10
-64.03980277946681
 20
107.0227502383715
 30
0.0
 11
-64.07019722247409
 21
107.0528641268155
 31
0.0
  0
LINE
  5
115
330
1F
100
AcDbEntity
  8
1
  6
Continuous
 62
     7
100
AcDbLine
 10
-64.0127907558043
 20
106.9895511201183
 30
0.0
 11
-64.03980277946681
 21
107.0227502383715
 31
0.0
  0
LINE
  5
116
330
1F
100
AcDbEntity
  8
1
  6
Continuous
 62
     7
100
AcDbLine
 10
-63.98945966797899
 20
106.9536196011818
 30
0.0
 11
-64.0127907558043
 21
106.9895511201183
 31
0.0
  0
LINE
  5
117
330
1F
100
AcDbEntity
  8
1
  6
Continuous
 62
     7
100
AcDbLine
 10
-63.97007990361971
 20
106.9153412744265
 30
0.0
 11
-63.98945966797899
 21
106.9536196011818
 31
0.0
  0
LINE
  5
118
330
1F
100
AcDbEntity
  8
1
  6
Continuous
 62
     7
100
AcDbLine
 10
-63.95488949249989
 20
106.8751381445428
 30
0.0
 11
-63.97007990361971
 21
106.9153412744265
 31
0.0
  0
LINE
  5
119
330
1F
100
AcDbEntity
  8
1
  6
Continuous
 62
     7
100
AcDbLine
 10
-63.9440863941376
 20
106.8334698396909
 30
0.0
 11
-63.95488949249989
 21
106.8751381445428
 31
0.0
  0
LINE
  5
11A
330
1F
100
AcDbEntity
  8
1
  6
Continuous
 62
     7
100
AcDbLine
 10
-63.93781872328009
 20
106.7908303740927
 30
0.0
 11
-63.9440863941376
 21
106.8334698396909
 31
0.0
  0
LINE
  5
11B
330
1F
100
AcDbEntity
  8
1
  6
Continuous
 62
     7
100
AcDbLine
 10
-63.93617530061709
 20
106.7477395374475
 30
0.0
 11
-63.93781872328009
 21
106.7908303740927
 31
0.0
  0
LINE
  5
11C
330
1F
100
AcDbEntity
  8
1
  6
Continuous
 62
     7
100
AcDbLine
 10
-63.9391791751828
 20
106.7047296275162
 30
0.0
 11
-63.93617530061709
 21
106.7477395374475
 31
0.0
  0
LINE
  5
11D
330
1F
100
AcDbEntity
  8
1
  6
Continuous
 62
     7
100
AcDbLine
 10
-63.9467860492818
 20
106.6623298279446
 30
0.0
 11
-63.9391791751828
 21
106.7047296275162
 31
0.0
  0
LINE
  5
11E
330
1F
100
AcDbEntity
  8
1
  6
Continuous
 62
     7
100
AcDbLine
 10
-63.95888804493799
 20
106.621051348571
 30
0.0
 11
-63.9467860492818
 21
106.6623298279446
 31
0.0
  0
LINE
  5
11F
330
1F
100
AcDbEntity
  8
1
  6
Continuous
 62
     7
100
AcDbLine
 10
-63.97532160655629
 20
106.5813761178268
 30
0.0
 11
-63.95888804493799
 21
106.621051348571
 31
0.0
  0
LINE
  5
120
330
1F
100
AcDbEntity
  8
1
  6
Continuous
 62
     7
100
AcDbLine
 10
-63.99587722047519
 20
106.5437505502007
 30
0.0
 11
-63.97532160655629
 21
106.5813761178268
 31
0.0
  0
LINE
  5
121
330
1F
100
AcDbEntity
  8
1
  6
Continuous
 62
     7
100
AcDbLine
 10
-64.02030840557751
 20
106.5085843083029
 30
0.0
 11
-63.99587722047519
 21
106.5437505502007
 31
0.0
  0
LINE
  5
122
330
1F
100
AcDbEntity
  8
1
  6
Continuous
 62
     7
100
AcDbLine
 10
-64.04833800990099
 20
106.4762526508175
 30
0.0
 11
-64.02030840557751
 21
106.5085843083029
 31
0.0
  0
LINE
  5
123
330
1F
100
AcDbEntity
  8
1
  6
Continuous
 62
     7
100
AcDbLine
 10
-64.07966088507109
 20
106.4471002455879
 30
0.0
 11
-64.04833800990099
 21
106.4762526508175
 31
0.0
  0
LINE
  5
124
330
1F
100
AcDbEntity
  8
1
  6
Continuous
 62
     7
100
AcDbLine
 10
-64.11394312770639
 20
106.4214442635511
 30
0.0
 11
-64.07966088507109
 21
106.4471002455879
 31
0.0
  0
LINE
  5
125
330
1F
100
AcDbEntity
  8
1
  6
Continuous
 62
     7
100
AcDbLine
 10
-64.1508190219447
 20
106.3995750086275
 30
0.0
 11
-64.11394312770639
 21
106.4214442635511
 31
0.0
  0
LINE
  5
126
330
1F
100
AcDbEntity
  8
1
  6
Continuous
 62
     7
100
AcDbLine
 10
-64.1898874621292
 20
106.3817531063091
 30
0.0
 11
-64.1508190219447
 21
106.3995750086275
 31
0.0
  0
LINE
  5
127
330
1F
100
AcDbEntity
  8
1
  6
Continuous
 62
     7
100
AcDbLine
 10
-64.2307099004683
 20
106.3682032284506
 30
0.0
 11
-64.1898874621292
 21
106.3817531063091
 31
0.0
  0
LINE
  5
128
330
1F
100
AcDbEntity
  8
1
  6
Continuous
 62
     7
100
AcDbLine
 10
-64.27281166844551
 20
106.3591053320722
 30
0.0
 11
-64.2307099004683
 21
106.3682032284506
 31
0.0
  0
LINE
  5
129
330
1F
100
AcDbEntity
  8
1
  6
Continuous
 62
     7
100
AcDbLine
 10
-64.3043612830607
 20
106.3553259619906
 30
0.0
 11
-64.27281166844551
 21
106.3591053320722
 31
0.0
  0
LINE
  5
12A
330
1F
100
AcDbEntity
  8
1
  6
Continuous
 62
     7
100
AcDbLine
 10
-64.33612531832759
 20
106.3540627750184
 30
0.0
 11
-64.3043612830607
 21
106.3553259619906
 31
0.0
  0
LINE
  5
12B
330
1F
100
AcDbEntity
  8
1
  6
Continuous
 62
     7
100
AcDbLine
 10
-65.83612531832759
 20
105.4540627750185
 30
0.0
 11
-65.83612531832759
 21
110.0540627750185
 31
0.0
  0
LINE
  5
12C
330
1F
100
AcDbEntity
  8
1
  6
Continuous
 62
     7
100
AcDbLine
 10
-62.83612531832762
 20
110.0540627750185
 30
0.0
 11
-62.83612531832762
 21
105.4540627750185
 31
0.0
  0
LINE
  5
12D
330
1F
100
AcDbEntity
  8
1
  6
Continuous
 62
     7
100
AcDbLine
 10
-65.8261253183276
 20
103.0152765704343
 30
0.0
 11
-66.58612531832759
 21
103.4540627750185
 31
0.0
  0
LINE
  5
12E
330
1F
100
AcDbEntity
  8
1
  6
Continuous
 62
     7
100
AcDbLine
 10
-62.08612531832762
 20
103.4540627750185
 30
0.0
 11
-62.84612531832761
 21
103.0152765704343
 31
0.0
  0
LINE
  5
12F
330
1F
100
AcDbEntity
  8
1
  6
DOT_CENTER
 62
     2
100
AcDbLine
 10
-32.1339467423516
 20
106.7530140708596
 30
0.0
 11
-33.97351864394193
 21
106.7530140708596
 31
0.0
  0
LINE
  5
130
330
1F
100
AcDbEntity
  8
1
  6
Continuous
 62
     7
100
AcDbLine
 10
-33.09612531832758
 20
89.19406277501845
 30
0.0
 11
-33.09612531832758
 21
102.5822638685421
 31
0.0
  0
LINE
  5
131
330
1F
100
AcDbEntity
  8
1
  6
Continuous
 62
     7
100
AcDbLine
 10
-35.57612531832761
 20
89.19406277501845
 30
0.0
 11
-35.57612531832761
 21
102.5822638685421
 31
0.0
  0
LINE
  5
132
330
1F
100
AcDbEntity
  8
1
  6
DOT_CENTER
 62
     2
100
AcDbLine
 10
-62.17474770064149
 20
106.7530140708596
 30
0.0
 11
-66.41857439736049
 21
106.7530140708596
 31
0.0
  0
LINE
  5
133
330
1F
100
AcDbEntity
  8
1
  6
Continuous
 62
     2
100
AcDbLine
 10
-33.09612531832758
 20
102.5822638685421
 30
0.0
 11
-35.57612531832761
 21
102.5822638685421
 31
0.0
  0
LINE
  5
134
330
1F
100
AcDbEntity
  8
1
  6
Continuous
 62
     2
100
AcDbLine
 10
-32.90242192445361
 20
103.0152765704343
 30
0.0
 11
-35.70937216512259
 21
103.0152765704343
 31
0.0
  0
LINE
  5
135
330
1F
100
AcDbEntity
  8
1
  6
Continuous
 62
     7
100
AcDbLine
 10
-33.69999999999979
 20
35.4387606770449
 30
0.0
 11
-76.70000000000077
 21
35.4387606770449
 31
0.0
  0
LINE
  5
136
330
1F
100
AcDbEntity
  8
1
  6
Continuous
 62
     7
100
AcDbLine
 10
-28.69999999999958
 20
44.63876067704491
 30
0.0
 11
-28.70000000000005
 21
32.2387606770449
 31
0.0
  0
LINE
  5
137
330
1F
100
AcDbEntity
  8
1
  6
Continuous
 62
     7
100
AcDbLine
 10
-33.69999999999979
 20
32.2387606770449
 30
0.0
 11
-76.70000000000105
 21
32.2387606770449
 31
0.0
  0
LINE
  5
138
330
1F
100
AcDbEntity
  8
1
  6
Continuous
 62
     7
100
AcDbLine
 10
-62.70000000000047
 20
44.63876067704491
 30
0.0
 11
-62.70000000000116
 21
32.2387606770449
 31
0.0
  0
LINE
  5
139
330
1F
100
AcDbEntity
  8
1
  6
Continuous
 62
     7
100
AcDbLine
 10
-57.70000000000047
 20
44.63876067704491
 30
0.0
 11
-57.70000000000093
 21
32.23876067704491
 31
0.0
  0
LINE
  5
13A
330
1F
100
AcDbEntity
  8
1
  6
Continuous
 62
     7
100
AcDbLine
 10
-50.70000000000024
 20
42.13876067704492
 30
0.0
 11
-50.70000000000071
 21
32.23876067704491
 31
0.0
  0
LINE
  5
13B
330
1F
100
AcDbEntity
  8
1
  6
Continuous
 62
     7
100
AcDbLine
 10
-33.69999999999934
 20
44.63876067704491
 30
0.0
 11
-33.69999999999979
 21
32.2387606770449
 31
0.0
  0
LINE
  5
13C
330
1F
100
AcDbEntity
  8
1
  6
Continuous
 62
     7
100
AcDbLine
 10
-20.69999999999936
 20
44.63876067704491
 30
0.0
 11
-20.6999999999998
 21
32.2387606770449
 31
0.0
  0
LINE
  5
13D
330
1F
100
AcDbEntity
  8
1
  6
Continuous
 62
     7
100
AcDbLine
 10
-43.70000000000002
 20
44.63876067704491
 30
0.0
 11
-43.70000000000047
 21
32.23876067704489
 31
0.0
  0
LINE
  5
13E
330
1F
100
AcDbEntity
  8
1
  6
Continuous
 62
     7
100
AcDbLine
 10
-62.70000000000047
 20
44.63876067704491
 30
0.0
 11
-62.70000000000116
 21
32.2387606770449
 31
0.0
  0
LINE
  5
13F
330
1F
100
AcDbEntity
  8
1
  6
Continuous
 62
     7
100
AcDbLine
 10
-76.70000000000059
 20
44.63876067704491
 30
0.0
 11
-76.70000000000105
 21
32.2387606770449
 31
0.0
  0
LINE
  5
140
330
1F
100
AcDbEntity
  8
1
  6
Continuous
 62
     7
100
AcDbLine
 10
-33.69999999999979
 20
32.2387606770449
 30
0.0
 11
-20.6999999999998
 21
32.2387606770449
 31
0.0
  0
LINE
  5
141
330
1F
100
AcDbEntity
  8
1
  6
Continuous
 62
     7
100
AcDbLine
 10
-76.70000000000073
 20
38.63876067704494
 30
0.0
 11
-20.69999999999936
 21
38.63876067704494
 31
0.0
  0
LINE
  5
142
330
1F
100
AcDbEntity
  8
1
  6
Continuous
 62
     7
100
AcDbLine
 10
-76.70000000000059
 20
44.63876067704491
 30
0.0
 11
-20.69999999999936
 21
44.63876067704491
 31
0.0
  0
LINE
  5
143
330
1F
100
AcDbEntity
  8
1
  6
Continuous
 62
     7
100
AcDbLine
 10
-76.70000000000059
 20
63.03876067704492
 30
0.0
 11
-20.69999999999936
 21
63.03876067704492
 31
0.0
  0
LINE
  5
144
330
1F
100
AcDbEntity
  8
1
  6
Continuous
 62
     7
100
AcDbLine
 10
-76.70000000000073
 20
57.03876067704495
 30
0.0
 11
-20.69999999999936
 21
57.03876067704495
 31
0.0
  0
LINE
  5
145
330
1F
100
AcDbEntity
  8
1
  6
Continuous
 62
     7
100
AcDbLine
 10
-33.69999999999979
 20
50.63876067704491
 30
0.0
 11
-20.6999999999998
 21
50.63876067704491
 31
0.0
  0
LINE
  5
146
330
1F
100
AcDbEntity
  8
1
  6
Continuous
 62
     7
100
AcDbLine
 10
-76.70000000000059
 20
63.03876067704492
 30
0.0
 11
-76.70000000000105
 21
50.63876067704491
 31
0.0
  0
LINE
  5
147
330
1F
100
AcDbEntity
  8
1
  6
Continuous
 62
     7
100
AcDbLine
 10
-62.70000000000047
 20
63.03876067704492
 30
0.0
 11
-62.70000000000116
 21
50.63876067704491
 31
0.0
  0
LINE
  5
148
330
1F
100
AcDbEntity
  8
1
  6
Continuous
 62
     7
100
AcDbLine
 10
-82.0
 20
17.5
 30
0.0
 11
-82.0
 21
20.0
 31
0.0
  0
LINE
  5
149
330
1F
100
AcDbEntity
  8
1
  6
Continuous
 62
     7
100
AcDbLine
 10
-91.0
 20
17.5
 30
0.0
 11
-91.0
 21
20.0
 31
0.0
  0
LINE
  5
14A
330
1F
100
AcDbEntity
  8
1
  6
Continuous
 62
     7
100
AcDbLine
 10
-94.5
 20
20.0
 30
0.0
 11
-2.5
 21
20.0
 31
0.0
  0
LINE
  5
14B
330
1F
100
AcDbEntity
  8
1
  6
Continuous
 62
     7
100
AcDbLine
 10
-82.0
 20
15.0
 30
0.0
 11
-82.0
 21
17.5
 31
0.0
  0
LINE
  5
14C
330
1F
100
AcDbEntity
  8
1
  6
Continuous
 62
     7
100
AcDbLine
 10
-91.0
 20
15.0
 30
0.0
 11
-91.0
 21
17.5
 31
0.0
  0
LINE
  5
14D
330
1F
100
AcDbEntity
  8
1
  6
Continuous
 62
     7
100
AcDbLine
 10
-94.5
 20
17.5
 30
0.0
 11
-2.5
 21
17.5
 31
0.0
  0
LINE
  5
14E
330
1F
100
AcDbEntity
  8
1
  6
Continuous
 62
     7
100
AcDbLine
 10
-82.0
 20
12.5
 30
0.0
 11
-82.0
 21
15.0
 31
0.0
  0
LINE
  5
14F
330
1F
100
AcDbEntity
  8
1
  6
Continuous
 62
     7
100
AcDbLine
 10
-91.0
 20
12.5
 30
0.0
 11
-91.0
 21
15.0
 31
0.0
  0
LINE
  5
150
330
1F
100
AcDbEntity
  8
1
  6
Continuous
 62
     7
100
AcDbLine
 10
-94.5
 20
15.0
 30
0.0
 11
-2.5
 21
15.0
 31
0.0
  0
LINE
  5
151
330
1F
100
AcDbEntity
  8
1
  6
Continuous
 62
     7
100
AcDbLine
 10
-82.0
 20
10.0
 30
0.0
 11
-82.0
 21
12.5
 31
0.0
  0
LINE
  5
152
330
1F
100
AcDbEntity
  8
1
  6
Continuous
 62
     7
100
AcDbLine
 10
-91.0
 20
10.0
 30
0.0
 11
-91.0
 21
12.5
 31
0.0
  0
LINE
  5
153
330
1F
100
AcDbEntity
  8
1
  6
Continuous
 62
     7
100
AcDbLine
 10
-94.5
 20
12.5
 30
0.0
 11
-2.5
 21
12.5
 31
0.0
  0
LINE
  5
154
330
1F
100
AcDbEntity
  8
1
  6
Continuous
 62
     7
100
AcDbLine
 10
-43.70000000000002
 20
63.03876067704492
 30
0.0
 11
-43.70000000000047
 21
50.6387606770449
 31
0.0
  0
LINE
  5
155
330
1F
100
AcDbEntity
  8
1
  6
Continuous
 62
     7
100
AcDbLine
 10
-20.69999999999936
 20
63.03876067704492
 30
0.0
 11
-20.6999999999998
 21
50.63876067704491
 31
0.0
  0
LINE
  5
156
330
1F
100
AcDbEntity
  8
1
  6
Continuous
 62
     7
100
AcDbLine
 10
-33.69999999999934
 20
63.03876067704492
 30
0.0
 11
-33.69999999999979
 21
50.63876067704491
 31
0.0
  0
LINE
  5
157
330
1F
100
AcDbEntity
  8
1
  6
Continuous
 62
     7
100
AcDbLine
 10
-50.70000000000024
 20
60.53876067704493
 30
0.0
 11
-50.70000000000071
 21
50.63876067704491
 31
0.0
  0
LINE
  5
158
330
1F
100
AcDbEntity
  8
1
  6
Continuous
 62
     7
100
AcDbLine
 10
-57.70000000000047
 20
63.03876067704492
 30
0.0
 11
-57.70000000000093
 21
50.63876067704491
 31
0.0
  0
LINE
  5
159
330
1F
100
AcDbEntity
  8
1
  6
Continuous
 62
     7
100
AcDbLine
 10
-62.70000000000047
 20
63.03876067704492
 30
0.0
 11
-62.70000000000116
 21
50.63876067704491
 31
0.0
  0
LINE
  5
15A
330
1F
100
AcDbEntity
  8
1
  6
Continuous
 62
     7
100
AcDbLine
 10
-33.69999999999979
 20
50.63876067704491
 30
0.0
 11
-76.70000000000105
 21
50.63876067704491
 31
0.0
  0
LINE
  5
15B
330
1F
100
AcDbEntity
  8
1
  6
Continuous
 62
     7
100
AcDbLine
 10
-94.5
 20
2.49999999999994
 30
0.0
 11
-2.5
 21
2.49999999999994
 31
0.0
  0
LINE
  5
15C
330
1F
100
AcDbEntity
  8
1
  6
Continuous
 62
     7
100
AcDbLine
 10
-94.5
 20
10.0
 30
0.0
 11
-94.5
 21
2.49999999999994
 31
0.0
  0
LINE
  5
15D
330
1F
100
AcDbEntity
  8
1
  6
Continuous
 62
     7
100
AcDbLine
 10
-24.5
 20
10.0
 30
0.0
 11
-24.5
 21
2.5
 31
0.0
  0
LINE
  5
15E
102
{ACAD_REACTORS
330
21F
102
}
330
1F
100
AcDbEntity
  8
1
  6
Continuous
 62
     7
100
AcDbLine
 10
-7.99518298896197
 20
5.03874991991631
 30
0.0
 11
-7.99518298896197
 21
7.46125008008369
 31
0.0
  0
LINE
  5
15F
102
{ACAD_REACTORS
330
21F
102
}
330
1F
100
AcDbEntity
  8
1
  6
Continuous
 62
     7
100
AcDbLine
 10
-7.07856258004711
 20
5.27900104019017
 30
0.0
 11
-7.74522924671373
 21
4.89438565557487
 31
0.0
  0
LINE
  5
160
102
{ACAD_REACTORS
330
21F
102
}
330
1F
100
AcDbEntity
  8
1
  6
Continuous
 62
     7
100
AcDbLine
 10
-7.66184965562866
 20
5.32731826632397
 30
0.0
 11
-7.24513673121027
 21
5.56772956887312
 31
0.0
  0
LINE
  5
161
102
{ACAD_REACTORS
330
21F
102
}
330
1F
100
AcDbEntity
  8
1
  6
Continuous
 62
     7
100
AcDbLine
 10
-7.66184965562866
 20
6.08333333333332
 30
0.0
 11
-7.66184965562866
 21
5.32731826632397
 31
0.0
  0
LINE
  5
162
102
{ACAD_REACTORS
330
21F
102
}
330
1F
100
AcDbEntity
  8
1
  6
Continuous
 62
     7
100
AcDbLine
 10
-7.16184965562866
 20
6.08333333333332
 30
0.0
 11
-7.66184965562866
 21
6.08333333333332
 31
0.0
  0
LINE
  5
163
102
{ACAD_REACTORS
330
21F
102
}
330
1F
100
AcDbEntity
  8
1
  6
Continuous
 62
     7
100
AcDbLine
 10
-7.66184965562866
 20
6.41666666666663
 30
0.0
 11
-7.16184965562866
 21
6.41666666666663
 31
0.0
  0
LINE
  5
164
102
{ACAD_REACTORS
330
21F
102
}
330
1F
100
AcDbEntity
  8
1
  6
Continuous
 62
     7
100
AcDbLine
 10
-7.66184965562866
 20
7.17268173367597
 30
0.0
 11
-7.66184965562866
 21
6.41666666666663
 31
0.0
  0
LINE
  5
165
102
{ACAD_REACTORS
330
21F
102
}
330
1F
100
AcDbEntity
  8
1
  6
Continuous
 62
     7
100
AcDbLine
 10
-7.24513673121027
 20
6.93227043112688
 30
0.0
 11
-7.66184965562866
 21
7.17268173367597
 31
0.0
  0
LINE
  5
166
102
{ACAD_REACTORS
330
21F
102
}
330
1F
100
AcDbEntity
  8
1
  6
Continuous
 62
     7
100
AcDbLine
 10
-7.74522924671373
 20
7.60561434442513
 30
0.0
 11
-7.07856258004711
 21
7.22099895980972
 31
0.0
  0
LINE
  5
167
102
{ACAD_REACTORS
330
222
102
}
330
1F
100
AcDbEntity
  8
1
  6
Continuous
 62
     7
100
AcDbLine
 10
-11.32851632229534
 20
5.42336530453161
 30
0.0
 11
-11.32851632229534
 21
7.07663469546833
 31
0.0
  0
LINE
  5
168
102
{ACAD_REACTORS
330
222
102
}
330
1F
100
AcDbEntity
  8
1
  6
Continuous
 62
     7
100
AcDbLine
 10
-10.99518298896203
 20
5.51962595863165
 30
0.0
 11
-10.99518298896203
 21
5.42336530453161
 31
0.0
  0
LINE
  5
169
102
{ACAD_REACTORS
330
222
102
}
330
1F
100
AcDbEntity
  8
1
  6
Continuous
 62
     7
100
AcDbLine
 10
-10.99518298896203
 20
7.07663469546833
 30
0.0
 11
-10.99518298896203
 21
5.51962595863165
 31
0.0
  0
LINE
  5
16A
102
{ACAD_REACTORS
330
220
102
}
330
1F
100
AcDbEntity
  8
1
  6
Continuous
 62
     7
100
AcDbLine
 10
-9.41180339787695
 20
4.2213087324979
 30
0.0
 11
-10.4950904734585
 21
4.84628204533345
 31
0.0
  0
LINE
  5
16B
102
{ACAD_REACTORS
330
220
102
}
330
1F
100
AcDbEntity
  8
1
  6
Continuous
 62
     7
100
AcDbLine
 10
-10.32851632229534
 20
5.13501057401635
 30
0.0
 11
-9.24522924671373
 21
4.5100372611808
 31
0.0
  0
LINE
  5
16C
102
{ACAD_REACTORS
330
220
102
}
330
1F
100
AcDbEntity
  8
1
  6
Continuous
 62
     7
100
AcDbLine
 10
-10.32851632229534
 20
7.46125008008369
 30
0.0
 11
-10.32851632229534
 21
5.13501057401635
 31
0.0
  0
LINE
  5
16D
102
{ACAD_REACTORS
330
220
102
}
330
1F
100
AcDbEntity
  8
1
  6
Continuous
 62
     7
100
AcDbLine
 10
-10.66184965562866
 20
5.13501057401629
 30
0.0
 11
-10.66184965562866
 21
7.46125008008369
 31
0.0
  0
LINE
  5
16E
102
{ACAD_REACTORS
330
221
102
}
330
1F
100
AcDbEntity
  8
1
  6
Continuous
 62
     7
100
AcDbLine
 10
-8.57573316410702
 20
7.93185020913614
 30
0.0
 11
-9.16184965562866
 21
6.91666666666663
 31
0.0
  0
LINE
  5
16F
102
{ACAD_REACTORS
330
221
102
}
330
1F
100
AcDbEntity
  8
1
  6
Continuous
 62
     7
100
AcDbLine
 10
-8.32851632229534
 20
4.6541345353009
 30
0.0
 11
-8.32851632229534
 21
7.86560865601728
 31
0.0
  0
LINE
  5
170
102
{ACAD_REACTORS
330
221
102
}
330
1F
100
AcDbEntity
  8
1
  6
Continuous
 62
     7
100
AcDbLine
 10
-8.66184965562866
 20
6.25
 30
0.0
 11
-8.66184965562866
 21
4.6541345353009
 31
0.0
  0
LINE
  5
171
102
{ACAD_REACTORS
330
221
102
}
330
1F
100
AcDbEntity
  8
1
  6
Continuous
 62
     7
100
AcDbLine
 10
-9.66184965562866
 20
5.42379253631645
 30
0.0
 11
-9.66184965562866
 21
6.25
 31
0.0
  0
LINE
  5
172
102
{ACAD_REACTORS
330
221
102
}
330
1F
100
AcDbEntity
  8
1
  6
Continuous
 62
     7
100
AcDbLine
 10
-9.99518298896203
 20
6.25
 30
0.0
 11
-9.99518298896203
 21
5.42379253631645
 31
0.0
  0
LINE
  5
173
102
{ACAD_REACTORS
330
221
102
}
330
1F
100
AcDbEntity
  8
1
  6
Continuous
 62
     7
100
AcDbLine
 10
-9.74796614715029
 20
7.93185020913614
 30
0.0
 11
-9.16184965562866
 21
6.91666666666663
 31
0.0
  0
LINE
  5
174
102
{ACAD_REACTORS
330
221
102
}
330
1F
100
AcDbEntity
  8
1
  6
Continuous
 62
     7
100
AcDbLine
 10
-9.99518298896203
 20
6.25
 30
0.0
 11
-9.99518298896203
 21
7.86560865601728
 31
0.0
  0
LINE
  5
175
330
1F
100
AcDbEntity
  8
1
  6
Continuous
 62
     7
100
AcDbLine
 10
-9.16184965562866
 20
3.75
 30
0.0
 11
-13.37006729319944
 21
6.17781786782928
 31
0.0
  0
LINE
  5
176
330
1F
100
AcDbEntity
  8
1
  6
Continuous
 62
     7
100
AcDbLine
 10
-4.95363201805793
 20
6.17781786782928
 30
0.0
 11
-9.16184965562866
 21
3.75
 31
0.0
  0
LINE
  5
177
330
1F
100
AcDbEntity
  8
1
  6
Continuous
 62
     7
100
AcDbLine
 10
-9.16184965562866
 20
8.75
 30
0.0
 11
-4.95363201805793
 21
6.32218213217067
 31
0.0
  0
LINE
  5
178
330
1F
100
AcDbEntity
  8
1
  6
Continuous
 62
     7
100
AcDbLine
 10
-13.37006729319944
 20
6.32218213217067
 30
0.0
 11
-9.16184965562866
 21
8.75
 31
0.0
  0
LINE
  5
179
102
{ACAD_REACTORS
330
221
102
}
330
1F
100
AcDbEntity
  8
1
  6
Continuous
 62
     7
100
AcDbLine
 10
-9.66184965562866
 20
7.11602540378442
 30
0.0
 11
-9.66184965562866
 21
6.25
 31
0.0
  0
LINE
  5
17A
102
{ACAD_REACTORS
330
221
102
}
330
1F
100
AcDbEntity
  8
1
  6
Continuous
 62
     7
100
AcDbLine
 10
-9.23401843927741
 20
6.375
 30
0.0
 11
-9.66184965562866
 21
7.11602540378442
 31
0.0
  0
LINE
  5
17B
102
{ACAD_REACTORS
330
221
102
}
330
1F
100
AcDbEntity
  8
1
  6
Continuous
 62
     7
100
AcDbLine
 10
-8.66184965562866
 20
7.11602540378442
 30
0.0
 11
-9.08968087197997
 21
6.375
 31
0.0
  0
LINE
  5
17C
102
{ACAD_REACTORS
330
221
102
}
330
1F
100
AcDbEntity
  8
1
  6
Continuous
 62
     7
100
AcDbLine
 10
-8.66184965562866
 20
6.25
 30
0.0
 11
-8.66184965562866
 21
7.11602540378442
 31
0.0
  0
LINE
  5
17D
330
1F
100
AcDbEntity
  8
1
  6
Continuous
 62
     7
100
AcDbLine
 10
-15.82369931125732
 20
10.0
 30
0.0
 11
-15.82369931125732
 21
2.5
 31
0.0
  0
LINE
  5
17E
330
1F
100
AcDbEntity
  8
1
  6
Continuous
 62
     7
100
AcDbLine
 10
-94.5
 20
10.0
 30
0.0
 11
-2.5
 21
10.0
 31
0.0
  0
LINE
  5
17F
330
1F
100
AcDbEntity
  8
1
  6
Continuous
 62
     7
100
AcDbLine
 10
-79.5
 20
10.0
 30
0.0
 11
-79.5
 21
2.5
 31
0.0
  0
LINE
  5
180
330
1F
100
AcDbEntity
  8
1
  6
Continuous
 62
     7
100
AcDbLine
 10
-94.5
 20
6.25
 30
0.0
 11
-79.5
 21
6.25
 31
0.0
  0
LINE
  5
181
330
1F
100
AcDbEntity
  8
1
  6
Continuous
 62
     7
100
AcDbLine
 10
-105.0000000000001
 20
74.24999999999996
 30
0.0
 11
-97.50000000000006
 21
74.24999999999996
 31
0.0
  0
LINE
  5
182
330
1F
100
AcDbEntity
  8
1
  6
Continuous
 62
     7
100
AcDbLine
 10
0.0
 20
0.0
 30
0.0
 11
0.0
 21
148.5000000000001
 31
0.0
  0
LINE
  5
183
330
1F
100
AcDbEntity
  8
1
  6
Continuous
 62
     7
100
AcDbLine
 10
-105.0000000000001
 20
0.0
 30
0.0
 11
0.0
 21
0.0
 31
0.0
  0
LINE
  5
184
330
1F
100
AcDbEntity
  8
1
  6
Continuous
 62
     7
100
AcDbLine
 10
-105.0000000000001
 20
148.5000000000001
 30
0.0
 11
-105.0000000000001
 21
0.0
 31
0.0
  0
LINE
  5
185
330
1F
100
AcDbEntity
  8
1
  6
Continuous
 62
     7
100
AcDbLine
 10
0.0
 20
148.5000000000001
 30
0.0
 11
-105.0000000000001
 21
148.5000000000001
 31
0.0
  0
LINE
  5
186
330
1F
100
AcDbEntity
  8
1
  6
Continuous
 62
     7
100
AcDbLine
 10
-2.5
 20
2.49999999999994
 30
0.0
 11
-2.5
 21
146.0000000000001
 31
0.0
  0
LINE
  5
187
330
1F
100
AcDbEntity
  8
1
  6
Continuous
 62
     7
100
AcDbLine
 10
-2.5
 20
146.0000000000001
 30
0.0
 11
-94.5
 21
146.0000000000001
 31
0.0
  0
LINE
  5
188
330
1F
100
AcDbEntity
  8
1
  6
Continuous
 62
     7
100
AcDbLine
 10
-94.5
 20
146.0000000000001
 30
0.0
 11
-94.5
 21
2.49999999999994
 31
0.0
  0
LINE
  5
189
330
1F
100
AcDbEntity
  8
1
  6
Continuous
 62
     7
100
AcDbLine
 10
-28.69999999999958
 20
63.03876067704492
 30
0.0
 11
-28.70000000000005
 21
50.63876067704491
 31
0.0
  0
LINE
  5
18A
330
1F
100
AcDbEntity
  8
1
  6
Continuous
 62
     7
100
AcDbLine
 10
-33.69999999999979
 20
53.8387606770449
 30
0.0
 11
-76.70000000000077
 21
53.8387606770449
 31
0.0
  0
ARC
  5
18B
330
1F
100
AcDbEntity
  8
1
  6
Continuous
 62
     7
100
AcDbCircle
 10
-64.33612531832759
 20
89.19406277501845
 30
0.0
 40
1.240000000000009
100
AcDbArc
 50
270.0
 51
0.0
  0
ARC
  5
18C
330
1F
100
AcDbEntity
  8
1
  6
Continuous
 62
     7
100
AcDbCircle
 10
-34.3361253183276
 20
89.19406277501845
 30
0.0
 40
1.240000000000009
100
AcDbArc
 50
270.0
 51
0.0
  0
ARC
  5
18D
330
1F
100
AcDbEntity
  8
1
  6
Continuous
 62
     7
100
AcDbCircle
 10
-34.3361253183276
 20
89.19406277501845
 30
0.0
 40
1.240000000000009
100
AcDbArc
 50
180.0
 51
270.0
  0
ARC
  5
18E
330
1F
100
AcDbEntity
  8
1
  6
Continuous
 62
     7
100
AcDbCircle
 10
-32.59612531832758
 20
102.5822638685421
 30
0.0
 40
0.4999999999999795
100
AcDbArc
 50
120.0000000000014
 51
180.0
  0
ARC
  5
18F
330
1F
100
AcDbEntity
  8
1
  6
Continuous
 62
     7
100
AcDbCircle
 10
-36.07612531832761
 20
102.5822638685421
 30
0.0
 40
0.5
100
AcDbArc
 50
0.0
 51
59.99999999999865
  0
ARC
  5
190
330
1F
100
AcDbEntity
  8
1
  6
Continuous
 62
     7
100
AcDbCircle
 10
-62.59612531832761
 20
102.5822638685421
 30
0.0
 40
0.4999999999999795
100
AcDbArc
 50
120.0000000000014
 51
180.0
  0
ARC
  5
191
330
1F
100
AcDbEntity
  8
1
  6
Continuous
 62
     7
100
AcDbCircle
 10
-66.0761253183276
 20
102.5822638685421
 30
0.0
 40
0.5
100
AcDbArc
 50
0.0
 51
59.99999999999865
  0
ARC
  5
192
330
1F
100
AcDbEntity
  8
1
  6
Continuous
 62
     7
100
AcDbCircle
 10
-64.33612531832759
 20
89.19406277501845
 30
0.0
 40
1.240000000000009
100
AcDbArc
 50
180.0
 51
270.0
  0
ARC
  5
193
102
{ACAD_REACTORS
330
21F
102
}
330
1F
100
AcDbEntity
  8
1
  6
Continuous
 62
     7
100
AcDbCircle
 10
-7.16184965562866
 20
5.42336530453161
 30
0.0
 40
0.1666666666666586
100
AcDbArc
 50
299.9816393688334
 51
119.9816393688407
  0
ARC
  5
194
102
{ACAD_REACTORS
330
21F
102
}
330
1F
100
AcDbEntity
  8
1
  6
Continuous
 62
     7
100
AcDbCircle
 10
-7.16184965562866
 20
6.25
 30
0.0
 40
0.1666666666666847
100
AcDbArc
 50
270.0
 51
90.0
  0
ARC
  5
195
102
{ACAD_REACTORS
330
21F
102
}
330
1F
100
AcDbEntity
  8
1
  6
Continuous
 62
     7
100
AcDbCircle
 10
-7.16184965562866
 20
7.07663469546833
 30
0.0
 40
0.1666666666666873
100
AcDbArc
 50
240.01836063115
 51
60.01836063115638
  0
ARC
  5
196
102
{ACAD_REACTORS
330
222
102
}
330
1F
100
AcDbEntity
  8
1
  6
Continuous
 62
     7
100
AcDbCircle
 10
-11.16184965562866
 20
5.42336530453161
 30
0.0
 40
0.1666666666666785
100
AcDbArc
 50
180.0
 51
0.0
  0
ARC
  5
197
102
{ACAD_REACTORS
330
222
102
}
330
1F
100
AcDbEntity
  8
1
  6
Continuous
 62
     7
100
AcDbCircle
 10
-11.16184965562866
 20
7.07663469546833
 30
0.0
 40
0.1666666666666305
100
AcDbArc
 50
0.0
 51
180.0
  0
ARC
  5
198
102
{ACAD_REACTORS
330
220
102
}
330
1F
100
AcDbEntity
  8
1
  6
Continuous
 62
     7
100
AcDbCircle
 10
-9.32851632229534
 20
4.36567299683935
 30
0.0
 40
0.1666666666666854
100
AcDbArc
 50
240.0183606311493
 51
60.01836063114937
  0
ARC
  5
199
102
{ACAD_REACTORS
330
220
102
}
330
1F
100
AcDbEntity
  8
1
  6
Continuous
 62
     7
100
AcDbCircle
 10
-10.49518298896203
 20
7.46125008008369
 30
0.0
 40
0.1666666666666909
100
AcDbArc
 50
0.0
 51
180.0
  0
ARC
  5
19A
102
{ACAD_REACTORS
330
221
102
}
330
1F
100
AcDbEntity
  8
1
  6
Continuous
 62
     7
100
AcDbCircle
 10
-8.460999428533
 20
7.86560865601728
 30
0.0
 40
0.1324831062376575
100
AcDbArc
 50
0.0
 51
149.9999999999746
  0
ARC
  5
19B
102
{ACAD_REACTORS
330
221
102
}
330
1F
100
AcDbEntity
  8
1
  6
Continuous
 62
     7
100
AcDbCircle
 10
-8.49518298896197
 20
4.6541345353009
 30
0.0
 40
0.1666666666666856
100
AcDbArc
 50
180.0
 51
0.0
  0
ARC
  5
19C
102
{ACAD_REACTORS
330
221
102
}
330
1F
100
AcDbEntity
  8
1
  6
Continuous
 62
     7
100
AcDbCircle
 10
-9.82851632229534
 20
5.42379253631645
 30
0.0
 40
0.1666666666666856
100
AcDbArc
 50
180.0
 51
0.0
  0
ARC
  5
19D
102
{ACAD_REACTORS
330
221
102
}
330
1F
100
AcDbEntity
  8
1
  6
Continuous
 62
     7
100
AcDbCircle
 10
-9.86269988272437
 20
7.86560865601728
 30
0.0
 40
0.1324831062376673
100
AcDbArc
 50
30.00000000001307
 51
180.0
  0
ARC
  5
19E
102
{ACAD_REACTORS
330
21F
102
}
330
1F
100
AcDbEntity
  8
1
  6
Continuous
 62
     7
100
AcDbCircle
 10
-7.82851632229534
 20
5.03874991991631
 30
0.0
 40
0.1666666666666288
100
AcDbArc
 50
180.0
 51
299.9816393688503
  0
ARC
  5
19F
102
{ACAD_REACTORS
330
21F
102
}
330
1F
100
AcDbEntity
  8
1
  6
Continuous
 62
     7
100
AcDbCircle
 10
-7.82851632229534
 20
7.46125008008369
 30
0.0
 40
0.166666666666687
100
AcDbArc
 50
60.01836063114968
 51
180.0
  0
ARC
  5
1A0
330
1F
100
AcDbEntity
  8
1
  6
Continuous
 62
     7
100
AcDbCircle
 10
-4.99527555584871
 20
6.25
 30
0.0
 40
0.0833333333333293
100
AcDbArc
 50
299.9816393688334
 51
60.01836063114615
  0
ARC
  5
1A1
330
1F
100
AcDbEntity
  8
1
  6
Continuous
 62
     7
100
AcDbCircle
 10
-13.32842375540861
 20
6.25
 30
0.0
 40
0.0833333333333053
100
AcDbArc
 50
119.9816393688866
 51
240.0183606311338
  0
ARC
  5
1A2
102
{ACAD_REACTORS
330
220
102
}
330
1F
100
AcDbEntity
  8
1
  6
Continuous
 62
     7
100
AcDbCircle
 10
-10.32851632229534
 20
5.13501057401635
 30
0.0
 40
0.3333333333333215
100
AcDbArc
 50
180.0000000000104
 51
240.018360631158
  0
ARC
  5
1A3
102
{ACAD_REACTORS
330
221
102
}
330
1F
100
AcDbEntity
  8
1
  6
Continuous
 62
     7
100
AcDbCircle
 10
-9.16184965562866
 20
6.41666666666663
 30
0.0
 40
0.0833333333333545
100
AcDbArc
 50
209.9999999999622
 51
330.0000000000182
  0
MTEXT
  5
1A5
330
1F
100
AcDbEntity
  8
1
 62
     4
100
AcDbMText
 10
-38.69999999999982
 20
55.43876067704493
 30
0.0
 40
1.0
 41
0.0
 71
     5
 72
     1
  1
without groove
  7
CONVERTER_11
 73
     1
 44
1.32052821128451
  0
MTEXT
  5
1A7
330
1F
100
AcDbEntity
  8
1
 62
     4
100
AcDbMText
 10
-38.69999999999982
 20
33.8387606770449
 30
0.0
 40
1.0
 41
0.0
 71
     5
 72
     1
  1
3
  7
CONVERTER_12
 73
     1
 44
1.32052821128451
  0
MTEXT
  5
1A8
330
1F
100
AcDbEntity
  8
1
 62
     4
100
AcDbMText
 10
-38.69999999999982
 20
52.23876067704491
 30
0.0
 40
1.0
 41
0.0
 71
     5
 72
     1
  1
1
  7
CONVERTER_12
 73
     1
 44
1.32052821128451
  0
MTEXT
  5
1A9
330
1F
100
AcDbEntity
  8
1
 62
     4
100
AcDbMText
 10
-38.69999999999982
 20
37.03876067704491
 30
0.0
 40
1.0
 41
0.0
 71
     5
 72
     1
  1
2
  7
CONVERTER_12
 73
     1
 44
1.32052821128451
  0
MTEXT
  5
1AA
330
1F
100
AcDbEntity
  8
1
 62
     4
100
AcDbMText
 10
-47.20000000000005
 20
37.03876067704489
 30
0.0
 40
1.0
 41
0.0
 71
     5
 72
     1
  1
26-22
  7
CONVERTER_12
 73
     1
 44
1.32052821128451
  0
MTEXT
  5
1AB
330
1F
100
AcDbEntity
  8
1
 62
     4
100
AcDbMText
 10
-54.20000000000027
 20
37.03876067704489
 30
0.0
 40
1.0
 41
0.0
 71
     5
 72
     1
  1
0,14-0,37
  7
CONVERTER_12
 73
     1
 44
1.32052821128451
  0
MTEXT
  5
1AC
330
1F
100
AcDbEntity
  8
1
 62
     4
100
AcDbMText
 10
-60.20000000000051
 20
37.03876067704489
 30
0.0
 40
1.0
 41
0.0
 71
     5
 72
     1
  1
0,90
  7
CONVERTER_12
 73
     1
 44
1.32052821128451
  0
MTEXT
  5
1AD
330
1F
100
AcDbEntity
  8
1
 62
     4
100
AcDbMText
 10
-24.69999999999938
 20
35.43876067704493
 30
0.0
 40
1.0
 41
0.0
 71
     5
 72
     1
  1
7,5
  7
CONVERTER_12
 73
     1
 44
1.32052821128451
  0
MTEXT
  5
1AE
330
1F
100
AcDbEntity
  8
1
 62
     4
100
AcDbMText
 10
-31.19999999999962
 20
40.13876067704494
 30
0.0
 40
1.0
 41
0.0
 71
     5
 72
     1
  1
mm
  7
CONVERTER_12
 73
     1
 44
1.32052821128451
  0
MTEXT
  5
1AF
330
1F
100
AcDbEntity
  8
1
 62
     4
100
AcDbMText
 10
-31.19999999999962
 20
43.13876067704492
 30
0.0
 40
1.0
 41
0.0
 71
     5
 72
     1
  1
B
  7
CONVERTER_12
 73
     1
 44
1.32052821128451
  0
MTEXT
  5
1B0
330
1F
100
AcDbEntity
  8
1
 62
     4
100
AcDbMText
 10
-31.19999999999962
 20
35.43876067704493
 30
0.0
 40
1.0
 41
0.0
 71
     5
 72
     1
  1
7,5
  7
CONVERTER_12
 73
     1
 44
1.32052821128451
  0
MTEXT
  5
1B1
330
1F
100
AcDbEntity
  8
1
 62
     4
100
AcDbMText
 10
-60.20000000000051
 20
33.83876067704492
 30
0.0
 40
1.0
 41
0.0
 71
     5
 72
     1
  1
1,10
  7
CONVERTER_12
 73
     1
 44
1.32052821128451
  0
MTEXT
  5
1B2
330
1F
100
AcDbEntity
  8
1
 62
     4
100
AcDbMText
 10
-60.20000000000051
 20
43.13876067704492
 30
0.0
 40
1.0
 41
0.0
 71
     5
 72
     1
  1
\U+00f8A
  7
CONVERTER_12
 73
     1
 44
1.32052821128451
  0
MTEXT
  5
1B3
330
1F
100
AcDbEntity
  8
1
 62
     4
100
AcDbMText
 10
-54.20000000000027
 20
33.83876067704492
 30
0.0
 40
1.0
 41
0.0
 71
     5
 72
     1
  1
0,5
  7
CONVERTER_12
 73
     1
 44
1.32052821128451
  0
MTEXT
  5
1B4
330
1F
100
AcDbEntity
  8
1
 62
     4
100
AcDbMText
 10
-54.20000000000027
 20
40.13876067704494
 30
0.0
 40
1.0
 41
0.0
 71
     5
 72
     1
  1
mm
  7
CONVERTER_12
 73
     1
 44
1.32052821128451
  0
MTEXT
  5
1B5
330
1F
100
AcDbEntity
  8
1
 62
     4
100
AcDbMText
 10
-47.20000000000005
 20
33.83876067704492
 30
0.0
 40
1.0
 41
0.0
 71
     5
 72
     1
  1
20
  7
CONVERTER_12
 73
     1
 44
1.32052821128451
  0
MTEXT
  5
1B6
330
1F
100
AcDbEntity
  8
1
 62
     4
100
AcDbMText
 10
-50.70000000000024
 20
43.38876067704491
 30
0.0
 40
1.0
 41
0.0
 71
     5
 72
     1
  1
WIRE GAUGE
  7
CONVERTER_12
 73
     1
 44
1.32052821128451
  0
MTEXT
  5
1B7
330
1F
100
AcDbEntity
  8
1
 62
     4
100
AcDbMText
 10
-47.20000000000005
 20
40.13876067704494
 30
0.0
 40
1.0
 41
0.0
 71
     5
 72
     1
  1
AWG
  7
CONVERTER_12
 73
     1
 44
1.32052821128451
  0
MTEXT
  5
1B8
330
1F
100
AcDbEntity
  8
1
 62
     4
100
AcDbMText
 10
-24.69999999999938
 20
41.63876067704492
 30
0.0
 40
1.0
 41
0.0
 71
     5
 72
     1
  1
STRIPPING\P LENGTH\P   mm
  7
CONVERTER_12
 73
     1
 44
1.02040816326531
  0
MTEXT
  5
1BA
330
1F
100
AcDbEntity
  8
1
 62
     4
100
AcDbMText
 10
-38.69999999999982
 20
41.63876067704492
 30
0.0
 40
1.0
 41
0.0
 71
     5
 72
     1
  1
IDENTIFICATION
  7
CONVERTER_13
 73
     1
 44
1.32052821128451
  0
MTEXT
  5
1BB
330
1F
100
AcDbEntity
  8
1
 62
     4
100
AcDbMText
 10
-52.64172143365064
 20
40.29885249203529
 30
0.0
 40
0.75
 41
0.0
 71
     7
 72
     1
  1
2
  7
CONVERTER_12
 73
     1
 44
1.32052821128451
  0
MTEXT
  5
1BC
330
1F
100
AcDbEntity
  8
1
 62
     4
100
AcDbMText
 10
-60.20000000000051
 20
40.13876067704494
 30
0.0
 40
1.0
 41
0.0
 71
     5
 72
     1
  1
mm
  7
CONVERTER_12
 73
     1
 44
1.32052821128451
  0
MTEXT
  5
1BD
330
1F
100
AcDbEntity
  8
1
 62
     4
100
AcDbMText
 10
-69.70000000000039
 20
33.83876067704492
 30
0.0
 40
1.0
 41
0.0
 71
     5
 72
     1
  1
CCMF 0.5
  7
CONVERTER_12
 73
     1
 44
1.32052821128451
  0
MTEXT
  5
1BE
330
1F
100
AcDbEntity
  8
1
 62
     4
100
AcDbMText
 10
-69.70000000000039
 20
37.03876067704489
 30
0.0
 40
1.0
 41
0.0
 71
     5
 72
     1
  1
CCMF 0.3
  7
CONVERTER_12
 73
     1
 44
1.32052821128451
  0
MTEXT
  5
1BF
330
1F
100
AcDbEntity
  8
1
 62
     4
100
AcDbMText
 10
-70.30000000000014
 20
40.53876067704494
 30
0.0
 40
1.0
 41
0.0
 71
     5
 72
     1
  1
   IRON\P  PLATED
  7
CONVERTER_12
 73
     1
 44
1.08043217286915
  0
MTEXT
  5
1C0
330
1F
100
AcDbEntity
  8
1
 62
     4
100
AcDbMText
 10
-69.70000000000041
 20
43.38876067704491
 30
0.0
 40
1.0
 41
0.0
 71
     5
 72
     1
  1
PART NUMBERS
  7
CONVERTER_12
 73
     1
 44
1.32052821128451
  0
MTEXT
  5
1C1
330
1F
100
AcDbEntity
  8
1
 62
     4
100
AcDbMText
 10
-69.70000000000041
 20
61.78876067704492
 30
0.0
 40
1.0
 41
0.0
 71
     5
 72
     1
  1
PART NUMBERS
  7
CONVERTER_12
 73
     1
 44
1.32052821128451
  0
MTEXT
  5
1C2
330
1F
100
AcDbEntity
  8
1
 62
     4
100
AcDbMText
 10
-69.70000000000014
 20
58.93876067704495
 30
0.0
 40
1.0
 41
0.0
 71
     5
 72
     1
  1
CONSTANTAN\P  PLATED
  7
CONVERTER_12
 73
     1
 44
1.08043217286915
  0
MTEXT
  5
1C3
330
1F
100
AcDbEntity
  8
1
 62
     4
100
AcDbMText
 10
-69.70000000000039
 20
55.4387606770449
 30
0.0
 40
1.0
 41
0.0
 71
     5
 72
     1
  1
CCMC 0.3
  7
CONVERTER_12
 73
     1
 44
1.32052821128451
  0
MTEXT
  5
1C4
330
1F
100
AcDbEntity
  8
1
 62
     4
100
AcDbMText
 10
-69.70000000000039
 20
52.23876067704492
 30
0.0
 40
1.0
 41
0.0
 71
     5
 72
     1
  1
CCMC 0.5
  7
CONVERTER_12
 73
     1
 44
1.32052821128451
  0
MTEXT
  5
1C6
330
1F
100
AcDbEntity
  8
1
 62
     7
100
AcDbMText
 10
-20.16184965562863
 20
5.03031971037803
 30
0.0
 40
2.25
 41
0.0
 71
     5
 72
     1
  1
2:1
  7
CONVERTER_14
 73
     1
 44
1.32052821128451
  0
MTEXT
  5
1C7
330
1F
100
AcDbEntity
  8
1
 62
     7
100
AcDbMText
 10
-20.16184965562863
 20
8.13031971037799
 30
0.0
 40
1.5
 41
0.0
 71
     5
 72
     1
  1
Scale
  7
CONVERTER_14
 73
     1
 44
1.32052821128451
  0
MTEXT
  5
1C8
330
1F
100
AcDbEntity
  8
1
 62
     7
100
AcDbMText
 10
-88.19999999999997
 20
4.375
 30
0.0
 40
1.5
 41
0.0
 71
     4
 72
     1
  1
M.Pezzimenti
  7
CONVERTER_14
 73
     1
 44
1.32052821128451
  0
MTEXT
  5
1C9
330
1F
100
AcDbEntity
  8
1
 62
     7
100
AcDbMText
 10
-93.5
 20
4.375
 30
0.0
 40
1.5
 41
0.0
 71
     4
 72
     1
  1
Sign.
  7
CONVERTER_14
 73
     1
 44
1.32052821128451
  0
MTEXT
  5
1CA
330
1F
100
AcDbEntity
  8
1
 62
     7
100
AcDbMText
 10
-88.19999999999997
 20
8.13031971037799
 30
0.0
 40
1.5
 41
0.0
 71
     4
 72
     1
  1
29/06/15
  7
CONVERTER_14
 73
     1
 44
1.32052821128451
  0
MTEXT
  5
1CB
330
1F
100
AcDbEntity
  8
1
 62
     7
100
AcDbMText
 10
-93.5
 20
8.13031971037799
 30
0.0
 40
1.5
 41
0.0
 71
     4
 72
     1
  1
Date
  7
CONVERTER_14
 73
     1
 44
1.32052821128451
  0
MTEXT
  5
1CC
330
1F
100
AcDbEntity
  8
1
 62
     7
100
AcDbMText
 10
-97.00000000000006
 20
75.7499999999999
 30
0.0
 40
2.0
 41
0.0
 71
     5
 72
     1
  1
Diritti riservati      All rights reserved
  7
CONVERTER_14
 11
0.0
 21
1.0
 31
0.0
 73
     1
 44
1.32052821128451
  0
MTEXT
  5
1CD
330
1F
100
AcDbEntity
  8
1
 62
     4
100
AcDbMText
 10
-60.20000000000051
 20
58.53876067704494
 30
0.0
 40
1.0
 41
0.0
 71
     5
 72
     1
  1
mm
  7
CONVERTER_12
 73
     1
 44
1.32052821128451
  0
MTEXT
  5
1CE
330
1F
100
AcDbEntity
  8
1
 62
     4
100
AcDbMText
 10
-52.64172143365064
 20
58.6988524920353
 30
0.0
 40
0.75
 41
0.0
 71
     7
 72
     1
  1
2
  7
CONVERTER_12
 73
     1
 44
1.32052821128451
  0
MTEXT
  5
1CF
330
1F
100
AcDbEntity
  8
1
 62
     4
100
AcDbMText
 10
-38.69999999999982
 20
60.03876067704493
 30
0.0
 40
1.0
 41
0.0
 71
     5
 72
     1
  1
IDENTIFICATION
  7
CONVERTER_13
 73
     1
 44
1.32052821128451
  0
MTEXT
  5
1D0
330
1F
100
AcDbEntity
  8
1
 62
     4
100
AcDbMText
 10
-24.69999999999938
 20
60.03876067704493
 30
0.0
 40
1.0
 41
0.0
 71
     5
 72
     1
  1
STRIPPING\P LENGTH\P   mm
  7
CONVERTER_12
 73
     1
 44
1.02040816326531
  0
MTEXT
  5
1D1
330
1F
100
AcDbEntity
  8
1
 62
     4
100
AcDbMText
 10
-47.20000000000005
 20
58.53876067704494
 30
0.0
 40
1.0
 41
0.0
 71
     5
 72
     1
  1
AWG
  7
CONVERTER_12
 73
     1
 44
1.32052821128451
  0
MTEXT
  5
1D2
330
1F
100
AcDbEntity
  8
1
 62
     4
100
AcDbMText
 10
-50.70000000000024
 20
61.78876067704492
 30
0.0
 40
1.0
 41
0.0
 71
     5
 72
     1
  1
WIRE GAUGE
  7
CONVERTER_12
 73
     1
 44
1.32052821128451
  0
MTEXT
  5
1D3
330
1F
100
AcDbEntity
  8
1
 62
     4
100
AcDbMText
 10
-47.20000000000005
 20
52.23876067704492
 30
0.0
 40
1.0
 41
0.0
 71
     5
 72
     1
  1
20
  7
CONVERTER_12
 73
     1
 44
1.32052821128451
  0
MTEXT
  5
1D4
330
1F
100
AcDbEntity
  8
1
 62
     4
100
AcDbMText
 10
-54.20000000000027
 20
58.53876067704494
 30
0.0
 40
1.0
 41
0.0
 71
     5
 72
     1
  1
mm
  7
CONVERTER_12
 73
     1
 44
1.32052821128451
  0
MTEXT
  5
1D5
330
1F
100
AcDbEntity
  8
1
 62
     4
100
AcDbMText
 10
-54.20000000000027
 20
52.23876067704492
 30
0.0
 40
1.0
 41
0.0
 71
     5
 72
     1
  1
0,5
  7
CONVERTER_12
 73
     1
 44
1.32052821128451
  0
MTEXT
  5
1D6
330
1F
100
AcDbEntity
  8
1
 62
     4
100
AcDbMText
 10
-60.20000000000051
 20
61.53876067704493
 30
0.0
 40
1.0
 41
0.0
 71
     5
 72
     1
  1
\U+00f8A
  7
CONVERTER_12
 73
     1
 44
1.32052821128451
  0
MTEXT
  5
1D7
330
1F
100
AcDbEntity
  8
1
 62
     4
100
AcDbMText
 10
-60.20000000000051
 20
52.23876067704492
 30
0.0
 40
1.0
 41
0.0
 71
     5
 72
     1
  1
1,10
  7
CONVERTER_12
 73
     1
 44
1.32052821128451
  0
MTEXT
  5
1D8
330
1F
100
AcDbEntity
  8
1
 62
     7
100
AcDbMText
 10
-76.36184965562865
 20
6.25
 30
0.0
 40
2.25
 41
0.0
 71
     4
 72
     1
  1
CCMC - CCMF \Pfemale crimp contact 16A
  7
CONVERTER_14
 73
     1
 44
0.90036014405762
  0
MTEXT
  5
1D9
330
1F
100
AcDbEntity
  8
1
 62
     4
100
AcDbMText
 10
-31.19999999999962
 20
53.83876067704493
 30
0.0
 40
1.0
 41
0.0
 71
     5
 72
     1
  1
7,5
  7
CONVERTER_12
 73
     1
 44
1.32052821128451
  0
MTEXT
  5
1DA
330
1F
100
AcDbEntity
  8
1
 62
     4
100
AcDbMText
 10
-31.19999999999962
 20
61.53876067704493
 30
0.0
 40
1.0
 41
0.0
 71
     5
 72
     1
  1
B
  7
CONVERTER_12
 73
     1
 44
1.32052821128451
  0
MTEXT
  5
1DB
330
1F
100
AcDbEntity
  8
1
 62
     4
100
AcDbMText
 10
-31.19999999999962
 20
58.53876067704494
 30
0.0
 40
1.0
 41
0.0
 71
     5
 72
     1
  1
mm
  7
CONVERTER_12
 73
     1
 44
1.32052821128451
  0
MTEXT
  5
1DC
330
1F
100
AcDbEntity
  8
1
 62
     4
100
AcDbMText
 10
-24.69999999999938
 20
53.83876067704493
 30
0.0
 40
1.0
 41
0.0
 71
     5
 72
     1
  1
7,5
  7
CONVERTER_12
 73
     1
 44
1.32052821128451
  0
MTEXT
  5
1DD
330
1F
100
AcDbEntity
  8
1
 62
     4
100
AcDbMText
 10
-60.20000000000051
 20
55.4387606770449
 30
0.0
 40
1.0
 41
0.0
 71
     5
 72
     1
  1
0,90
  7
CONVERTER_12
 73
     1
 44
1.32052821128451
  0
MTEXT
  5
1DE
330
1F
100
AcDbEntity
  8
1
 62
     4
100
AcDbMText
 10
-54.20000000000027
 20
55.4387606770449
 30
0.0
 40
1.0
 41
0.0
 71
     5
 72
     1
  1
0,14-0,37
  7
CONVERTER_12
 73
     1
 44
1.32052821128451
  0
MTEXT
  5
1DF
330
1F
100
AcDbEntity
  8
1
 62
     4
100
AcDbMText
 10
-47.20000000000005
 20
55.4387606770449
 30
0.0
 40
1.0
 41
0.0
 71
     5
 72
     1
  1
26-22
  7
CONVERTER_12
 73
     1
 44
1.32052821128451
  0
DIMENSION
  5
1EA
330
1F
100
AcDbEntity
  8
1
100
AcDbDimension
  2
*D1
 10
-66.58612531832759
 20
115.542369643942
 30
0.0
 11
-64.3361253183276
 21
117.367369643942
 31
0.0
 70
    32
  1
<>
 71
     5
 42
-1.0
 53
0.00013888888889
  3
ME10_DIM_10
100
AcDbAlignedDimension
 13
-62.08612531832762
 23
112.9540627750185
 33
0.0
 14
-66.58612531832759
 24
112.9540627750185
 34
0.0
100
AcDbRotatedDimension
  0
DIMENSION
  5
1F7
330
1F
100
AcDbEntity
  8
1
100
AcDbDimension
  2
*D2
 10
-35.5761253183276
 20
93.29644107351238
 30
0.0
 11
-41.63541423570609
 21
95.12144107351239
 31
0.0
 70
    32
  1
ø2,5
 71
     5
 42
-1.0
 53
0.00013888888889
  3
ME10_DIM_11
100
AcDbAlignedDimension
 13
-33.09612531832758
 23
89.19406277501845
 33
0.0
 14
-35.57612531832761
 24
89.19406277501845
 34
0.0
100
AcDbRotatedDimension
  0
DIMENSION
  5
203
330
1F
100
AcDbEntity
  8
1
100
AcDbDimension
  2
*D3
 10
-74.4897071260775
 20
112.9540627750185
 30
0.0
 11
-74.4897071260775
 21
100.4540627750185
 31
0.0
 70
    32
  1
<>
 71
     5
 42
-1.0
 53
0.00013888888889
  3
ME10_DIM_12
100
AcDbAlignedDimension
 13
-64.33612531832759
 23
87.95406277501844
 33
0.0
 14
-66.58612531832759
 24
112.9540627750185
 34
0.0
 50
90.0
100
AcDbRotatedDimension
  0
DIMENSION
  5
20F
330
1F
100
AcDbEntity
  8
1
100
AcDbDimension
  2
*D4
 10
-27.02904464696439
 20
112.9540627750185
 30
0.0
 11
-27.02904464696439
 21
109.1540627750185
 31
0.0
 70
    32
  1
B
 71
     5
 42
-1.0
 53
0.00013888888889
  3
ME10_DIM_13
100
AcDbAlignedDimension
 13
-33.4611253183276
 23
105.3540627750184
 33
0.0
 14
-32.0861253183276
 24
112.9540627750185
 34
0.0
 50
90.0
100
AcDbRotatedDimension
  0
DIMENSION
  5
21C
330
1F
100
AcDbEntity
  8
1
100
AcDbDimension
  2
*D5
 10
-35.2111253183276
 20
115.542369643942
 30
0.0
 11
-34.3361253183276
 21
117.292369643942
 31
0.0
 70
    32
  1
øA
 71
     5
 42
-1.0
 53
0.00013888888889
  3
ME10_DIM_14
100
AcDbAlignedDimension
 13
-33.4611253183276
 23
111.1787106972604
 33
0.0
 14
-35.2111253183276
 24
111.1787106972604
 34
0.0
100
AcDbRotatedDimension
  0
HATCH
  5
21D
330
1F
100
AcDbEntity
  8
1
  6
Continuous
 62
     3
100
AcDbHatch
 10
0.0
 20
0.0
 30
0.0
210
0.0
220
0.0
230
1.0
  2
_USER
 70
     0
 71
     1
 91
        1
 92
        1
 93
        7
 72
     1
 10
-32.0861253183276
 20
110.4870754769107
 11
-32.8361253183276
 21
110.0540627750185
 72
     1
 10
-32.8361253183276
 20
110.0540627750185
 11
-32.8361253183276
 21
107.1540627750185
 72
     1
 10
-32.8361253183276
 20
107.1540627750185
 11
-33.4611253183276
 21
107.1540627750185
 72
     1
 10
-33.4611253183276
 20
107.1540627750185
 11
-33.4611253183276
 21
111.1787106972604
 72
     1
 10
-33.4611253183276
 20
111.1787106972604
 11
-32.43612531832757
 21
112.9540627750185
 72
     1
 10
-32.43612531832757
 20
112.9540627750185
 11
-32.0861253183276
 21
112.9540627750185
 72
     1
 10
-32.0861253183276
 20
112.9540627750185
 11
-32.0861253183276
 21
110.4870754769107
 97
        7
330
97
330
98
330
C3
330
A1
330
9A
330
95
330
96
 75
     1
 76
     0
 52
45.0
 41
0.5
 77
     0
 78
     1
 53
45.0
 43
0.0
 44
0.0
 45
-0.3535533905932737
 46
0.3535533905932738
 79
     0
 98
        1
 10
0.0
 20
0.0
  0
HATCH
  5
21E
330
1F
100
AcDbEntity
  8
1
  6
Continuous
 62
     3
100
AcDbHatch
 10
0.0
 20
0.0
 30
0.0
210
0.0
220
0.0
230
1.0
  2
_USER
 70
     0
 71
     1
 91
        1
 92
        1
 93
       21
 72
     1
 10
-34.13432772810063
 20
103.7755665914688
 11
-34.70154257630661
 21
103.8519224364196
 72
     1
 10
-34.70154257630661
 20
103.8519224364196
 11
-35.33420529161458
 21
104.3427814396754
 72
     1
 10
-35.33420529161458
 20
104.3427814396754
 11
-35.85778822842056
 21
104.7572845979802
 72
     1
 10
-35.85778822842056
 20
104.7572845979802
 11
-36.27229138672459
 21
105.4540627750185
 72
     1
 10
-36.27229138672459
 20
105.4540627750185
 11
-35.8361253183276
 21
105.4540627750185
 72
     1
 10
-35.8361253183276
 20
105.4540627750185
 11
-35.8361253183276
 21
110.0540627750185
 72
     1
 10
-35.8361253183276
 20
110.0540627750185
 11
-36.5861253183276
 21
110.4870754769107
 72
     1
 10
-36.5861253183276
 20
110.4870754769107
 11
-36.5861253183276
 21
112.9540627750185
 72
     1
 10
-36.5861253183276
 20
112.9540627750185
 11
-36.23612531832758
 21
112.9540627750185
 72
     1
 10
-36.23612531832758
 20
112.9540627750185
 11
-35.2111253183276
 21
111.1787106972604
 72
     1
 10
-35.2111253183276
 20
111.1787106972604
 11
-35.2111253183276
 21
105.3540627750184
 72
     1
 10
-35.2111253183276
 20
105.3540627750184
 11
-34.3361253183276
 21
104.8488812894775
 72
     1
 10
-34.3361253183276
 20
104.8488812894775
 11
-33.4611253183276
 21
105.3540627750184
 72
     1
 10
-33.4611253183276
 20
105.3540627750184
 11
-33.4611253183276
 21
106.3540627750184
 72
     1
 10
-33.4611253183276
 20
106.3540627750184
 11
-32.8361253183276
 21
106.3540627750184
 72
     1
 10
-32.8361253183276
 20
106.3540627750184
 11
-32.8361253183276
 21
105.4540627750185
 72
     1
 10
-32.8361253183276
 20
105.4540627750185
 11
-32.29087947142857
 21
105.4540627750185
 72
     1
 10
-32.29087947142857
 20
105.4540627750185
 11
-32.65084274048262
 21
104.8663643764815
 72
     1
 10
-32.65084274048262
 20
104.8663643764815
 11
-33.04352994308759
 21
104.397321328926
 72
     1
 10
-33.04352994308759
 20
104.397321328926
 11
-33.62165276914458
 21
104.0046341263215
 72
     1
 10
-33.62165276914458
 20
104.0046341263215
 11
-34.13432772810063
 21
103.7755665914688
 97
       21
330
51
330
50
330
4F
330
4E
330
78
330
C2
330
C1
330
9F
330
9D
330
A0
330
9C
330
94
330
93
330
92
330
91
330
90
330
57
330
55
330
54
330
53
330
52
 75
     1
 76
     0
 52
45.0
 41
0.5
 77
     0
 78
     1
 53
45.0
 43
0.0
 44
0.0
 45
-0.3535533905932737
 46
0.3535533905932738
 79
     0
 98
        1
 10
0.0
 20
0.0
  0
HATCH
  5
21F
330
1F
100
AcDbEntity
  8
1
  6
Continuous
 62
     7
100
AcDbHatch
 10
0.0
 20
0.0
 30
0.0
210
0.0
220
0.0
230
1.0
  2
SOLID
 70
     1
 71
     1
 91
        1
 92
        1
 93
       14
 72
     1
 10
-7.745229246713734
 20
7.605614344425135
 11
-7.078562580047105
 21
7.22099895980972
 72
     2
 10
-7.161849655628657
 20
7.07663469546833
 40
0.1666666666666873
 50
299.9816393688436
 51
479.9816393688499
 73
     0
 72
     1
 10
-7.245136731210265
 20
6.93227043112688
 11
-7.661849655628657
 21
7.17268173367597
 72
     1
 10
-7.661849655628657
 20
7.17268173367597
 11
-7.661849655628657
 21
6.41666666666663
 72
     1
 10
-7.661849655628657
 20
6.41666666666663
 11
-7.161849655628657
 21
6.41666666666663
 72
     2
 10
-7.161849655628657
 20
6.25
 40
0.1666666666666847
 50
270.0
 51
450.0
 73
     0
 72
     1
 10
-7.161849655628657
 20
6.083333333333315
 11
-7.661849655628657
 21
6.083333333333315
 72
     1
 10
-7.661849655628657
 20
6.083333333333315
 11
-7.661849655628657
 21
5.32731826632397
 72
     1
 10
-7.661849655628657
 20
5.32731826632397
 11
-7.245136731210266
 21
5.56772956887312
 72
     2
 10
-7.161849655628657
 20
5.423365304531615
 40
0.1666666666666586
 50
240.0183606311593
 51
420.0183606311667
 73
     0
 72
     1
 10
-7.078562580047105
 20
5.279001040190165
 11
-7.745229246713734
 21
4.894385655574865
 72
     2
 10
-7.828516322295343
 20
5.038749919916315
 40
0.1666666666666288
 50
60.01836063114969
 51
180.0
 73
     0
 72
     1
 10
-7.995182988961972
 20
5.038749919916315
 11
-7.995182988961972
 21
7.461250080083685
 72
     2
 10
-7.828516322295343
 20
7.461250080083685
 40
0.166666666666687
 50
180.0
 51
299.9816393688503
 73
     0
 97
       14
330
166
330
195
330
165
330
164
330
163
330
194
330
162
330
161
330
160
330
193
330
15F
330
19E
330
15E
330
19F
 75
     0
 76
     1
 98
        1
 10
0.0
 20
0.0
  0
HATCH
  5
220
330
1F
100
AcDbEntity
  8
1
  6
Continuous
 62
     7
100
AcDbHatch
 10
0.0
 20
0.0
 30
0.0
210
0.0
220
0.0
230
1.0
  2
SOLID
 70
     1
 71
     1
 91
        1
 92
        1
 93
        7
 72
     1
 10
-10.32851632229534
 20
7.461250080083685
 11
-10.32851632229534
 21
5.13501057401635
 72
     1
 10
-10.32851632229534
 20
5.13501057401635
 11
-9.245229246713734
 21
4.510037261180798
 72
     2
 10
-9.328516322295343
 20
4.365672996839351
 40
0.1666666666666854
 50
299.9816393688506
 51
479.9816393688507
 73
     0
 72
     1
 10
-9.411803397876952
 20
4.221308732497903
 11
-10.4950904734585
 21
4.846282045333453
 72
     2
 10
-10.32851632229534
 20
5.13501057401635
 40
0.3333333333333215
 50
119.981639368842
 51
179.9999999999896
 73
     0
 72
     1
 10
-10.66184965562866
 20
5.13501057401629
 11
-10.66184965562866
 21
7.461250080083685
 72
     2
 10
-10.49518298896203
 20
7.461250080083685
 40
0.1666666666666909
 50
180.0
 51
360.0
 73
     0
 97
        7
330
16C
330
16B
330
198
330
16A
330
1A2
330
16D
330
199
 75
     0
 76
     1
 98
        1
 10
0.0
 20
0.0
  0
HATCH
  5
221
330
1F
100
AcDbEntity
  8
1
  6
Continuous
 62
     7
100
AcDbHatch
 10
0.0
 20
0.0
 30
0.0
210
0.0
220
0.0
230
1.0
  2
SOLID
 70
     1
 71
     1
 91
        1
 92
        1
 93
       16
 72
     2
 10
-9.862699882724371
 20
7.865608656017285
 40
0.1324831062376673
 50
30.00000000001307
 51
180.0
 73
     1
 72
     1
 10
-9.995182988962029
 20
7.865608656017285
 11
-9.995182988962029
 21
6.25
 72
     1
 10
-9.995182988962029
 20
6.25
 11
-9.995182988962029
 21
5.423792536316455
 72
     2
 10
-9.828516322295343
 20
5.423792536316455
 40
0.1666666666666856
 50
180.0
 51
360.0
 73
     1
 72
     1
 10
-9.661849655628657
 20
5.423792536316455
 11
-9.661849655628657
 21
6.25
 72
     1
 10
-9.661849655628657
 20
6.25
 11
-9.661849655628657
 21
7.11602540378442
 72
     1
 10
-9.661849655628657
 20
7.11602540378442
 11
-9.234018439277406
 21
6.375
 72
     2
 10
-9.161849655628657
 20
6.41666666666663
 40
0.0833333333333545
 50
209.9999999999622
 51
330.0000000000182
 73
     1
 72
     1
 10
-9.089680871979965
 20
6.375
 11
-8.661849655628657
 21
7.11602540378442
 72
     1
 10
-8.661849655628657
 20
7.11602540378442
 11
-8.661849655628657
 21
6.25
 72
     1
 10
-8.661849655628657
 20
6.25
 11
-8.661849655628657
 21
4.654134535300898
 72
     2
 10
-8.495182988961972
 20
4.654134535300898
 40
0.1666666666666856
 50
180.0
 51
360.0
 73
     1
 72
     1
 10
-8.328516322295343
 20
4.654134535300898
 11
-8.328516322295343
 21
7.865608656017285
 72
     2
 10
-8.460999428533
 20
7.865608656017285
 40
0.1324831062376575
 50
0.0
 51
149.9999999999746
 73
     1
 72
     1
 10
-8.575733164107021
 20
7.931850209136145
 11
-9.161849655628657
 21
6.91666666666663
 72
     1
 10
-9.161849655628657
 20
6.91666666666663
 11
-9.747966147150294
 21
7.931850209136145
 97
       16
330
16E
330
19A
330
16F
330
19B
330
170
330
17C
330
17B
330
1A3
330
17A
330
179
330
171
330
19C
330
172
330
174
330
19D
330
173
 75
     0
 76
     1
 98
        1
 10
0.0
 20
0.0
  0
HATCH
  5
222
330
1F
100
AcDbEntity
  8
1
  6
Continuous
 62
     7
100
AcDbHatch
 10
0.0
 20
0.0
 30
0.0
210
0.0
220
0.0
230
1.0
  2
SOLID
 70
     1
 71
     1
 91
        1
 92
        1
 93
        5
 72
     1
 10
-10.99518298896203
 20
7.07663469546833
 11
-10.99518298896203
 21
5.51962595863165
 72
     1
 10
-10.99518298896203
 20
5.51962595863165
 11
-10.99518298896203
 21
5.423365304531615
 72
     2
 10
-11.16184965562866
 20
5.423365304531615
 40
0.1666666666666785
 50
0.0
 51
180.0
 73
     0
 72
     1
 10
-11.32851632229534
 20
5.423365304531615
 11
-11.32851632229534
 21
7.07663469546833
 72
     2
 10
-11.16184965562866
 20
7.07663469546833
 40
0.1666666666666305
 50
180.0
 51
360.0
 73
     0
 97
        5
330
169
330
168
330
196
330
167
330
197
 75
     0
 76
     1
 98
        1
 10
0.0
 20
0.0
  0
ENDSEC
  0
SECTION
  2
OBJECTS
  0
DICTIONARY
  5
C
330
0
100
AcDbDictionary
281
     1
  3
ACAD_GROUP
350
D
  3
ACAD_LAYOUT
350
1A
  3
ACAD_MATERIAL
350
3B
  3
ACAD_MLEADERSTYLE
350
225
  3
ACAD_MLINESTYLE
350
17
  3
ACAD_PLOTSETTINGS
350
19
  3
ACAD_PLOTSTYLENAME
350
E
  3
ACAD_VISUALSTYLE
350
2A
  3
AcDbVariableDictionary
350
223
  0
DICTIONARY
  5
D
102
{ACAD_REACTORS
330
C
102
}
330
C
100
AcDbDictionary
281
     1
  0
DICTIONARY
  5
1A
102
{ACAD_REACTORS
330
C
102
}
330
C
100
AcDbDictionary
281
     1
  3
Layout1
350
1E
  3
Layout2
350
26
  3
Model
350
22
  0
DICTIONARY
  5
3B
102
{ACAD_REACTORS
330
C
102
}
330
C
100
AcDbDictionary
281
     1
  3
ByBlock
350
3D
  3
ByLayer
350
3C
  3
Global
350
3E
  0
DICTIONARY
  5
225
102
{ACAD_REACTORS
330
C
102
}
330
C
100
AcDbDictionary
281
     1
  0
DICTIONARY
  5
17
102
{ACAD_REACTORS
330
C
102
}
330
C
100
AcDbDictionary
281
     1
  3
Standard
350
18
  0
DICTIONARY
  5
19
102
{ACAD_REACTORS
330
C
102
}
330
C
100
AcDbDictionary
281
     1
  0
ACDBDICTIONARYWDFLT
  5
E
102
{ACAD_REACTORS
330
C
102
}
330
C
100
AcDbDictionary
281
     1
  3
Normal
350
F
100
AcDbDictionaryWithDefault
340
F
  0
DICTIONARY
  5
2A
102
{ACAD_REACTORS
330
C
102
}
330
C
100
AcDbDictionary
281
     1
  3
2dWireframe
350
2F
  3
3D Hidden
350
31
  3
3dWireframe
350
30
  3
Basic
350
32
  3
Brighten
350
36
  3
ColorChange
350
3A
  3
Conceptual
350
34
  3
Dim
350
35
  3
Facepattern
350
39
  3
Flat
350
2B
  3
FlatWithEdges
350
2C
  3
Gouraud
350
2D
  3
GouraudWithEdges
350
2E
  3
Linepattern
350
38
  3
Realistic
350
33
  3
Thicken
350
37
  0
DICTIONARY
  5
223
102
{ACAD_REACTORS
330
C
102
}
330
C
100
AcDbDictionary
281
     1
  3
DIMASSOC
350
226
  3
HIDETEXT
350
227
  0
LAYOUT
  5
1E
102
{ACAD_REACTORS
330
1A
102
}
330
1A
100
AcDbPlotSettings
  1

  2
none_device
  4

  6

 40
0.0
 41
0.0
 42
0.0
 43
0.0
 44
0.0
 45
0.0
 46
0.0
 47
0.0
 48
0.0
 49
0.0
140
0.0
141
0.0
142
1.0
143
1.0
 70
   688
 72
     0
 73
     0
 74
     5
  7

 75
    16
147
1.0
148
0.0
149
0.0
100
AcDbLayout
  1
Layout1
 70
     1
 71
     1
 10
0.0
 20
0.0
 11
12.0
 21
9.0
 12
0.0
 22
0.0
 32
0.0
 14
1.00000000000000E+20
 24
1.00000000000000E+20
 34
1.00000000000000E+20
 15
-1.00000000000000E+20
 25
-1.00000000000000E+20
 35
-1.00000000000000E+20
146
0.0
 13
0.0
 23
0.0
 33
0.0
 16
1.0
 26
0.0
 36
0.0
 17
0.0
 27
1.0
 37
0.0
 76
     0
330
1B
  0
LAYOUT
  5
26
102
{ACAD_REACTORS
330
1A
102
}
330
1A
100
AcDbPlotSettings
  1

  2
none_device
  4

  6

 40
0.0
 41
0.0
 42
0.0
 43
0.0
 44
0.0
 45
0.0
 46
0.0
 47
0.0
 48
0.0
 49
0.0
140
0.0
141
0.0
142
1.0
143
1.0
 70
   688
 72
     0
 73
     0
 74
     5
  7

 75
    16
147
1.0
148
0.0
149
0.0
100
AcDbLayout
  1
Layout2
 70
     1
 71
     2
 10
0.0
 20
0.0
 11
0.0
 21
0.0
 12
0.0
 22
0.0
 32
0.0
 14
0.0
 24
0.0
 34
0.0
 15
0.0
 25
0.0
 35
0.0
146
0.0
 13
0.0
 23
0.0
 33
0.0
 16
1.0
 26
0.0
 36
0.0
 17
0.0
 27
1.0
 37
0.0
 76
     0
330
23
  0
LAYOUT
  5
22
102
{ACAD_REACTORS
330
1A
102
}
330
1A
100
AcDbPlotSettings
  1

  2
none_device
  4

  6

 40
0.0
 41
0.0
 42
0.0
 43
0.0
 44
0.0
 45
0.0
 46
0.0
 47
0.0
 48
0.0
 49
0.0
140
0.0
141
0.0
142
1.0
143
1.0
 70
  1712
 72
     0
 73
     0
 74
     0
  7

 75
     0
147
1.0
148
0.0
149
0.0
100
AcDbLayout
  1
Model
 70
     1
 71
     0
 10
0.0
 20
0.0
 11
12.0
 21
9.0
 12
0.0
 22
0.0
 32
0.0
 14
-105.0000000000001
 24
0.0
 34
0.0
 15
0.0
 25
148.5000000000001
 35
0.0
146
0.0
 13
0.0
 23
0.0
 33
0.0
 16
1.0
 26
0.0
 36
0.0
 17
0.0
 27
1.0
 37
0.0
 76
     0
330
1F
331
29
  0
MATERIAL
  5
3D
102
{ACAD_REACTORS
330
3B
102
}
102
{ACAD_XDICTIONARY
360
24A
102
}
330
3B
100
AcDbMaterial
  1
ByBlock
  0
MATERIAL
  5
3C
102
{ACAD_REACTORS
330
3B
102
}
102
{ACAD_XDICTIONARY
360
248
102
}
330
3B
100
AcDbMaterial
  1
ByLayer
  0
MATERIAL
  5
3E
102
{ACAD_REACTORS
330
3B
102
}
102
{ACAD_XDICTIONARY
360
24C
102
}
330
3B
100
AcDbMaterial
  1
Global
  0
MLINESTYLE
  5
18
102
{ACAD_REACTORS
330
17
102
}
330
17
100
AcDbMlineStyle
  2
Standard
 70
     0
  3

 62
   256
 51
90.0
 52
90.0
 71
     2
 49
0.5
 62
   256
  6
BYLAYER
 49
-0.5
 62
   256
  6
BYLAYER
  0
ACDBPLACEHOLDER
  5
F
102
{ACAD_REACTORS
330
E
102
}
330
E
  0
VISUALSTYLE
  5
2F
102
{ACAD_REACTORS
330
2A
102
}
102
{ACAD_XDICTIONARY
360
230
102
}
330
2A
100
AcDbVisualStyle
  2
2dWireframe
 70
     4
 71
     0
 72
     2
 73
     0
 90
        0
 40
-0.6
 41
-30.0
 62
     5
 63
     7
 74
     1
 91
        4
 64
     7
 65
   257
 75
     1
175
     1
 42
1.0
 92
        0
 66
   257
 43
1.0
 76
     1
 77
     6
 78
     2
 67
     7
 79
     5
170
     0
171
     0
290
     0
174
     0
 93
        1
 44
0.0
173
     0
291
     0
 45
0.0
1001
ACAD
1000
AcDbSavedByObjectVersion
1070
     0
  0
VISUALSTYLE
  5
31
102
{ACAD_REACTORS
330
2A
102
}
102
{ACAD_XDICTIONARY
360
234
102
}
330
2A
100
AcDbVisualStyle
  2
3D Hidden
 70
     6
 71
     1
 72
     2
 73
     2
 90
        0
 40
-0.6
 41
-30.0
 62
     5
 63
     7
 74
     2
 91
        2
 64
     7
 65
   257
 75
     2
175
     1
 42
40.0
 92
        0
 66
   257
 43
1.0
 76
     1
 77
     6
 78
     2
 67
     7
 79
     3
170
     0
171
     0
290
     0
174
     0
 93
        1
 44
0.0
173
     0
291
     0
 45
0.0
1001
ACAD
1000
AcDbSavedByObjectVersion
1070
     0
  0
VISUALSTYLE
  5
30
102
{ACAD_REACTORS
330
2A
102
}
102
{ACAD_XDICTIONARY
360
232
102
}
330
2A
100
AcDbVisualStyle
  2
3dWireframe
 70
     5
 71
     0
 72
     2
 73
     0
 90
        0
 40
-0.6
 41
-30.0
 62
     5
 63
     7
 74
     1
 91
        4
 64
     7
 65
   257
 75
     1
175
     1
 42
1.0
 92
        0
 66
   257
 43
1.0
 76
     1
 77
     6
 78
     2
 67
     7
 79
     5
170
     0
171
     0
290
     0
174
     0
 93
        1
 44
0.0
173
     0
291
     0
 45
0.0
1001
ACAD
1000
AcDbSavedByObjectVersion
1070
     0
  0
VISUALSTYLE
  5
32
102
{ACAD_REACTORS
330
2A
102
}
102
{ACAD_XDICTIONARY
360
236
102
}
330
2A
100
AcDbVisualStyle
  2
Basic
 70
     7
 71
     1
 72
     0
 73
     1
 90
        0
 40
-0.6
 41
-30.0
 62
     5
 63
     7
 74
     0
 91
        4
 64
     7
 65
   257
 75
     1
175
     1
 42
1.0
 92
        8
 66
     7
 43
1.0
 76
     1
 77
     6
 78
     2
 67
     7
 79
     5
170
     0
171
     0
290
     0
174
     0
 93
        1
 44
0.0
173
     0
291
     1
 45
0.0
1001
ACAD
1000
AcDbSavedByObjectVersion
1070
     0
  0
VISUALSTYLE
  5
36
102
{ACAD_REACTORS
330
2A
102
}
102
{ACAD_XDICTIONARY
360
23E
102
}
330
2A
100
AcDbVisualStyle
  2
Brighten
 70
    12
 71
     2
 72
     2
 73
     0
 90
        0
 40
-0.6
 41
-30.0
 62
     5
 63
     7
 74
     1
 91
        4
 64
     7
 65
   257
 75
     1
175
     1
 42
1.0
 92
        8
 66
     7
 43
1.0
 76
     1
 77
     6
 78
     2
 67
     7
 79
     5
170
     0
171
     0
290
     0
174
     0
 93
        1
 44
50.0
173
     0
291
     1
 45
0.0
1001
ACAD
1000
AcDbSavedByObjectVersion
1070
     0
  0
VISUALSTYLE
  5
3A
102
{ACAD_REACTORS
330
2A
102
}
102
{ACAD_XDICTIONARY
360
246
102
}
330
2A
100
AcDbVisualStyle
  2
ColorChange
 70
    16
 71
     2
 72
     2
 73
     3
 90
        0
 40
-0.6
 41
-30.0
 62
     5
 63
     8
 74
     1
 91
        4
 64
     7
 65
   257
 75
     1
175
     1
 42
1.0
 92
        8
 66
     8
 43
1.0
 76
     1
 77
     6
 78
     2
 67
     7
 79
     5
170
     0
171
     0
290
     0
174
     0
 93
        1
 44
0.0
173
     0
291
     1
 45
0.0
1001
ACAD
1000
AcDbSavedByObjectVersion
1070
     0
  0
VISUALSTYLE
  5
34
102
{ACAD_REACTORS
330
2A
102
}
102
{ACAD_XDICTIONARY
360
23A
102
}
330
2A
100
AcDbVisualStyle
  2
Conceptual
 70
     9
 71
     3
 72
     2
 73
     0
 90
        0
 40
-0.6
 41
-30.0
 62
     5
 63
     7
 74
     2
 91
        2
 64
     7
 65
   257
 75
     1
175
     1
 42
40.0
 92
        8
 66
     7
 43
1.0
 76
     1
 77
     6
 78
     2
 67
     7
 79
     3
170
     0
171
     0
290
     0
174
     0
 93
        1
 44
0.0
173
     0
291
     0
 45
0.0
1001
ACAD
1000
AcDbSavedByObjectVersion
1070
     0
  0
VISUALSTYLE
  5
35
102
{ACAD_REACTORS
330
2A
102
}
102
{ACAD_XDICTIONARY
360
23C
102
}
330
2A
100
AcDbVisualStyle
  2
Dim
 70
    11
 71
     2
 72
     2
 73
     0
 90
        0
 40
-0.6
 41
-30.0
 62
     5
 63
     7
 74
     1
 91
        4
 64
     7
 65
   257
 75
     1
175
     1
 42
1.0
 92
        8
 66
     7
 43
1.0
 76
     1
 77
     6
 78
     2
 67
     7
 79
     5
170
     0
171
     0
290
     0
174
     0
 93
        1
 44
-50.0
173
     0
291
     1
 45
0.0
1001
ACAD
1000
AcDbSavedByObjectVersion
1070
     0
  0
VISUALSTYLE
  5
39
102
{ACAD_REACTORS
330
2A
102
}
102
{ACAD_XDICTIONARY
360
244
102
}
330
2A
100
AcDbVisualStyle
  2
Facepattern
 70
    15
 71
     2
 72
     2
 73
     0
 90
        0
 40
-0.6
 41
-30.0
 62
     5
 63
     7
 74
     1
 91
        4
 64
     7
 65
   257
 75
     1
175
     1
 42
1.0
 92
        8
 66
     7
 43
1.0
 76
     1
 77
     6
 78
     2
 67
     7
 79
     5
170
     0
171
     0
290
     0
174
     0
 93
        1
 44
0.0
173
     0
291
     1
 45
0.0
1001
ACAD
1000
AcDbSavedByObjectVersion
1070
     0
  0
VISUALSTYLE
  5
2B
102
{ACAD_REACTORS
330
2A
102
}
102
{ACAD_XDICTIONARY
360
228
102
}
330
2A
100
AcDbVisualStyle
  2
Flat
 70
     0
 71
     2
 72
     1
 73
     1
 90
        2
 40
-0.6
 41
30.0
 62
     5
 63
     7
 74
     0
 91
        4
 64
     7
 65
   257
 75
     1
175
     1
 42
1.0
 92
        8
 66
     7
 43
1.0
 76
     1
 77
     6
 78
     2
 67
     7
 79
     5
170
     0
171
     0
290
     0
174
     0
 93
       13
 44
0.0
173
     0
291
     1
 45
0.0
1001
ACAD
1000
AcDbSavedByObjectVersion
1070
     0
  0
VISUALSTYLE
  5
2C
102
{ACAD_REACTORS
330
2A
102
}
102
{ACAD_XDICTIONARY
360
22A
102
}
330
2A
100
AcDbVisualStyle
  2
FlatWithEdges
 70
     1
 71
     2
 72
     1
 73
     1
 90
        2
 40
-0.6
 41
30.0
 62
     5
 63
     7
 74
     1
 91
        4
 64
     7
 65
   257
 75
     1
175
     1
 42
1.0
 92
        0
 66
   257
 43
1.0
 76
     1
 77
     6
 78
     2
 67
     7
 79
     5
170
     0
171
     0
290
     0
174
     0
 93
       13
 44
0.0
173
     0
291
     1
 45
0.0
1001
ACAD
1000
AcDbSavedByObjectVersion
1070
     0
  0
VISUALSTYLE
  5
2D
102
{ACAD_REACTORS
330
2A
102
}
102
{ACAD_XDICTIONARY
360
22C
102
}
330
2A
100
AcDbVisualStyle
  2
Gouraud
 70
     2
 71
     2
 72
     2
 73
     1
 90
        2
 40
-0.6
 41
30.0
 62
     5
 63
     7
 74
     0
 91
        4
 64
     7
 65
   257
 75
     1
175
     1
 42
1.0
 92
        0
 66
     7
 43
1.0
 76
     1
 77
     6
 78
     2
 67
     7
 79
     5
170
     0
171
     0
290
     0
174
     0
 93
       13
 44
0.0
173
     0
291
     1
 45
0.0
1001
ACAD
1000
AcDbSavedByObjectVersion
1070
     0
  0
VISUALSTYLE
  5
2E
102
{ACAD_REACTORS
330
2A
102
}
102
{ACAD_XDICTIONARY
360
22E
102
}
330
2A
100
AcDbVisualStyle
  2
GouraudWithEdges
 70
     3
 71
     2
 72
     2
 73
     1
 90
        2
 40
-0.6
 41
30.0
 62
     5
 63
     7
 74
     1
 91
        4
 64
     7
 65
   257
 75
     1
175
     1
 42
1.0
 92
        0
 66
   257
 43
1.0
 76
     1
 77
     6
 78
     2
 67
     7
 79
     5
170
     0
171
     0
290
     0
174
     0
 93
       13
 44
0.0
173
     0
291
     1
 45
0.0
1001
ACAD
1000
AcDbSavedByObjectVersion
1070
     0
  0
VISUALSTYLE
  5
38
102
{ACAD_REACTORS
330
2A
102
}
102
{ACAD_XDICTIONARY
360
242
102
}
330
2A
100
AcDbVisualStyle
  2
Linepattern
 70
    14
 71
     2
 72
     2
 73
     0
 90
        0
 40
-0.6
 41
-30.0
 62
     5
 63
     7
 74
     1
 91
        4
 64
     7
 65
   257
 75
     7
175
     7
 42
1.0
 92
        8
 66
     7
 43
1.0
 76
     1
 77
     6
 78
     2
 67
     7
 79
     5
170
     0
171
     0
290
     0
174
     0
 93
        1
 44
0.0
173
     0
291
     1
 45
0.0
1001
ACAD
1000
AcDbSavedByObjectVersion
1070
     0
  0
VISUALSTYLE
  5
33
102
{ACAD_REACTORS
330
2A
102
}
102
{ACAD_XDICTIONARY
360
238
102
}
330
2A
100
AcDbVisualStyle
  2
Realistic
 70
     8
 71
     2
 72
     2
 73
     0
 90
        0
 40
-0.6
 41
-30.0
 62
     5
 63
     7
 74
     1
 91
        0
 64
     7
 65
   257
 75
     1
175
     1
 42
1.0
 92
        8
 66
     8
 43
1.0
 76
     1
 77
     6
 78
     2
 67
     7
 79
     5
170
     0
171
     0
290
     0
174
     0
 93
       13
 44
0.0
173
     0
291
     0
 45
0.0
1001
ACAD
1000
AcDbSavedByObjectVersion
1070
     0
  0
VISUALSTYLE
  5
37
102
{ACAD_REACTORS
330
2A
102
}
102
{ACAD_XDICTIONARY
360
240
102
}
330
2A
100
AcDbVisualStyle
  2
Thicken
 70
    13
 71
     2
 72
     2
 73
     0
 90
        0
 40
-0.6
 41
-30.0
 62
     5
 63
     7
 74
     1
 91
        4
 64
     7
 65
   257
 75
     1
175
     1
 42
1.0
 92
       12
 66
     7
 43
1.0
 76
     1
 77
     6
 78
     2
 67
     7
 79
     5
170
     0
171
     0
290
     0
174
     0
 93
        1
 44
0.0
173
     0
291
     1
 45
0.0
1001
ACAD
1000
AcDbSavedByObjectVersion
1070
     0
  0
DICTIONARYVAR
  5
226
102
{ACAD_REACTORS
330
223
102
}
330
223
100
DictionaryVariables
280
     0
  1
2
  0
DICTIONARYVAR
  5
227
102
{ACAD_REACTORS
330
223
102
}
330
223
100
DictionaryVariables
280
     0
  1
1
  0
DICTIONARY
  5
24A
330
3D
100
AcDbDictionary
280
     1
281
     1
  3
ACAD_XREC_ROUNDTRIP
360
24B
  0
DICTIONARY
  5
248
330
3C
100
AcDbDictionary
280
     1
281
     1
  3
ACAD_XREC_ROUNDTRIP
360
249
  0
DICTIONARY
  5
24C
330
3E
100
AcDbDictionary
280
     1
281
     1
  3
ACAD_XREC_ROUNDTRIP
360
24D
  0
DICTIONARY
  5
230
330
2F
100
AcDbDictionary
280
     1
281
     1
  3
ACAD_XREC_ROUNDTRIP
360
231
  0
DICTIONARY
  5
234
330
31
100
AcDbDictionary
280
     1
281
     1
  3
ACAD_XREC_ROUNDTRIP
360
235
  0
DICTIONARY
  5
232
330
30
100
AcDbDictionary
280
     1
281
     1
  3
ACAD_XREC_ROUNDTRIP
360
233
  0
DICTIONARY
  5
236
330
32
100
AcDbDictionary
280
     1
281
     1
  3
ACAD_XREC_ROUNDTRIP
360
237
  0
DICTIONARY
  5
23E
330
36
100
AcDbDictionary
280
     1
281
     1
  3
ACAD_XREC_ROUNDTRIP
360
23F
  0
DICTIONARY
  5
246
330
3A
100
AcDbDictionary
280
     1
281
     1
  3
ACAD_XREC_ROUNDTRIP
360
247
  0
DICTIONARY
  5
23A
330
34
100
AcDbDictionary
280
     1
281
     1
  3
ACAD_XREC_ROUNDTRIP
360
23B
  0
DICTIONARY
  5
23C
330
35
100
AcDbDictionary
280
     1
281
     1
  3
ACAD_XREC_ROUNDTRIP
360
23D
  0
DICTIONARY
  5
244
330
39
100
AcDbDictionary
280
     1
281
     1
  3
ACAD_XREC_ROUNDTRIP
360
245
  0
DICTIONARY
  5
228
330
2B
100
AcDbDictionary
280
     1
281
     1
  3
ACAD_XREC_ROUNDTRIP
360
229
  0
DICTIONARY
  5
22A
330
2C
100
AcDbDictionary
280
     1
281
     1
  3
ACAD_XREC_ROUNDTRIP
360
22B
  0
DICTIONARY
  5
22C
330
2D
100
AcDbDictionary
280
     1
281
     1
  3
ACAD_XREC_ROUNDTRIP
360
22D
  0
DICTIONARY
  5
22E
330
2E
100
AcDbDictionary
280
     1
281
     1
  3
ACAD_XREC_ROUNDTRIP
360
22F
  0
DICTIONARY
  5
242
330
38
100
AcDbDictionary
280
     1
281
     1
  3
ACAD_XREC_ROUNDTRIP
360
243
  0
DICTIONARY
  5
238
330
33
100
AcDbDictionary
280
     1
281
     1
  3
ACAD_XREC_ROUNDTRIP
360
239
  0
DICTIONARY
  5
240
330
37
100
AcDbDictionary
280
     1
281
     1
  3
ACAD_XREC_ROUNDTRIP
360
241
  0
XRECORD
  5
24B
102
{ACAD_REACTORS
330
24A
102
}
330
24A
100
AcDbXrecord
280
     1
102
MATERIAL
148
0.0
149
0.0
149
0.0
 93
        0
 94
      127
282
     0
 72
     1
 77
     1
171
     1
175
     1
179
     1
273
     0
  0
XRECORD
  5
249
102
{ACAD_REACTORS
330
248
102
}
330
248
100
AcDbXrecord
280
     1
102
MATERIAL
148
0.0
149
0.0
149
0.0
 93
        0
 94
      127
282
     0
 72
     1
 77
     1
171
     1
175
     1
179
     1
273
     0
  0
XRECORD
  5
24D
102
{ACAD_REACTORS
330
24C
102
}
330
24C
100
AcDbXrecord
280
     1
102
MATERIAL
148
0.0
149
0.0
149
0.0
 93
        0
 94
      127
282
     0
 72
     1
 77
     1
171
     1
175
     1
179
     1
273
     0
  0
XRECORD
  5
231
102
{ACAD_REACTORS
330
230
102
}
330
230
100
AcDbXrecord
280
     1
102
RTVSPropertyOp0
 70
     1
102
RTVSPropertyOp1
 70
     1
102
RTVSPropertyOp2
 70
     1
102
RTVSPropertyOp3
 70
     1
102
RTVSPropertyOp4
 70
     1
102
RTVSPropertyOp5
 70
     1
102
RTVSPropertyOp6
 70
     1
102
RTVSPropertyOp7
 70
     1
102
RTVSPropertyOp8
 70
     1
102
RTVSPropertyOp9
 70
     1
102
RTVSPropertyOp10
 70
     1
102
RTVSPropertyOp11
 70
     1
102
RTVSPropertyOp12
 70
     1
102
RTVSPropertyOp13
 70
     1
102
RTVSPropertyOp14
 70
     1
102
RTVSPropertyOp15
 70
     1
102
RTVSPropertyOp16
 70
     1
102
RTVSPropertyOp17
 70
     1
102
RTVSPropertyOp18
 70
     1
102
RTVSPropertyOp19
 70
     1
102
RTVSPropertyOp20
 70
     1
102
RTVSPropertyOp21
 70
     1
102
RTVSPropertyOp22
 70
     1
102
RTVSPropertyOp23
 70
     1
102
RTVSPropertyOp24
 70
     1
102
RTVSPropertyOp25
 70
     1
102
RTVSPropertyOp26
 70
     1
102
RTVSPropertyOp27
 70
     1
102
RTVSPropertyOp28
 70
     1
102
RTVSPropertyOp29
 70
     1
102
RTVSPropertyOp30
 70
     1
102
RTVSPropertyOp31
 70
     1
102
RTVSPropertyOp32
 70
     1
  0
XRECORD
  5
235
102
{ACAD_REACTORS
330
234
102
}
330
234
100
AcDbXrecord
280
     1
102
RTVSPropertyOp0
 70
     1
102
RTVSPropertyOp1
 70
     1
102
RTVSPropertyOp2
 70
     1
102
RTVSPropertyOp3
 70
     1
102
RTVSPropertyOp4
 70
     1
102
RTVSPropertyOp5
 70
     1
102
RTVSPropertyOp6
 70
     1
102
RTVSPropertyOp7
 70
     1
102
RTVSPropertyOp8
 70
     1
102
RTVSPropertyOp9
 70
     1
102
RTVSPropertyOp10
 70
     1
102
RTVSPropertyOp11
 70
     1
102
RTVSPropertyOp12
 70
     1
102
RTVSPropertyOp13
 70
     1
102
RTVSPropertyOp14
 70
     1
102
RTVSPropertyOp15
 70
     1
102
RTVSPropertyOp16
 70
     1
102
RTVSPropertyOp17
 70
     1
102
RTVSPropertyOp18
 70
     1
102
RTVSPropertyOp19
 70
     1
102
RTVSPropertyOp20
 70
     1
102
RTVSPropertyOp21
 70
     1
102
RTVSPropertyOp22
 70
     1
102
RTVSPropertyOp23
 70
     1
102
RTVSPropertyOp24
 70
     1
102
RTVSPropertyOp25
 70
     1
102
RTVSPropertyOp26
 70
     1
102
RTVSPropertyOp27
 70
     1
102
RTVSPropertyOp28
 70
     1
102
RTVSPropertyOp29
 70
     1
102
RTVSPropertyOp30
 70
     1
102
RTVSPropertyOp31
 70
     1
102
RTVSPropertyOp32
 70
     1
  0
XRECORD
  5
233
102
{ACAD_REACTORS
330
232
102
}
330
232
100
AcDbXrecord
280
     1
102
RTVSPropertyOp0
 70
     1
102
RTVSPropertyOp1
 70
     1
102
RTVSPropertyOp2
 70
     1
102
RTVSPropertyOp3
 70
     1
102
RTVSPropertyOp4
 70
     1
102
RTVSPropertyOp5
 70
     1
102
RTVSPropertyOp6
 70
     1
102
RTVSPropertyOp7
 70
     1
102
RTVSPropertyOp8
 70
     1
102
RTVSPropertyOp9
 70
     1
102
RTVSPropertyOp10
 70
     1
102
RTVSPropertyOp11
 70
     1
102
RTVSPropertyOp12
 70
     1
102
RTVSPropertyOp13
 70
     1
102
RTVSPropertyOp14
 70
     1
102
RTVSPropertyOp15
 70
     1
102
RTVSPropertyOp16
 70
     1
102
RTVSPropertyOp17
 70
     1
102
RTVSPropertyOp18
 70
     1
102
RTVSPropertyOp19
 70
     1
102
RTVSPropertyOp20
 70
     1
102
RTVSPropertyOp21
 70
     1
102
RTVSPropertyOp22
 70
     1
102
RTVSPropertyOp23
 70
     1
102
RTVSPropertyOp24
 70
     1
102
RTVSPropertyOp25
 70
     1
102
RTVSPropertyOp26
 70
     1
102
RTVSPropertyOp27
 70
     1
102
RTVSPropertyOp28
 70
     1
102
RTVSPropertyOp29
 70
     1
102
RTVSPropertyOp30
 70
     1
102
RTVSPropertyOp31
 70
     1
102
RTVSPropertyOp32
 70
     1
  0
XRECORD
  5
237
102
{ACAD_REACTORS
330
236
102
}
330
236
100
AcDbXrecord
280
     1
102
RTVSPropertyOp0
 70
     1
102
RTVSPropertyOp1
 70
     1
102
RTVSPropertyOp2
 70
     1
102
RTVSPropertyOp3
 70
     1
102
RTVSPropertyOp4
 70
     1
102
RTVSPropertyOp5
 70
     1
102
RTVSPropertyOp6
 70
     1
102
RTVSPropertyOp7
 70
     1
102
RTVSPropertyOp8
 70
     1
102
RTVSPropertyOp9
 70
     1
102
RTVSPropertyOp10
 70
     1
102
RTVSPropertyOp11
 70
     1
102
RTVSPropertyOp12
 70
     1
102
RTVSPropertyOp13
 70
     1
102
RTVSPropertyOp14
 70
     1
102
RTVSPropertyOp15
 70
     1
102
RTVSPropertyOp16
 70
     1
102
RTVSPropertyOp17
 70
     1
102
RTVSPropertyOp18
 70
     1
102
RTVSPropertyOp19
 70
     1
102
RTVSPropertyOp20
 70
     1
102
RTVSPropertyOp21
 70
     1
102
RTVSPropertyOp22
 70
     1
102
RTVSPropertyOp23
 70
     1
102
RTVSPropertyOp24
 70
     1
102
RTVSPropertyOp25
 70
     1
102
RTVSPropertyOp26
 70
     1
102
RTVSPropertyOp27
 70
     1
102
RTVSPropertyOp28
 70
     1
102
RTVSPropertyOp29
 70
     1
102
RTVSPropertyOp30
 70
     1
102
RTVSPropertyOp31
 70
     1
102
RTVSPropertyOp32
 70
     1
  0
XRECORD
  5
23F
102
{ACAD_REACTORS
330
23E
102
}
330
23E
100
AcDbXrecord
280
     1
102
RTVSPropertyOp0
 70
     1
102
RTVSPropertyOp1
 70
     1
102
RTVSPropertyOp2
 70
     1
102
RTVSPropertyOp3
 70
     1
102
RTVSPropertyOp4
 70
     1
102
RTVSPropertyOp5
 70
     1
102
RTVSPropertyOp6
 70
     1
102
RTVSPropertyOp7
 70
     1
102
RTVSPropertyOp8
 70
     1
102
RTVSPropertyOp9
 70
     1
102
RTVSPropertyOp10
 70
     1
102
RTVSPropertyOp11
 70
     1
102
RTVSPropertyOp12
 70
     1
102
RTVSPropertyOp13
 70
     1
102
RTVSPropertyOp14
 70
     1
102
RTVSPropertyOp15
 70
     1
102
RTVSPropertyOp16
 70
     1
102
RTVSPropertyOp17
 70
     1
102
RTVSPropertyOp18
 70
     1
102
RTVSPropertyOp19
 70
     1
102
RTVSPropertyOp20
 70
     1
102
RTVSPropertyOp21
 70
     1
102
RTVSPropertyOp22
 70
     1
102
RTVSPropertyOp23
 70
     1
102
RTVSPropertyOp24
 70
     1
102
RTVSPropertyOp25
 70
     1
102
RTVSPropertyOp26
 70
     1
102
RTVSPropertyOp27
 70
     1
102
RTVSPropertyOp28
 70
     1
102
RTVSPropertyOp29
 70
     1
102
RTVSPropertyOp30
 70
     1
102
RTVSPropertyOp31
 70
     1
102
RTVSPropertyOp32
 70
     1
  0
XRECORD
  5
247
102
{ACAD_REACTORS
330
246
102
}
330
246
100
AcDbXrecord
280
     1
102
RTVSPropertyOp0
 70
     1
102
RTVSPropertyOp1
 70
     1
102
RTVSPropertyOp2
 70
     1
102
RTVSPropertyOp3
 70
     1
102
RTVSPropertyOp4
 70
     1
102
RTVSPropertyOp5
 70
     1
102
RTVSPropertyOp6
 70
     1
102
RTVSPropertyOp7
 70
     1
102
RTVSPropertyOp8
 70
     1
102
RTVSPropertyOp9
 70
     1
102
RTVSPropertyOp10
 70
     1
102
RTVSPropertyOp11
 70
     1
102
RTVSPropertyOp12
 70
     1
102
RTVSPropertyOp13
 70
     1
102
RTVSPropertyOp14
 70
     1
102
RTVSPropertyOp15
 70
     1
102
RTVSPropertyOp16
 70
     1
102
RTVSPropertyOp17
 70
     1
102
RTVSPropertyOp18
 70
     1
102
RTVSPropertyOp19
 70
     1
102
RTVSPropertyOp20
 70
     1
102
RTVSPropertyOp21
 70
     1
102
RTVSPropertyOp22
 70
     1
102
RTVSPropertyOp23
 70
     1
102
RTVSPropertyOp24
 70
     1
102
RTVSPropertyOp25
 70
     1
102
RTVSPropertyOp26
 70
     1
102
RTVSPropertyOp27
 70
     1
102
RTVSPropertyOp28
 70
     1
102
RTVSPropertyOp29
 70
     1
102
RTVSPropertyOp30
 70
     1
102
RTVSPropertyOp31
 70
     1
102
RTVSPropertyOp32
 70
     1
  0
XRECORD
  5
23B
102
{ACAD_REACTORS
330
23A
102
}
330
23A
100
AcDbXrecord
280
     1
102
RTVSPropertyOp0
 70
     1
102
RTVSPropertyOp1
 70
     1
102
RTVSPropertyOp2
 70
     1
102
RTVSPropertyOp3
 70
     1
102
RTVSPropertyOp4
 70
     1
102
RTVSPropertyOp5
 70
     1
102
RTVSPropertyOp6
 70
     1
102
RTVSPropertyOp7
 70
     1
102
RTVSPropertyOp8
 70
     1
102
RTVSPropertyOp9
 70
     1
102
RTVSPropertyOp10
 70
     1
102
RTVSPropertyOp11
 70
     1
102
RTVSPropertyOp12
 70
     1
102
RTVSPropertyOp13
 70
     1
102
RTVSPropertyOp14
 70
     1
102
RTVSPropertyOp15
 70
     1
102
RTVSPropertyOp16
 70
     1
102
RTVSPropertyOp17
 70
     1
102
RTVSPropertyOp18
 70
     1
102
RTVSPropertyOp19
 70
     1
102
RTVSPropertyOp20
 70
     1
102
RTVSPropertyOp21
 70
     1
102
RTVSPropertyOp22
 70
     1
102
RTVSPropertyOp23
 70
     1
102
RTVSPropertyOp24
 70
     1
102
RTVSPropertyOp25
 70
     1
102
RTVSPropertyOp26
 70
     1
102
RTVSPropertyOp27
 70
     1
102
RTVSPropertyOp28
 70
     1
102
RTVSPropertyOp29
 70
     1
102
RTVSPropertyOp30
 70
     1
102
RTVSPropertyOp31
 70
     1
102
RTVSPropertyOp32
 70
     1
  0
XRECORD
  5
23D
102
{ACAD_REACTORS
330
23C
102
}
330
23C
100
AcDbXrecord
280
     1
102
RTVSPropertyOp0
 70
     1
102
RTVSPropertyOp1
 70
     1
102
RTVSPropertyOp2
 70
     1
102
RTVSPropertyOp3
 70
     1
102
RTVSPropertyOp4
 70
     1
102
RTVSPropertyOp5
 70
     1
102
RTVSPropertyOp6
 70
     1
102
RTVSPropertyOp7
 70
     1
102
RTVSPropertyOp8
 70
     1
102
RTVSPropertyOp9
 70
     1
102
RTVSPropertyOp10
 70
     1
102
RTVSPropertyOp11
 70
     1
102
RTVSPropertyOp12
 70
     1
102
RTVSPropertyOp13
 70
     1
102
RTVSPropertyOp14
 70
     1
102
RTVSPropertyOp15
 70
     1
102
RTVSPropertyOp16
 70
     1
102
RTVSPropertyOp17
 70
     1
102
RTVSPropertyOp18
 70
     1
102
RTVSPropertyOp19
 70
     1
102
RTVSPropertyOp20
 70
     1
102
RTVSPropertyOp21
 70
     1
102
RTVSPropertyOp22
 70
     1
102
RTVSPropertyOp23
 70
     1
102
RTVSPropertyOp24
 70
     1
102
RTVSPropertyOp25
 70
     1
102
RTVSPropertyOp26
 70
     1
102
RTVSPropertyOp27
 70
     1
102
RTVSPropertyOp28
 70
     1
102
RTVSPropertyOp29
 70
     1
102
RTVSPropertyOp30
 70
     1
102
RTVSPropertyOp31
 70
     1
102
RTVSPropertyOp32
 70
     1
  0
XRECORD
  5
245
102
{ACAD_REACTORS
330
244
102
}
330
244
100
AcDbXrecord
280
     1
102
RTVSPropertyOp0
 70
     1
102
RTVSPropertyOp1
 70
     1
102
RTVSPropertyOp2
 70
     1
102
RTVSPropertyOp3
 70
     1
102
RTVSPropertyOp4
 70
     1
102
RTVSPropertyOp5
 70
     1
102
RTVSPropertyOp6
 70
     1
102
RTVSPropertyOp7
 70
     1
102
RTVSPropertyOp8
 70
     1
102
RTVSPropertyOp9
 70
     1
102
RTVSPropertyOp10
 70
     1
102
RTVSPropertyOp11
 70
     1
102
RTVSPropertyOp12
 70
     1
102
RTVSPropertyOp13
 70
     1
102
RTVSPropertyOp14
 70
     1
102
RTVSPropertyOp15
 70
     1
102
RTVSPropertyOp16
 70
     1
102
RTVSPropertyOp17
 70
     1
102
RTVSPropertyOp18
 70
     1
102
RTVSPropertyOp19
 70
     1
102
RTVSPropertyOp20
 70
     1
102
RTVSPropertyOp21
 70
     1
102
RTVSPropertyOp22
 70
     1
102
RTVSPropertyOp23
 70
     1
102
RTVSPropertyOp24
 70
     1
102
RTVSPropertyOp25
 70
     1
102
RTVSPropertyOp26
 70
     1
102
RTVSPropertyOp27
 70
     1
102
RTVSPropertyOp28
 70
     1
102
RTVSPropertyOp29
 70
     1
102
RTVSPropertyOp30
 70
     1
102
RTVSPropertyOp31
 70
     1
102
RTVSPropertyOp32
 70
     1
  0
XRECORD
  5
229
102
{ACAD_REACTORS
330
228
102
}
330
228
100
AcDbXrecord
280
     1
102
RTVSPropertyOp0
 70
     1
102
RTVSPropertyOp1
 70
     1
102
RTVSPropertyOp2
 70
     1
102
RTVSPropertyOp3
 70
     1
102
RTVSPropertyOp4
 70
     1
102
RTVSPropertyOp5
 70
     1
102
RTVSPropertyOp6
 70
     1
102
RTVSPropertyOp7
 70
     1
102
RTVSPropertyOp8
 70
     1
102
RTVSPropertyOp9
 70
     1
102
RTVSPropertyOp10
 70
     1
102
RTVSPropertyOp11
 70
     1
102
RTVSPropertyOp12
 70
     1
102
RTVSPropertyOp13
 70
     1
102
RTVSPropertyOp14
 70
     1
102
RTVSPropertyOp15
 70
     1
102
RTVSPropertyOp16
 70
     1
102
RTVSPropertyOp17
 70
     1
102
RTVSPropertyOp18
 70
     1
102
RTVSPropertyOp19
 70
     1
102
RTVSPropertyOp20
 70
     1
102
RTVSPropertyOp21
 70
     1
102
RTVSPropertyOp22
 70
     1
102
RTVSPropertyOp23
 70
     1
102
RTVSPropertyOp24
 70
     1
102
RTVSPropertyOp25
 70
     1
102
RTVSPropertyOp26
 70
     1
102
RTVSPropertyOp27
 70
     1
102
RTVSPropertyOp28
 70
     1
102
RTVSPropertyOp29
 70
     1
102
RTVSPropertyOp30
 70
     1
102
RTVSPropertyOp31
 70
     1
102
RTVSPropertyOp32
 70
     1
  0
XRECORD
  5
22B
102
{ACAD_REACTORS
330
22A
102
}
330
22A
100
AcDbXrecord
280
     1
102
RTVSPropertyOp0
 70
     1
102
RTVSPropertyOp1
 70
     1
102
RTVSPropertyOp2
 70
     1
102
RTVSPropertyOp3
 70
     1
102
RTVSPropertyOp4
 70
     1
102
RTVSPropertyOp5
 70
     1
102
RTVSPropertyOp6
 70
     1
102
RTVSPropertyOp7
 70
     1
102
RTVSPropertyOp8
 70
     1
102
RTVSPropertyOp9
 70
     1
102
RTVSPropertyOp10
 70
     1
102
RTVSPropertyOp11
 70
     1
102
RTVSPropertyOp12
 70
     1
102
RTVSPropertyOp13
 70
     1
102
RTVSPropertyOp14
 70
     1
102
RTVSPropertyOp15
 70
     1
102
RTVSPropertyOp16
 70
     1
102
RTVSPropertyOp17
 70
     1
102
RTVSPropertyOp18
 70
     1
102
RTVSPropertyOp19
 70
     1
102
RTVSPropertyOp20
 70
     1
102
RTVSPropertyOp21
 70
     1
102
RTVSPropertyOp22
 70
     1
102
RTVSPropertyOp23
 70
     1
102
RTVSPropertyOp24
 70
     1
102
RTVSPropertyOp25
 70
     1
102
RTVSPropertyOp26
 70
     1
102
RTVSPropertyOp27
 70
     1
102
RTVSPropertyOp28
 70
     1
102
RTVSPropertyOp29
 70
     1
102
RTVSPropertyOp30
 70
     1
102
RTVSPropertyOp31
 70
     1
102
RTVSPropertyOp32
 70
     1
  0
XRECORD
  5
22D
102
{ACAD_REACTORS
330
22C
102
}
330
22C
100
AcDbXrecord
280
     1
102
RTVSPropertyOp0
 70
     1
102
RTVSPropertyOp1
 70
     1
102
RTVSPropertyOp2
 70
     1
102
RTVSPropertyOp3
 70
     1
102
RTVSPropertyOp4
 70
     1
102
RTVSPropertyOp5
 70
     1
102
RTVSPropertyOp6
 70
     1
102
RTVSPropertyOp7
 70
     1
102
RTVSPropertyOp8
 70
     1
102
RTVSPropertyOp9
 70
     1
102
RTVSPropertyOp10
 70
     1
102
RTVSPropertyOp11
 70
     1
102
RTVSPropertyOp12
 70
     1
102
RTVSPropertyOp13
 70
     1
102
RTVSPropertyOp14
 70
     1
102
RTVSPropertyOp15
 70
     1
102
RTVSPropertyOp16
 70
     1
102
RTVSPropertyOp17
 70
     1
102
RTVSPropertyOp18
 70
     1
102
RTVSPropertyOp19
 70
     1
102
RTVSPropertyOp20
 70
     1
102
RTVSPropertyOp21
 70
     1
102
RTVSPropertyOp22
 70
     1
102
RTVSPropertyOp23
 70
     1
102
RTVSPropertyOp24
 70
     1
102
RTVSPropertyOp25
 70
     1
102
RTVSPropertyOp26
 70
     1
102
RTVSPropertyOp27
 70
     1
102
RTVSPropertyOp28
 70
     1
102
RTVSPropertyOp29
 70
     1
102
RTVSPropertyOp30
 70
     1
102
RTVSPropertyOp31
 70
     1
102
RTVSPropertyOp32
 70
     1
  0
XRECORD
  5
22F
102
{ACAD_REACTORS
330
22E
102
}
330
22E
100
AcDbXrecord
280
     1
102
RTVSPropertyOp0
 70
     1
102
RTVSPropertyOp1
 70
     1
102
RTVSPropertyOp2
 70
     1
102
RTVSPropertyOp3
 70
     1
102
RTVSPropertyOp4
 70
     1
102
RTVSPropertyOp5
 70
     1
102
RTVSPropertyOp6
 70
     1
102
RTVSPropertyOp7
 70
     1
102
RTVSPropertyOp8
 70
     1
102
RTVSPropertyOp9
 70
     1
102
RTVSPropertyOp10
 70
     1
102
RTVSPropertyOp11
 70
     1
102
RTVSPropertyOp12
 70
     1
102
RTVSPropertyOp13
 70
     1
102
RTVSPropertyOp14
 70
     1
102
RTVSPropertyOp15
 70
     1
102
RTVSPropertyOp16
 70
     1
102
RTVSPropertyOp17
 70
     1
102
RTVSPropertyOp18
 70
     1
102
RTVSPropertyOp19
 70
     1
102
RTVSPropertyOp20
 70
     1
102
RTVSPropertyOp21
 70
     1
102
RTVSPropertyOp22
 70
     1
102
RTVSPropertyOp23
 70
     1
102
RTVSPropertyOp24
 70
     1
102
RTVSPropertyOp25
 70
     1
102
RTVSPropertyOp26
 70
     1
102
RTVSPropertyOp27
 70
     1
102
RTVSPropertyOp28
 70
     1
102
RTVSPropertyOp29
 70
     1
102
RTVSPropertyOp30
 70
     1
102
RTVSPropertyOp31
 70
     1
102
RTVSPropertyOp32
 70
     1
  0
XRECORD
  5
243
102
{ACAD_REACTORS
330
242
102
}
330
242
100
AcDbXrecord
280
     1
102
RTVSPropertyOp0
 70
     1
102
RTVSPropertyOp1
 70
     1
102
RTVSPropertyOp2
 70
     1
102
RTVSPropertyOp3
 70
     1
102
RTVSPropertyOp4
 70
     1
102
RTVSPropertyOp5
 70
     1
102
RTVSPropertyOp6
 70
     1
102
RTVSPropertyOp7
 70
     1
102
RTVSPropertyOp8
 70
     1
102
RTVSPropertyOp9
 70
     1
102
RTVSPropertyOp10
 70
     1
102
RTVSPropertyOp11
 70
     1
102
RTVSPropertyOp12
 70
     1
102
RTVSPropertyOp13
 70
     1
102
RTVSPropertyOp14
 70
     1
102
RTVSPropertyOp15
 70
     1
102
RTVSPropertyOp16
 70
     1
102
RTVSPropertyOp17
 70
     1
102
RTVSPropertyOp18
 70
     1
102
RTVSPropertyOp19
 70
     1
102
RTVSPropertyOp20
 70
     1
102
RTVSPropertyOp21
 70
     1
102
RTVSPropertyOp22
 70
     1
102
RTVSPropertyOp23
 70
     1
102
RTVSPropertyOp24
 70
     1
102
RTVSPropertyOp25
 70
     1
102
RTVSPropertyOp26
 70
     1
102
RTVSPropertyOp27
 70
     1
102
RTVSPropertyOp28
 70
     1
102
RTVSPropertyOp29
 70
     1
102
RTVSPropertyOp30
 70
     1
102
RTVSPropertyOp31
 70
     1
102
RTVSPropertyOp32
 70
     1
  0
XRECORD
  5
239
102
{ACAD_REACTORS
330
238
102
}
330
238
100
AcDbXrecord
280
     1
102
RTVSPropertyOp0
 70
     1
102
RTVSPropertyOp1
 70
     1
102
RTVSPropertyOp2
 70
     1
102
RTVSPropertyOp3
 70
     1
102
RTVSPropertyOp4
 70
     1
102
RTVSPropertyOp5
 70
     1
102
RTVSPropertyOp6
 70
     1
102
RTVSPropertyOp7
 70
     1
102
RTVSPropertyOp8
 70
     1
102
RTVSPropertyOp9
 70
     1
102
RTVSPropertyOp10
 70
     1
102
RTVSPropertyOp11
 70
     1
102
RTVSPropertyOp12
 70
     1
102
RTVSPropertyOp13
 70
     1
102
RTVSPropertyOp14
 70
     1
102
RTVSPropertyOp15
 70
     1
102
RTVSPropertyOp16
 70
     1
102
RTVSPropertyOp17
 70
     1
102
RTVSPropertyOp18
 70
     1
102
RTVSPropertyOp19
 70
     1
102
RTVSPropertyOp20
 70
     1
102
RTVSPropertyOp21
 70
     1
102
RTVSPropertyOp22
 70
     1
102
RTVSPropertyOp23
 70
     1
102
RTVSPropertyOp24
 70
     1
102
RTVSPropertyOp25
 70
     1
102
RTVSPropertyOp26
 70
     1
102
RTVSPropertyOp27
 70
     1
102
RTVSPropertyOp28
 70
     1
102
RTVSPropertyOp29
 70
     1
102
RTVSPropertyOp30
 70
     1
102
RTVSPropertyOp31
 70
     1
102
RTVSPropertyOp32
 70
     1
  0
XRECORD
  5
241
102
{ACAD_REACTORS
330
240
102
}
330
240
100
AcDbXrecord
280
     1
102
RTVSPropertyOp0
 70
     1
102
RTVSPropertyOp1
 70
     1
102
RTVSPropertyOp2
 70
     1
102
RTVSPropertyOp3
 70
     1
102
RTVSPropertyOp4
 70
     1
102
RTVSPropertyOp5
 70
     1
102
RTVSPropertyOp6
 70
     1
102
RTVSPropertyOp7
 70
     1
102
RTVSPropertyOp8
 70
     1
102
RTVSPropertyOp9
 70
     1
102
RTVSPropertyOp10
 70
     1
102
RTVSPropertyOp11
 70
     1
102
RTVSPropertyOp12
 70
     1
102
RTVSPropertyOp13
 70
     1
102
RTVSPropertyOp14
 70
     1
102
RTVSPropertyOp15
 70
     1
102
RTVSPropertyOp16
 70
     1
102
RTVSPropertyOp17
 70
     1
102
RTVSPropertyOp18
 70
     1
102
RTVSPropertyOp19
 70
     1
102
RTVSPropertyOp20
 70
     1
102
RTVSPropertyOp21
 70
     1
102
RTVSPropertyOp22
 70
     1
102
RTVSPropertyOp23
 70
     1
102
RTVSPropertyOp24
 70
     1
102
RTVSPropertyOp25
 70
     1
102
RTVSPropertyOp26
 70
     1
102
RTVSPropertyOp27
 70
     1
102
RTVSPropertyOp28
 70
     1
102
RTVSPropertyOp29
 70
     1
102
RTVSPropertyOp30
 70
     1
102
RTVSPropertyOp31
 70
     1
102
RTVSPropertyOp32
 70
     1
  0
ENDSEC
  0
EOF
